#TITLE:Her Majesty;
#SUBTITLE:;
#ARTIST:Naotyu;
#TITLETRANSLIT:;
#SUBTITLETRANSLIT:;
#ARTISTTRANSLIT:;
#CREDIT:SupremeX;
#BANNER:Her Majesty-bn.png;
#BACKGROUND:Her Majesty-bg.png;
#LYRICSPATH:;
#CDTITLE:;
#MUSIC:Her Majesty.ogg;
#OFFSET:0.020;
#SAMPLESTART:17.280;
#SAMPLELENGTH:17.297;
#SELECTABLE:YES;
#BPMS:0.000=222.000;
#STOPS:;
#BGCHANGES:;

//---------------dance-single - ----------------
#NOTES:
     dance-single:
     :
     Hard:
     9:
     0.560,0.781,0.605,0.149,0.000: // measure 1
0000
0000
0000
0000
,  // measure 2
0000
0000
0000
0000
,  // measure 3
0000
0000
0000
0000
,  // measure 4
0000
0000
0000
0000
,  // measure 5
0000
0000
0000
0000
,  // measure 6
0000
0000
0000
0000
,  // measure 7
0000
0000
0000
0000
,  // measure 8
0000
0000
0000
0000
,  // measure 9
1001
0000
0000
1001
0000
0000
1001
0000
,  // measure 10
0000
0010
0100
0001
1000
0010
0100
0000
,  // measure 11
1001
0000
0000
1001
0000
0000
1001
0000
,  // measure 12
0000
0100
0010
1000
0001
0100
0010
0000
,  // measure 13
1001
0000
0000
1001
0000
0000
1001
0000
,  // measure 14
0000
0100
0010
0100
0010
0100
0010
0100
,  // measure 15
0000
0001
1000
0001
1000
0001
1000
0010
,  // measure 16
0100
0010
0100
0010
0000
0110
0000
1000
,  // measure 17
0100
0000
0000
1100
0000
0000
0110
0000
,  // measure 18
0000
0011
0000
0000
1000
0000
1100
0000
,  // measure 19
0110
0000
0000
0001
0000
0000
0011
0000
,  // measure 20
0000
0110
1000
1100
,  // measure 21
0010
0000
0000
0101
0000
0000
1010
0000
,  // measure 22
0000
0100
0101
1001
,  // measure 23
0100
0000
0000
1010
0000
0000
0001
0000
,  // measure 24
1000
0100
0010
0001
0010
0100
1000
0000
,  // measure 25
1100
0000
0000
0001
0000
0000
1000
0000
,  // measure 26
1001
0000
0000
1001
0000
0000
0100
0000
,  // measure 27
0110
0000
0000
0110
0000
0000
0001
0000
,  // measure 28
0101
0000
0000
0101
0000
0000
0010
0000
,  // measure 29
1010
0000
0000
1010
0000
0000
0100
0000
,  // measure 30
0101
0000
0000
0101
0000
0000
1000
0000
,  // measure 31
1010
0000
0000
0200
0000
0000
0310
0000
,  // measure 32
0000
0000
0100
0010
1000
0010
0100
0001
,  // measure 33
2000
0000
0000
3100
0000
0000
0100
0000
,  // measure 34
2000
0000
0000
3010
0000
0000
0101
0000
,  // measure 35
0002
0000
0000
0103
0000
0000
1001
0000
,  // measure 36
0020
0000
0000
0130
0000
0000
0100
0000
,  // measure 37
0200
0000
0000
0301
0000
0000
0001
0000
,  // measure 38
0020
0000
0000
0130
0000
0000
0100
0000
,  // measure 39
0200
0000
0000
1300
0000
0000
1000
0000
,  // measure 40
0010
0100
0000
0101
0000
0101
0000
0000
,  // measure 41
0010
0000
1000
0000
1000
0100
0000
1010
,  // measure 42
0000
1010
0000
0000
0100
0000
0110
0000
,  // measure 43
0000
0000
0001
0000
1000
0010
0000
0101
,  // measure 44
0000
0101
0000
0000
0010
0000
1001
0000
,  // measure 45
0000
0000
0100
0000
0010
0100
0000
0110
,  // measure 46
0000
0110
0000
0000
1000
0000
1010
0000
,  // measure 47
0001
0010
0100
1000
,  // measure 48
0001
0010
0100
1000
0001
0010
0100
0000
,  // measure 49
0000
0000
1000
0000
0100
1000
0000
0100
,  // measure 50
0000
2000
0000
0000
3100
0000
1100
0000
,  // measure 51
0000
0000
0001
0000
0010
0001
0000
0010
,  // measure 52
0000
0002
0000
0000
0013
0000
0011
0000
,  // measure 53
0000
0000
0100
0000
1000
0100
0000
1000
,  // measure 54
0000
0120
0000
0000
0130
0000
0101
0000
,  // measure 55
0000
0000
0010
0000
1000
0100
0000
1000
,  // measure 56
0000
1100
0000
0000
0010
0000
0011
0000
,  // measure 57
0001
0000
0010
0000
1000
0100
0000
1000
,  // measure 58
0000
2100
0000
0000
3001
0000
0101
0000
,  // measure 59
0010
0000
0100
0000
0010
0100
0000
1001
,  // measure 60
0000
1200
0000
0000
1300
0000
0010
0000
,  // measure 61
1000
0100
0010
0001
0100
0010
1000
0001
,  // measure 62
0100
0010
1000
0100
0010
0001
0010
0100
,  // measure 63
1000
0100
0010
0100
1000
0100
0010
0001
,  // measure 64
0010
0100
0010
0001
0010
0100
0000
0000
,  // measure 65
1000
0100
1000
0100
1000
0000
0000
0000
,  // measure 66
1100
0000
0000
1100
0000
0000
0000
0000
,  // measure 67
0001
0010
0001
0010
0001
0000
0000
0000
,  // measure 68
0011
0000
0000
0011
0000
0000
0000
0000
,  // measure 69
1000
0100
1000
0100
0000
1000
0000
0000
,  // measure 70
0110
0000
0000
0110
0000
0000
0000
0000
,  // measure 71
0001
0010
0001
0010
0000
0001
0000
0000
,  // measure 72
0110
0000
0000
0110
0000
0000
0000
0000
,  // measure 73
1000
0100
1000
0100
0000
1000
0000
0000
,  // measure 74
1010
0000
0000
1010
0000
0000
0000
0000
,  // measure 75
0001
0010
0001
0010
0000
0001
0000
0000
,  // measure 76
0101
0000
0000
0101
0000
0000
0000
0000
,  // measure 77
0100
0010
0100
0010
0000
0100
0000
0000
,  // measure 78
1001
0000
0000
1001
0000
0000
0000
0000
,  // measure 79
0010
0100
0010
0100
0000
0010
0000
0000
,  // measure 80
1000
0100
1000
0100
0000
0010
0000
0010
,  // measure 81
0000
0001
0010
0100
1000
0100
0010
0001
,  // measure 82
1000
0000
1000
0001
0010
0100
1000
0000
,  // measure 83
0010
0000
0100
0010
0000
0000
0100
0000
,  // measure 84
0001
0000
1000
0100
0010
0001
1000
0001
,  // measure 85
0100
0000
0000
1010
0000
0000
0100
0000
,  // measure 86
0001
0000
0010
0001
0000
0000
0110
0000
,  // measure 87
1000
0000
0000
1000
0000
0000
0000
0000
,  // measure 88
0000
0010
0100
0001
0100
0010
0100
0001
,  // measure 89
1000
0000
0000
1001
0000
0000
0100
0000
,  // measure 90
0010
0000
0100
0010
0000
0000
1000
0000
,  // measure 91
0001
0000
0100
0010
0000
0000
1000
0000
,  // measure 92
0001
0000
1000
0100
0010
0001
0010
0100
,  // measure 93
0000
1000
0000
0110
0000
0000
0001
0000
,  // measure 94
1000
0000
0010
0100
0010
1000
0001
0100
,  // measure 95
0010
1000
0100
0020
0000
0030
0001
0200
,  // measure 96
0000
0300
0001
2000
0000
3000
0010
0200
,  // measure 97
0000
0010
0000
0010
,  // measure 98
0000
0010
0000
0310
,  // measure 99
1000
0000
0000
0100
0000
0000
0100
0000
,  // measure 100
1000
0000
0000
0001
0000
0000
0001
0000
,  // measure 101
1000
0000
0000
1000
0000
0000
0010
0000
,  // measure 102
0010
0000
0000
0000
,  // measure 103
0100
0000
0000
0100
0000
0000
0001
0000
,  // measure 104
0000
0010
0000
0100
,  // measure 105
1000
0000
0000
0010
0000
0000
0010
0000
,  // measure 106
0000
0000
0000
0000
,  // measure 107
1000
0000
0000
0000
,  // measure 108
0000
0000
0010
0000
0000
0100
0000
0000
,  // measure 109
0010
0000
0000
0000
,  // measure 110
1000
0000
0000
1000
0000
0000
0001
0000
,  // measure 111
0001
0000
0000
0000
,  // measure 112
0000
0000
1000
0000
0000
0001
0000
0000
,  // measure 113
1000
0000
0000
0000
0000
0010
0100
0010
,  // measure 114
2002
0000
0000
0000
,  // measure 115
0000
0000
0000
0000
,  // measure 116
0000
0000
0000
0000
,  // measure 117
0000
0000
0000
0000
,  // measure 118
3003
0000
0000
0000
;

//---------------dance-single - ----------------
#NOTES:
     dance-single:
     :
     Medium:
     8:
     0.445,0.643,0.298,0.071,0.000:
0000
0000
0000
0000
,
0000
0000
0000
0000
,
0000
0000
0000
0000
,
0000
0000
0000
0000
,
0000
0000
0000
0000
,
0000
0000
0000
0000
,
0000
0000
0000
0000
,
0000
0000
0000
0000
,
1000
0000
0000
0001
0000
0000
1001
0000
,
0000
0010
0100
0010
0100
0010
0100
0000
,
1000
0000
0000
0001
0000
0000
1001
0000
,
0000
0100
0010
0100
0010
0100
0010
0000
,
0001
0000
0000
1000
0000
0000
0011
0000
,
0000
1000
0100
1000
0100
1000
0100
0000
,
0000
0001
0010
0001
0010
0001
0010
0001
,
0000
1000
0100
1000
0000
0010
0000
0100
,
0010
0000
0000
0100
0000
0000
0001
0000
,
0000
1000
0000
0000
0001
0000
0100
0000
,
1010
0000
0000
0100
0000
0000
0010
0000
,
0000
0001
0100
1100
,
0001
0000
0000
1000
0000
0000
1001
0000
,
0000
0100
0001
0010
,
0011
0000
0000
1000
0000
0000
0001
0000
,
0001
0100
1001
0010
,
0110
0000
0000
0001
0000
0000
1000
0000
,
1100
0000
0000
0010
0000
0000
0001
0000
,
0011
0000
0000
0100
0000
0000
1000
0000
,
1010
0000
0000
0001
0000
0000
0010
0000
,
0101
0000
0000
1000
0000
0000
1000
0000
,
0110
0000
0000
0001
0000
0000
0001
0000
,
0110
0000
0000
0001
0000
0000
0010
0000
,
0000
1000
1001
0001
,
0100
0000
0000
0100
0000
0000
0100
0000
,
0010
0000
0000
0010
0000
0000
0010
0000
,
0100
0000
0000
0100
0000
0000
0100
0000
,
1000
0000
0000
1000
0000
0000
1000
0000
,
0001
0000
0000
0001
0000
0000
0001
0000
,
0010
0000
0000
0010
0000
0000
0010
0000
,
0100
0000
0000
0100
0000
0000
0100
0000
,
1000
0001
0000
0110
0000
0110
0000
0000
,
1000
0000
0001
0000
1000
0001
0000
0010
,
0000
0010
0000
0000
0100
0000
0100
0000
,
0000
0000
1000
0000
0001
1000
0000
0010
,
0000
0010
0000
0000
0100
0000
0100
0000
,
0000
0000
1000
0000
0010
0001
0000
1000
,
0000
1000
0000
0000
0001
0000
0001
0000
,
1000
0001
1000
0001
,
1000
0001
1000
0001
1000
0001
1000
0000
,
0000
0000
1000
0000
0010
0001
0000
1000
,
0000
0200
0000
0000
0310
0000
0001
0000
,
0000
0000
0001
0000
0010
1000
0000
0001
,
0000
0020
0000
0000
0130
0000
1000
0000
,
0000
0000
1000
0000
0100
0001
0000
0010
,
0000
0002
0000
0000
1003
0000
1000
0000
,
0000
0000
0001
0000
0010
0100
0000
1000
,
0000
0020
0000
0000
0031
0000
0001
0000
,
1000
0000
0100
0000
0001
0001
0000
1000
,
0000
2000
0000
0000
3001
0000
0001
0000
,
0100
0000
0100
0000
0010
0010
0000
0100
,
0000
0200
0000
0000
0301
0000
0001
0000
,
1100
0001
0011
0010
,
1010
0001
0101
0001
,
1001
1000
1001
0001
,
0110
0010
0110
0000
,
1000
0001
1000
0000
,
0010
0000
0000
0110
0000
0000
0000
0000
,
1000
0001
1000
0000
,
0100
0000
0000
0110
0000
0000
0000
0000
,
0100
0000
0010
0000
,
1000
0000
0000
1001
0000
0000
0000
0000
,
0010
0000
0010
0000
0000
0100
0000
0000
,
1000
0000
0000
1001
0000
0000
0000
0000
,
0010
0100
0010
0100
0000
0100
0000
0000
,
0001
0000
0000
0011
0000
0000
0000
0000
,
1000
0010
1000
0010
0000
0001
0000
0000
,
1000
0000
0000
1100
0000
0000
0000
0000
,
0001
0100
0001
0100
0000
0001
0000
0000
,
1000
0000
0000
0001
0000
0000
0000
0000
,
1000
0100
0010
0001
0000
0001
0000
0000
,
1000
0000
1100
0000
0000
0001
0000
0010
,
0000
1000
0001
0100
0001
0100
0001
0100
,
0000
0000
1000
0000
0010
0100
0010
0000
,
1000
0000
0010
0100
0000
0000
0010
0000
,
0100
0000
1000
0010
0000
0000
0000
0001
,
0100
0000
0000
1010
0000
0000
0100
0000
,
0001
0000
1000
0010
0000
0000
0101
0000
,
1000
0000
0000
0010
0000
0000
0000
0000
,
0000
0001
0000
0010
0100
0000
0000
0000
,
1000
0000
0000
1001
0000
0000
0100
0000
,
0010
0000
0100
0010
0000
0000
0001
0000
,
1000
0000
0010
0100
0000
0000
0010
0000
,
1000
0000
0000
0100
0000
0010
0100
0000
,
0000
0001
0000
1001
0000
0000
0010
0000
,
0100
0000
0010
0100
0000
0001
1000
0010
,
0100
0000
1000
0001
0000
0000
0010
0001
,
0000
0000
1000
0001
0000
0000
1000
0020
,
0000
0000
0000
0000
,
0000
0000
0000
0030
,
1000
0000
0000
1000
0000
0000
1000
0000
,
0001
0000
0000
0001
0000
0000
0001
0000
,
0010
0000
0000
0010
0000
0000
0010
0000
,
0100
0000
0000
0000
,
0100
0000
0000
0100
0000
0000
0100
0000
,
0000
0001
0000
0001
,
0010
0000
0000
0010
0000
0000
0010
0000
,
0000
0000
0000
0000
,
1000
0000
0000
0000
,
0000
0000
0100
0000
0000
0100
0000
0000
,
1000
0000
0000
0000
,
0001
0000
0000
1000
0000
0000
0010
0000
,
0010
0000
0000
0000
,
0000
0000
0001
0000
0000
1000
0000
0000
,
0001
0000
0000
0000
0000
0010
0000
0100
,
0000
2002
0000
0000
0000
0000
0000
0000
,
0000
0000
0000
0000
,
0000
0000
0000
0000
,
0000
0000
0000
0000
,
3003
0000
0000
0000
;

//---------------dance-single - ----------------
#NOTES:
     dance-single:
     :
     Easy:
     3:
     0.276,0.414,0.000,0.016,0.000:
0000
0000
0000
0000
,
0000
0000
0000
0000
,
0000
0000
0000
0000
,
0000
0000
0000
0000
,
0000
0000
0000
0000
,
0000
0000
0000
0000
,
0000
0000
0000
0000
,
0000
0000
0000
0000
,
1000
0000
0000
0001
0000
0000
1000
0000
,
0000
0010
0000
0100
0000
0010
0000
0000
,
0001
0000
0000
1000
0000
0000
0001
0000
,
0000
0100
0000
0010
0000
0100
0000
0000
,
0001
0000
0000
0010
0000
0000
1000
0000
,
0000
0001
0000
0100
0000
0001
0000
0000
,
1000
0010
1000
0100
,
0001
0000
0000
0010
0000
0010
0000
0000
,
1000
0000
0000
0001
0000
0000
0100
0000
,
0000
0010
0000
0000
1000
0000
1000
0000
,
1000
0000
0000
0001
0000
0000
0100
0000
,
0000
0001
0000
0000
0010
0000
0010
0000
,
0010
0000
0000
0001
0000
0000
1000
0000
,
0000
0010
0000
0000
0100
0000
0100
0000
,
0100
0000
0000
0001
0000
0000
0100
0000
,
0000
1000
0000
0000
0001
0000
0001
0000
,
0001
0000
0000
0010
0000
0000
1000
0000
,
0010
0000
0000
0100
0000
0000
0001
0000
,
1000
0000
0000
0010
0000
0000
0100
0000
,
0001
0000
0000
0010
0000
0000
1000
0000
,
0100
0000
0000
0010
0000
0000
0010
0000
,
0001
0000
0000
0001
0000
0000
0010
0000
,
0100
0000
0000
0100
0000
0000
1000
0000
,
0000
0010
0010
0010
,
0001
0000
0000
0100
0000
0000
0001
0000
,
0100
0000
0000
0010
0000
0000
1000
0000
,
0010
0000
0000
1000
0000
0000
0001
0000
,
0100
0000
0000
0001
0000
0000
0100
0000
,
0001
0000
0000
0100
0000
0000
0010
0000
,
1000
0000
0000
0010
0000
0000
1000
0000
,
0010
0000
0000
1000
0000
0000
0001
0000
,
0000
0000
0000
0000
,
0010
0000
0000
0000
0000
0000
0000
1000
,
0000
1000
0000
0000
0010
0000
0100
0000
,
0000
0000
0000
0000
0000
0000
0000
0001
,
0000
0001
0000
0000
0100
0000
0010
0000
,
0001
0000
0000
0000
0000
0000
0000
1000
,
0000
1000
0000
0000
0010
0000
0100
0000
,
0001
0000
0001
0000
,
0001
0000
0000
0000
,
1000
0000
0010
0000
0000
1000
0000
0010
,
0000
1000
0000
0000
0010
0000
0100
0000
,
0000
0000
0010
0000
0000
0001
0000
0100
,
0000
0001
0000
0000
0010
0000
1000
0000
,
0000
0000
0001
0000
0000
0000
0000
0010
,
0000
0100
0000
0000
0100
0000
0010
0000
,
0000
0000
0001
0000
0000
1000
0000
0100
,
0000
0100
0000
0000
1000
0000
0010
0000
,
0000
0001
0000
0000
0000
0001
0000
0010
,
0000
0100
0000
0000
1000
0000
1000
0000
,
0000
0100
0000
0000
0010
0000
0000
0100
,
0000
0010
0000
0000
0001
0000
1000
0000
,
0000
0000
0001
0000
0000
1000
0000
0010
,
0000
1000
0000
0000
0001
0000
0100
0000
,
0010
0100
0010
0100
,
0010
0100
0010
0100
,
1000
0000
0000
0000
,
0001
0000
0000
0010
0000
0000
0100
0000
,
1000
0000
0000
0000
,
1000
0000
0000
0100
0000
0000
0010
0000
,
0001
0000
0000
1000
0000
0000
0000
0000
,
0001
0000
0000
0001
0000
0000
0000
0000
,
1000
0000
0000
0000
,
0010
0000
0000
0100
0000
0000
0000
0000
,
0010
0000
0000
0100
0000
0000
0000
0000
,
0001
0000
0000
0001
0000
0000
0000
0000
,
1000
0000
0000
1000
0000
0000
0000
0000
,
0100
0000
0000
0010
0000
0000
0000
0000
,
0100
0000
0000
0010
0000
0000
0000
0000
,
0010
0000
0000
0001
0000
0000
0000
0000
,
0001
0000
0000
0010
0000
0000
0000
0000
,
0100
0010
0100
0010
,
0100
0010
0000
1000
,
0000
0001
0000
0001
,
1000
0000
0000
0010
,
0000
0100
0000
0010
,
0000
0100
0000
0010
,
0000
0100
0000
0010
,
0000
1000
0000
0001
,
0000
1000
0000
0001
,
0000
1000
0000
0001
,
0000
0100
0000
0001
,
0000
0100
0000
0001
,
0000
1000
0010
1000
,
0000
0010
0000
1000
,
0000
0100
0000
0001
,
0000
1000
0000
0010
,
0000
1000
0000
0200
,
0000
0000
0000
0000
,
0000
0000
0000
0000
0000
0000
0000
0300
,
0010
0000
0000
0000
,
1000
0000
0000
0000
,
1000
0000
0000
0000
,
0001
0000
0000
0000
,
1000
0000
0000
0000
,
0001
0000
0000
0000
,
0100
0000
0000
0000
,
0010
0000
0000
0000
,
0100
0000
0000
0000
,
1000
0000
0000
0000
,
0010
0000
0000
0000
,
0001
0000
0000
0000
,
0100
0000
0000
0000
,
0100
0000
0000
0000
,
1000
0000
0000
0000
,
0020
0000
0000
0000
,
0000
0000
0000
0000
,
0000
0000
0000
0000
,
0000
0000
0000
0000
,
0030
0000
0000
0000
;

//---------------dance-single - Copied from----------------
#NOTES:
     dance-single:
     Copied from:
     Beginner:
     1:
     0.085,0.132,0.008,0.000,0.000:
0000
0000
0000
0000
,
0000
0000
0000
0000
,
0000
0000
0000
0000
,
0000
0000
0000
0000
,
0000
0000
0000
0000
,
0000
0000
0000
0000
,
0000
0000
0000
0000
,
0000
0000
0000
0000
,
0001
0000
0000
0000
,
0000
0000
0000
0000
,
1000
0000
0000
0000
,
0000
0000
0000
0000
,
0001
0000
0000
0000
,
0000
0000
0000
0000
,
1000
0000
0000
0000
,
0001
0000
0000
0000
,
1000
0000
0000
0000
,
0001
0000
0000
0000
,
0100
0000
0000
0000
,
0010
0000
0000
0000
,
0100
0000
0000
0000
,
0010
0000
0000
0000
,
0100
0000
0000
0000
,
0000
0000
0000
0000
,
1000
0000
0000
0000
,
1000
0000
0000
0000
,
1000
0000
0000
0000
,
1000
0000
0000
0000
,
0001
0000
0000
0000
,
0001
0000
0000
0000
,
0001
0000
0000
0000
,
0000
0000
0000
0000
,
0100
0000
0000
0000
,
0100
0000
0000
0000
,
0100
0000
0000
0000
,
0100
0000
0000
0000
,
0010
0000
0000
0000
,
0010
0000
0000
0000
,
0010
0000
0000
0000
,
0000
0000
0000
0000
,
0100
0000
0000
0000
,
0000
0000
0000
0000
,
0010
0000
0000
0000
,
0000
0000
0000
0000
,
1000
0000
0000
0000
,
0000
0000
0000
0000
,
0001
0000
0000
0000
,
0000
0000
0000
0000
,
1000
0000
0000
0000
,
0000
0000
0000
0000
,
0010
0000
0000
0000
,
0000
0000
0000
0000
,
0001
0000
0000
0000
,
0000
0000
0000
0000
,
0100
0000
0000
0000
,
0000
0000
0000
0000
,
1000
0000
0000
0000
,
0010
0000
0000
0000
,
1000
0000
0000
0000
,
0010
0000
0000
0000
,
0000
0000
0000
0000
,
0000
0000
0000
0000
,
0001
0000
0000
0000
,
0000
0000
0000
0000
,
0100
0000
0000
0000
,
0100
0000
0000
0000
,
1000
0000
0000
0000
,
0010
0000
0000
0000
,
0010
0000
0000
0000
,
0001
0000
0000
0000
,
0001
0000
0000
0000
,
1000
0000
0000
0000
,
0100
0000
0000
0000
,
1000
0000
0000
0000
,
0001
0000
0000
0000
,
0010
0000
0000
0000
,
0001
0000
0000
0000
,
1000
0000
0000
0000
,
0010
0000
0000
0000
,
0100
0000
0000
0000
,
0000
0000
0000
0000
,
0010
0000
0000
0000
,
0100
0000
0000
0000
,
0001
0000
0000
0000
,
1000
0000
0000
0000
,
0000
0000
0000
0000
,
0010
0000
0000
0000
,
0000
0000
0000
0000
,
0100
0000
0000
0000
,
0000
0000
0000
0000
,
0001
0000
0000
0000
,
1000
0000
0000
0000
,
0001
0000
0000
0000
,
1000
0000
0000
0000
,
0001
0000
0000
0000
,
0000
0000
0000
0000
,
1001
0000
0000
0000
,
0000
0000
0000
0000
,
0100
0000
0000
0000
,
0000
0000
0000
0000
,
0010
0000
0000
0000
,
0000
0000
0000
0000
,
1000
0000
0000
0000
,
0000
0000
0000
0000
,
0001
0000
0000
0000
,
0000
0000
0000
0000
,
0100
0000
0000
0000
,
0000
0000
0000
0000
,
0010
0000
0000
0000
,
0000
0000
0000
0000
,
1000
0000
0000
0000
,
0000
0000
0000
0000
,
0001
0000
0000
0000
;
