#TITLE:HEARTBEAT SONG;
#SUBTITLE:;
#ARTIST:DJ SPEEDO feat. ANGELICA;
#TITLETRANSLIT:;
#SUBTITLETRANSLIT:;
#ARTISTTRANSLIT:;
#GENRE:;
#CREDIT:SupremeX;
#MUSIC:HEARTBEAT SONG.ogg;
#BANNER:HEARTBEAT SONG-bn.png;
#BACKGROUND:HEARTBEAT SONG-bg.png;
#CDTITLE:;
#SAMPLESTART:47.335;
#SAMPLELENGTH:12.000;
#SELECTABLE:YES;
#OFFSET:-0.085;
#BPMS:0.000=160.000;
#STOPS:;
#BGCHANGES:;
#FGCHANGES:;

//--------------- dance-single - ----------------
#NOTES:
     dance-single:
     :
     Beginner:
     2:
     0,0,0,0,0:
0000
0000
0000
0000
,
0000
0000
0000
0000
,
0000
0000
0000
0000
,
0000
0000
0000
0000
,
0010
0000
0010
0000
,
0100
0000
0100
0000
,
0001
0000
0001
0000
,
1000
0000
1000
0000
,
0001
0000
0000
0000
,
1000
0000
0010
0000
,
1000
0000
0000
0000
,
0001
0000
0100
0000
,
0001
0000
0000
0000
,
1000
0000
1000
0000
,
0010
0000
0100
0000
,
0010
0000
0000
0000
,
0001
0000
0000
0000
,
0001
0000
1000
0000
,
0001
0000
0000
0000
,
0100
0000
0100
0000
,
0100
0000
0000
0000
,
0010
0000
1000
0000
,
0001
0000
1000
0000
,
1000
0000
0000
0000
,
0100
0000
0000
0000
,
0000
0000
0010
0010
,
0010
0000
0000
0000
,
0000
0000
1000
1000
,
1000
0000
0000
0000
,
0000
0000
0001
0001
,
0001
0000
0000
0000
,
0100
0000
0000
0000
,
0010
0000
0010
0000
,
0010
0000
0010
0000
,
1000
0000
1000
0000
,
1000
0000
0000
0000
1000
0000
0000
0010
,
0000
0010
0000
0010
0000
0010
0000
0010
,
0000
0010
0000
0010
0000
0000
0000
0100
,
0000
0100
0000
0100
0000
0100
0000
0100
,
0000
0000
0000
0000
,
0001
0000
1000
0000
,
0001
0000
1000
0000
,
0010
0000
0100
0000
,
0010
0000
0000
0000
0100
0000
0000
0001
,
0000
0001
0000
0001
0000
0001
0000
0001
,
0000
0001
0000
0001
0000
0000
0000
1000
,
0000
1000
0000
1000
0000
1000
0000
1000
,
0000
0000
0000
0000
,
0010
0000
0100
0000
,
0001
0000
1000
0000
,
0010
0000
0100
0000
,
0001
0000
0000
0000
1000
0000
0000
0010
,
0000
0010
0000
0010
0000
0010
0000
0010
,
0000
0000
0000
0000
0000
0000
0000
0100
,
0000
0100
0000
0100
0000
0100
0000
0100
,
0000
0000
0000
0000
,
0001
0000
0000
0000
1000
0000
0000
0010
,
0000
0100
0000
0010
0000
0100
0000
0001
,
0000
0000
0000
1000
0000
0000
0000
0001
,
0000
1000
0000
0001
0000
1000
0000
0010
,
0000
0010
0000
0010
0000
0010
0000
0010
,
0000
0010
0000
0010
0000
0000
0000
0100
,
0000
0100
0000
0100
0000
0100
0000
0100
,
0000
0000
0000
0000
,
0001
0000
0000
0000
,
0000
0000
1000
1000
,
1000
0000
0000
0000
,
0000
0000
0001
0001
,
0001
0000
0000
0000
,
0000
0000
0100
0010
,
0100
0000
0000
0000
;

//--------------- dance-single - ----------------
#NOTES:
     dance-single:
     :
     Easy:
     4:
     0,0,0,0,0:
0000
0000
0000
0000
,
0000
0000
0000
0000
,
0000
0000
0000
0000
,
0000
0000
0000
0000
,
1000
0000
0000
0110
0000
0100
0000
1000
,
0010
1000
0000
0001
0000
0001
0000
0100
,
0010
0100
0000
0001
0000
0001
0000
1000
,
0010
1000
0000
0001
0000
0001
0000
0000
,
1000
0010
0100
0001
,
1000
0001
1000
0010
,
0100
0100
0001
1000
,
0001
1000
0001
0000
0100
0000
0010
0000
,
1000
0010
0100
0001
,
1000
0000
0010
1000
0010
0000
0100
0000
,
0002
0000
0000
2003
0000
0000
3001
0001
,
0000
1000
0010
1000
,
0001
0100
0010
1000
,
0001
1000
0001
0000
0100
0000
0010
0000
,
1000
0001
1000
0001
,
1000
0001
1000
0000
0010
0000
0100
0000
,
0001
1000
0010
1000
,
0010
0000
0100
0010
0100
0000
0001
0000
,
2000
0000
0001
0000
0100
0000
0010
3010
,
0000
1000
1000
1000
,
0001
0001
0001
0001
,
0001
0001
1001
1001
,
1000
1000
1000
1000
,
1000
1000
0110
0110
,
0010
0010
0010
0010
,
0010
0010
1000
0001
,
1000
1000
1000
1000
,
0002
0000
0000
0003
0000
0000
0000
0000
,
1000
0001
1000
0010
,
0100
0000
0010
0100
0010
0000
1000
0000
,
0001
0100
0010
1000
,
0001
0000
0100
0000
0001
1000
0001
0000
,
0100
0010
1000
0010
,
0100
0010
0010
1000
,
0001
1000
0010
0100
,
0100
0000
0000
0000
0001
1000
0001
1000
,
0000
0010
0000
0100
0000
0010
0000
1000
,
0000
0010
0000
0100
0000
0100
0000
0001
,
0000
0010
0000
0100
0000
1000
0000
0010
,
0000
0100
0000
0010
0000
1000
0000
0001
,
0000
0001
0000
0001
0000
0001
0000
1000
,
0000
0001
0000
1001
0000
0000
0100
0100
,
0000
0010
0000
0010
0000
0100
0000
0110
,
0000
0000
0000
0000
1000
0001
1000
0001
,
0000
1000
0000
0010
0000
0100
0000
0010
,
0000
0100
0000
0010
0000
0100
0000
0010
,
0001
0001
1000
0010
,
0100
1000
0010
0100
,
0001
0001
1000
0010
,
1000
0010
0100
0001
,
1000
0010
0100
0001
,
1001
0010
0100
0010
,
0000
1000
0000
1000
0000
0001
0000
0001
,
0000
1000
0100
1000
0000
1000
0000
0010
,
0000
0100
0001
0000
1000
0000
0010
0000
,
0100
0000
0001
1000
0001
0000
0010
0000
,
0100
0100
0100
0100
,
0100
0010
0000
1001
0000
0000
0001
1000
,
0000
0001
0000
0001
0000
0100
0000
0110
,
0000
0000
0000
0000
,
1000
0100
0010
0001
,
0010
0100
1000
1000
,
0100
0010
0001
0010
,
0100
1000
0100
0100
,
0010
0001
0010
0100
,
1000
0001
0100
0001
,
1000
0010
1000
0000
;

//--------------- dance-single - ----------------
#NOTES:
     dance-single:
     :
     Medium:
     6:
     0,0,0,0,0:
0000
0000
0000
0000
,
0000
0000
0000
0000
,
0000
0000
0000
0000
,
0000
0000
0000
0000
,
0010
0100
0000
0100
0000
0100
0000
0010
,
0100
0010
0000
0010
0000
0010
0000
1000
,
0100
1000
0000
1000
0000
1000
0000
0001
,
0010
0001
0000
0001
0000
0001
0000
0000
,
1000
0100
0010
0001
,
1000
0100
1000
0000
0100
0000
0010
0000
,
0001
0010
0001
0000
1000
0010
1000
0000
,
0001
0100
0001
0100
,
0010
1000
0010
0000
0100
0001
0100
0000
,
0010
0010
1000
1000
,
0001
0001
0100
0100
,
0010
0010
1000
0010
,
1000
0010
0100
0001
,
1000
0100
1000
0000
0001
0100
0001
0000
,
1000
0100
0010
0001
,
1000
0010
1000
0000
0001
0100
0001
0000
,
1000
0010
0100
0001
,
1000
0010
0100
0000
0001
1000
0010
0000
,
1000
0100
1000
0001
,
1000
0001
0100
0010
,
1001
1001
1001
0110
,
0110
0110
1001
0110
,
0011
0011
0011
1100
,
1100
1100
0011
1100
,
1010
1010
1010
0101
,
0101
0101
1010
0101
,
0020
0000
0000
0000
0000
0000
0000
0100
,
0230
0000
0300
0000
,
0001
1000
0001
1000
,
0010
0100
0010
0000
1000
0000
0001
0000
,
0100
0010
1000
0010
0000
0100
0000
0001
,
0000
1000
0000
0010
0000
0100
0000
0001
,
1000
0001
0000
0100
0010
0100
0000
0001
,
1000
0001
0000
1000
0000
0000
0010
0100
,
0000
0001
0000
0001
0000
1000
0000
1000
,
0000
0000
0000
0000
0010
0100
0010
0100
,
0000
0001
0000
0100
0000
0001
0000
1000
,
0100
0010
0001
1000
0000
0010
0000
1000
,
0000
0001
0000
0100
0000
0001
0000
1000
,
0001
1000
0010
1000
0000
0100
0000
0010
,
0001
0010
0000
0100
1000
0100
0000
1000
,
0100
1000
0000
0001
0000
0000
0010
0010
,
0000
0100
0000
0100
0000
1000
0001
1000
,
0000
0000
0000
0000
0100
0010
0100
0010
,
0000
0001
0000
0010
0000
0001
0000
0010
,
0100
0010
0000
1000
0000
1000
0000
0001
,
0100
0001
0000
0100
0000
0100
0000
0010
,
1000
0010
0000
1000
0000
1000
0000
0100
,
0010
0100
0000
0001
0100
0001
0000
1000
,
0100
1000
0000
0010
0000
0010
0000
1000
,
0100
1000
0100
1000
0100
1000
0100
0010
,
0001
0010
0001
0010
0001
0010
0001
1000
,
0000
0100
0000
1000
0000
0100
0000
1000
,
0000
0100
0000
0001
0000
0001
0000
1000
,
0010
1000
0000
0001
0100
0001
0000
0100
,
0010
0100
0000
0001
1000
0001
0000
1000
,
0000
0010
0000
1000
0000
0010
0000
0100
,
0001
1000
0001
1000
0000
0000
0010
0100
,
0000
0001
0000
0001
0000
1000
0000
1001
,
0000
0000
0000
0000
,
1000
0001
1000
0010
,
0100
0001
1001
1001
,
0010
0100
0001
1000
,
0010
0100
0110
0110
,
0001
1000
0010
0100
,
0001
1000
1100
1100
,
0001
0010
0100
1000
,
0001
1000
0011
0011
;

//--------------- dance-single - ----------------
#NOTES:
     dance-single:
     :
     Hard:
     9:
     0,0,0,0,0:
0000
0000
0000
0000
,
0000
0000
0000
0000
,
0000
0000
0000
0000
,
0000
0000
0000
0000
,
0100
0010
0000
0010
0000
1010
0000
0001
,
0100
0001
0000
1000
0000
1001
0000
0010
,
0100
0010
0000
1000
0000
0110
0000
0100
,
0010
0100
0000
0001
0000
0101
0000
0000
,
0010
1000
0001
1000
,
0001
0100
0010
0100
0001
0000
1000
0100
,
1000
0100
0010
0001
0010
0001
0100
0000
,
0001
0010
0100
1000
0010
0000
0100
0000
,
0001
0010
0001
0010
0100
1000
0100
1000
,
0001
0010
0100
1000
0100
0000
1100
0000
,
0002
0023
0230
2300
,
3200
0000
0320
0000
0031
0010
0001
0000
,
0011
1000
0100
1000
,
0001
0010
0001
1000
0001
0010
0001
1000
,
0010
0100
0010
0100
0001
1000
0001
1000
,
0010
0100
0001
0100
0010
0000
1000
0000
,
1100
0010
0011
0100
,
0001
0010
0100
1000
0010
0000
0110
0000
,
2000
3020
0230
0302
,
0023
0000
0230
0000
1300
0100
1000
0000
,
0001
0100
0001
1000
0001
0100
0010
1000
,
0010
0100
0010
0000
1010
0000
0101
0000
,
1000
0100
1000
0001
1000
0100
1000
0001
,
0100
0010
0100
0000
0101
0000
1010
0000
,
0001
0010
0100
1000
0100
0000
0011
0000
,
0110
0000
1100
0000
1000
0000
0010
0100
,
0010
0100
0001
0100
0010
1000
0010
1000
,
0200
0000
0000
0000
0301
0001
1000
0000
,
1001
0000
0100
0010
0100
0010
1000
0010
,
0100
0010
1000
0002
0000
0103
0000
1010
,
0000
1000
0100
0010
0100
1000
0001
0010
,
0100
0010
0001
0010
0100
0001
0000
1000
,
0100
1000
0100
0010
0001
0010
0001
1000
,
0100
1000
0100
1000
0000
0000
0001
0010
,
0100
1000
0100
0010
0001
2000
0000
3001
,
0000
0000
0000
0000
1000
1000
0010
0200
,
0000
0310
0100
0010
0001
0010
0100
2000
,
0000
3200
0000
0320
0000
0031
0000
0001
,
0010
0100
1000
0100
0010
0001
0010
0100
,
1000
0001
1000
0001
0000
1001
0000
0010
,
0100
0010
0100
0001
1000
0001
1000
0010
,
0100
0002
0000
1003
0000
0000
0010
0100
,
0001
1000
0010
0100
0001
1000
0001
0100
,
0000
0010
0100
0010
0100
0010
0010
2000
,
0000
3100
0010
0001
0010
0000
0011
0000
,
1000
0200
0000
1300
0000
1010
0000
0001
,
0010
0001
0010
0100
1000
0100
1000
0001
,
0010
0100
1000
0010
0100
0010
0000
1000
,
0100
1000
0100
0010
0001
0010
0001
0100
,
0010
0100
0001
1000
0100
1000
0000
0001
,
0010
0001
0010
0100
1000
0100
1000
0001
,
0100
0010
1000
0001
0100
0100
0020
0000
,
0130
0000
0000
1000
0100
0010
0001
0200
,
0000
0302
0000
0013
0000
0110
0000
1000
,
0100
0010
0001
0010
0100
1000
0010
0100
,
0010
1000
0001
2000
0000
3100
0000
0001
,
0010
0001
0010
0100
1000
0100
1000
0010
,
0100
0020
0000
0130
0000
0000
0001
0010
,
0100
1000
0100
0010
0001
2000
0000
3001
,
1000
0100
0010
0001
1000
0100
0010
0001
,
2000
0100
0100
0100
,
0100
3100
0110
0110
,
0012
0010
0010
0010
,
0010
0013
1001
1001
,
0220
0000
0000
0000
,
0000
0330
0000
0000
;
