#TITLE:Fire Spirit;
#SUBTITLE:;
#ARTIST:MK;
#TITLETRANSLIT:;
#SUBTITLETRANSLIT:;
#ARTISTTRANSLIT:;
#CREDIT:SupremeX;
#BANNER:Fire Spirit-bn.png;
#BACKGROUND:Fire Spirit-bg.png;
#LYRICSPATH:;
#CDTITLE:;
#MUSIC:Fire Spirit.ogg;
#OFFSET:-3.407;
#SAMPLESTART:19.340;
#SAMPLELENGTH:12.000;
#SELECTABLE:YES;
#BPMS:0.000=120.000;
#STOPS:;
#BGCHANGES:;

//---------------dance-single - ----------------
#NOTES:
     dance-single:
     :
     Hard:
     9:
     0.492,0.518,0.017,0.009,0.213: // measure 1
0000
0000
0000
0000
,  // measure 2
0000
0000
0000
0000
,  // measure 3
0000
0000
0000
0000
,  // measure 4
0000
0000
0000
0000
,  // measure 5
1000
0010
1000
0010
0100
0010
0100
0000
,  // measure 6
0010
0000
0001
0000
0010
0000
0001
0000
1000
0000
0010
0000
1000
0010
1000
0000
,  // measure 7
0000
0010
0100
0010
0100
0010
0100
0000
,  // measure 8
0001
1000
0100
1000
0001
1000
0100
0000
,  // measure 9
1000
0100
0010
0001
1000
0100
0100
0000
,  // measure 10
1000
0010
0100
0010
1000
0001
0001
0000
,  // measure 11
1000
0010
0100
0001
1000
0010
0100
0100
,  // measure 12
0001
1000
0010
0100
0001
0010
0010
0000
,  // measure 13
0100
1000
0100
0010
0001
0010
0110
1000
,  // measure 14
0100
1000
0100
0010
0001
0010
0110
0000
,  // measure 15
1000
0100
0100
1000
1000
0001
0001
0100
,  // measure 16
0010
0100
0010
0100
0010
0100
0010
0000
1000
0001
0000
0001
0100
0000
0100
0000
,  // measure 17
0010
1000
0100
0010
0001
1000
0010
0010
,  // measure 18
1000
0010
0100
0001
0100
0010
1000
1000
,  // measure 19
0001
1000
0010
0100
0001
1000
0001
0001
,  // measure 20
0010
0100
1000
0100
0010
0001
0010
0010
,  // measure 21
0100
1000
0001
0100
0010
1000
0100
0100
,  // measure 22
1000
0001
0010
0100
1000
0100
0010
0010
,  // measure 23
0001
1000
0010
1000
0001
1000
0001
0001
,  // measure 24
1000
0000
0010
1000
0010
0000
0000
0000
0100
0001
0100
0000
0001
0100
0001
0000
,  // measure 25
1000
0000
0100
0000
1000
0100
1000
0000
0010
0000
0100
0000
0010
0000
0100
0000
,  // measure 26
0001
0000
1000
0000
0010
0100
0001
0000
1000
0000
0001
0000
0010
0000
0010
0000
,  // measure 27
0000
0000
0000
0000
0100
1000
0001
0000
0100
0000
0010
0000
0100
0000
0100
0000
,  // measure 28
0000
0000
0000
0000
0010
1000
0001
0000
0100
0000
0010
0000
1000
0000
1000
0000
,  // measure 29
0001
0010
0100
1000
0010
0100
0001
0001
,  // measure 30
0000
0000
1000
0100
0010
0001
0100
0100
,  // measure 31
0000
0000
0010
1000
0001
1000
0010
0010
,  // measure 32
0000
0000
0100
0001
1000
0100
0100
0000
,  // measure 33
1000
0100
0010
0001
0010
0100
1000
0000
,  // measure 34
0010
0100
0001
0100
0010
1000
0001
0000
,  // measure 35
1000
0100
0010
0001
0010
0100
0010
0000
,  // measure 36
1000
0100
1000
0100
0010
0001
0010
0000
,  // measure 37
0100
1000
0100
0010
0001
0010
0100
0000
,  // measure 38
1000
0010
0100
0010
1000
0001
0100
0000
,  // measure 39
0010
1000
1000
0001
0001
1000
1000
0001
,  // measure 40
0100
0010
0100
0010
0100
0010
0100
0000
0010
1000
0000
1000
0001
0000
0001
0000
,  // measure 41
1000
0000
0010
1000
0010
0000
1000
0000
0001
0100
0001
0000
0100
0001
0100
0000
,  // measure 42
0000
0000
0010
0100
0010
0000
0100
0000
0010
0100
0010
0000
1000
0001
1000
0000
,  // measure 43
0000
0000
0010
0100
0010
0000
0010
0000
0010
0100
0010
0000
0100
0010
0100
0000
,  // measure 44
0001
0000
1000
0100
1000
0000
0100
0000
1000
0100
1000
0000
0100
0010
0001
0000
,  // measure 45
0010
0000
0100
1000
0100
0000
0010
0000
0001
0010
0100
0000
1000
0100
0010
0000
,  // measure 46
0001
0000
0100
0010
0100
0000
0010
0000
0100
0010
0100
0000
0001
1000
0001
0000
,  // measure 47
1000
0000
0100
0010
0100
0000
0010
0000
0001
0100
0001
0000
0100
0001
0100
0000
,  // measure 48
0010
0000
1000
0010
1000
0000
0010
0000
0100
0001
0100
0000
0001
0000
0001
0000
,  // measure 49
1000
0000
0100
1000
0100
0000
0000
0000
1000
0100
1000
0000
0100
0010
0100
0000
,  // measure 50
0010
0000
0001
0010
0001
0000
0000
0000
1000
0010
1000
0000
0010
1000
0010
0000
,  // measure 51
1000
0000
0001
0100
0001
0000
0000
0000
0100
0001
0100
0000
0001
1000
0001
0000
,  // measure 52
0100
0010
1000
0001
0100
0010
1000
1000
,  // measure 53
0002
0000
0000
0000
,  // measure 54
0003
0000
0000
0000
;

//---------------dance-single - ----------------
#NOTES:
     dance-single:
     :
     Medium:
     5:
     0.305,0.332,0.128,0.026,0.000:
0000
0000
0000
0000
,
0000
0000
0000
0000
,
0000
0000
0000
0000
,
0000
0000
0000
0000
,
1000
0001
1000
0000
0010
0000
0010
0000
,
1000
0100
1000
0000
0100
0000
0100
0000
,
1000
0001
0100
0000
0001
0000
0001
0000
,
0010
0100
0010
0000
1000
0000
1000
0000
,
0001
1000
0100
0000
0010
0000
1001
0000
,
0010
0100
0010
0000
1000
0000
0110
0000
,
0001
0010
0100
0000
1100
0000
0110
0000
,
0001
1000
0010
0000
0101
0000
1010
0000
,
0001
1000
0001
0000
0100
0000
0100
0000
,
0010
1000
0010
0000
1000
0000
1000
0000
,
0001
0110
1000
0110
,
2002
0000
0000
3003
0101
0000
1001
0000
,
1000
0000
0100
0000
1000
0100
1000
0000
,
0100
0000
0010
0000
0001
0100
0001
0000
,
0100
0000
0010
0000
1000
0010
1000
0000
,
0001
0000
0010
0000
0100
1000
0100
0000
,
0010
0000
0010
0000
0001
0010
0100
0000
,
1000
0000
0010
0000
1000
0100
0010
0000
,
0001
0000
1000
0000
0001
0100
0010
0000
,
1000
0001
1000
0001
,
1000
0000
0010
0100
0010
0100
0010
0000
,
0000
0000
1000
0000
0001
1000
0001
0000
,
0000
0000
1000
0000
0010
0100
0001
0000
,
0000
0000
1000
0000
0001
0010
0100
0000
,
1000
0000
0010
0100
0001
0100
0010
0000
,
0000
0000
1000
0001
0100
0001
1000
0000
,
0000
0000
0010
0100
0010
0100
0010
0000
,
1000
0001
1000
0010
,
0100
0001
0100
0000
0010
0000
0010
0000
,
1000
0001
1000
0000
0100
0000
0100
0000
,
1000
0100
1000
0000
0001
0000
0001
0000
,
1000
0010
0100
0000
0010
0000
0010
0000
,
1000
0001
1000
0000
0110
0000
0110
0000
,
0001
1000
0001
0000
1100
0000
0110
0000
,
0001
1000
0001
1000
,
0010
1000
0001
1000
0200
0000
0300
0000
,
1000
1000
0001
1000
,
0001
0100
0010
0000
0100
0000
0100
0000
,
0001
1000
0001
0000
0010
0000
0010
0000
,
0100
1000
0100
0000
1000
0000
1000
0000
,
0001
0100
0010
0000
0100
0000
0100
0000
,
0001
1000
0100
0000
0010
0000
0010
0000
,
0001
1000
0001
0000
1000
0000
1000
0000
,
0100
0010
0100
0000
0001
0000
0001
0000
,
1000
1000
0010
0010
,
0100
0100
0001
0001
,
1000
1000
0010
0010
,
1000
0001
0010
0100
1000
0010
0100
0001
,
1000
0000
0000
0000
;

//---------------dance-single - ----------------
#NOTES:
     dance-single:
     :
     Easy:
     3:
     0.234,0.243,0.043,0.034,0.000:
0000
0000
0000
0000
,
0000
0000
0000
0000
,
0000
0000
0000
0000
,
0000
0000
0000
0000
,
1000
0010
1000
0010
,
0100
0001
0100
0001
,
1000
0010
1000
0010
,
0100
0001
0100
0001
,
1000
1000
0010
0010
,
0100
0100
0001
0001
,
1000
1000
0010
0010
,
0100
0100
0001
0001
,
1000
0010
0100
0001
,
1000
0010
0100
0001
,
1000
0001
1000
0001
,
2002
0000
0000
3003
0110
0000
0000
0000
,
1000
1000
0010
0010
,
1000
1000
0010
0010
,
0100
0100
0001
0001
,
0100
0100
0001
0001
,
1000
0001
0100
0010
,
1000
0001
0100
0010
,
1000
0001
0100
0010
,
1000
1000
1000
1000
,
0001
0100
0010
1000
,
0000
0001
0100
0010
,
0000
1000
0001
0100
,
0000
0010
1000
0001
,
0000
1000
0010
1000
,
0000
0001
0100
0001
,
1000
0010
1000
1000
,
0001
0100
0001
0001
,
1000
0010
0100
0100
,
0001
1000
0010
0010
,
1000
0001
1000
1000
,
0001
1000
0001
0001
,
0100
0010
0100
0100
,
0010
0100
0010
0010
,
1000
0001
1000
0001
,
2002
0000
0000
3003
0110
0000
0000
0000
,
1000
1000
0001
0001
,
0100
0100
0010
0010
,
1000
1000
0001
0001
,
0100
0100
0010
0010
,
1000
0001
1000
0001
,
0100
0010
0100
0010
,
1000
0001
1000
0001
,
0100
0010
0100
0010
,
1000
1000
0001
0001
,
0100
0100
0010
0010
,
1000
1000
0001
0001
,
0100
0100
0010
0010
,
1001
0000
0000
0000
;

//---------------dance-single - Copied from----------------
#NOTES:
     dance-single:
     Copied from:
     Beginner:
     1:
     0.067,0.111,0.000,0.051,0.000:
0000
0000
0000
0000
,
0000
0000
0000
0000
,
0000
0000
0000
0000
,
0000
0000
0000
0000
,
0010
0000
0000
0000
,
0100
0000
0000
0000
,
0010
0000
0000
0000
,
0100
0000
0000
0000
,
0001
0000
0000
0000
,
0001
0000
0000
0000
,
0001
0000
0000
0000
,
0001
0000
0000
0000
,
1000
0000
0000
0000
,
1000
0000
0000
0000
,
1000
0000
0000
0000
,
2000
0000
3000
0000
,
0010
0000
0000
0000
,
0100
0000
0000
0000
,
0001
0000
0000
0000
,
1000
0000
0000
0000
,
0010
0000
0000
0000
,
0100
0000
0000
0000
,
0001
0000
0000
0000
,
1000
0000
0000
0000
,
0001
0000
0000
0000
,
0100
0000
0000
0000
,
0010
0000
0000
0000
,
1000
0000
0000
0000
,
0001
0000
0000
0000
,
0100
0000
0000
0000
,
0010
0000
0000
0000
,
1000
0000
0000
0000
,
0002
0000
0000
0000
0000
0003
0000
0000
,
0100
0000
0000
0000
,
0020
0000
0000
0000
0000
0030
0000
0000
,
1000
0000
0000
0000
,
0002
0000
0000
0000
0000
0003
0000
0000
,
2000
0000
0000
0000
0000
3000
0000
0000
,
0010
0000
0000
0000
,
0200
0000
0000
0300
,
0010
0000
0000
0000
,
0100
0000
0000
0000
,
0010
0000
0000
0000
,
0100
0000
0000
0000
,
0001
0000
0000
0000
,
1000
0000
0000
0000
,
0001
0000
0000
0000
,
1000
0000
0000
0000
,
0010
0000
0000
0000
,
0100
0000
0000
0000
,
0010
0000
0000
0000
,
0100
0000
0000
0000
,
0010
0000
0000
0000
;
