#TITLE:EMERALD KISS;
#SUBTITLE:;
#ARTIST:jun with Aimee;
#TITLETRANSLIT:;
#SUBTITLETRANSLIT:;
#ARTISTTRANSLIT:;
#GENRE:;
#CREDIT:SupremeX;
#BANNER:EMERALD KISS.png;
#BACKGROUND:EMERALD KISS-bg.png;
#LYRICSPATH:;
#CDTITLE:CDTitle.png;
#MUSIC:EMERALD KISS.ogg;
#OFFSET:-0.053327;
#SAMPLESTART:36.290001;
#SAMPLELENGTH:12.000000;
#SELECTABLE:YES;
#BPMS:0.000000=185.020004
;
#STOPS:
;
#BGCHANGES:;
#KEYSOUNDS:;
#ATTACKS:;

//---------------dance-single - ----------------
#NOTES:
     dance-single:
     :
     Beginner:
     2:
     0.188436,0.221383,0.064344,0.024129,0.000000,164.000000,156.000000,8.000000,3.000000,0.000000,0.000000,0.188436,0.221383,0.064344,0.024129,0.000000,164.000000,156.000000,8.000000,3.000000,0.000000,0.000000:
0000
0000
0000
0000
,
0000
0000
0000
0000
,
0000
0000
0000
0000
,
0000
0000
0000
0000
,
1000
0000
0100
0000
,
1000
0000
0100
0000
,
1000
0000
0010
0000
,
1000
0000
0010
0000
,
0001
0000
0100
0000
,
0001
0000
0100
0000
,
0001
0000
0010
0000
,
0001
0000
0010
0000
,
0200
0000
0000
0000
,
0000
0000
0300
0000
,
0020
0000
0000
0000
,
0000
0000
0000
0030
,
1000
0000
1000
0000
,
1000
0000
1000
0000
,
1000
0000
1000
0000
,
1000
0000
1000
0000
,
0000
0100
0000
0100
,
0000
0100
0000
0100
,
0000
0100
0000
0100
,
0000
0100
0000
0100
,
0000
0010
0000
0010
,
0000
0010
0000
0010
,
0001
0000
0001
0000
,
0000
0000
0000
0110
,
0000
0001
0000
1000
,
0000
0010
0000
0100
,
0000
0001
0000
1000
,
0000
0010
0000
0100
,
0000
0001
0000
0100
,
0000
1000
0000
0010
,
0000
0100
0000
0001
,
0000
0010
0000
1000
,
0000
0100
0000
0010
,
0000
0001
0000
0100
,
0000
0010
0000
1000
,
0000
0010
0000
0100
,
0000
0001
0000
1000
,
0000
0010
0000
0000
,
0110
0000
0110
0000
,
0000
0000
0000
1001
,
0000
0100
0000
0100
,
0000
0100
0000
0010
,
0000
0010
0000
0010
,
0000
0001
0000
1000
,
0000
1000
0000
1000
,
0000
1000
0000
0100
,
0000
0010
0000
0100
,
0000
0010
0000
0000
,
0001
0000
0000
0000
,
1010
0000
0000
0000
,
0100
0000
0000
0000
,
0101
0000
0000
0000
,
1000
0000
1000
0000
,
1000
0000
1000
0000
,
0010
0000
0100
0000
,
0000
0000
0000
1001
,
0001
0000
0000
0000
,
0100
0000
0000
0000
,
1000
0000
0000
0000
0000
0000
0000
0010
,
0000
0010
0000
0010
0000
0000
0000
0000
,
0100
0000
0010
0000
,
0100
0000
0100
0000
,
0010
0000
1000
0000
,
0001
0000
0001
0000
,
0100
0000
0000
0000
0010
0000
0000
1000
,
0000
0000
0000
1000
0000
0000
0000
0000
,
0100
0000
0100
0000
,
0100
0000
0100
0000
,
0010
0000
0010
0000
,
0001
0000
0001
0000
,
2000
0000
0000
0000
0000
0000
0000
3000
,
0000
0000
0000
0000
,
0100
0000
0010
0000
,
0100
0000
0010
0000
,
0100
0000
0010
0000
,
0100
0000
0010
0000
,
1000
0000
0001
0000
,
1000
0000
0001
0000
,
1000
0000
0001
0000
,
1000
0000
0001
0000
,
0100
0000
0100
0000
,
0100
0000
0100
0000
,
0010
0000
0010
0000
,
0010
0000
0010
0000
,
1000
0000
1000
0000
,
1000
0000
1000
0000
,
0001
0000
0001
0000
,
0001
0000
0000
1001
;

//---------------dance-single - ----------------
#NOTES:
     dance-single:
     :
     Hard:
     9:
     0.608969,0.675007,0.386063,0.378020,0.000000,530.000000,482.000000,48.000000,47.000000,0.000000,0.000000,0.608969,0.675007,0.386063,0.378020,0.000000,530.000000,482.000000,48.000000,47.000000,0.000000,0.000000:
0000
0000
0000
0000
,
0000
0000
0000
0000
,
0000
0000
0000
0000
,
0000
0000
0000
0000
,
1000
0010
1000
0020
0000
0130
0001
2000
,
0000
3001
0100
0002
0000
0103
0001
0100
,
0010
1000
0010
0200
0000
0301
0100
0020
,
0000
1030
0010
0200
0000
0301
1000
0010
,
1000
0001
0100
0020
0000
1030
0001
2000
,
0000
3010
1000
0020
0000
0130
0001
1000
,
0010
1000
0001
0200
0000
0301
1000
0002
,
0000
1003
0010
2000
0000
0000
3000
0000
,
0000
0001
0100
0010
0100
0001
0000
1000
,
0000
0001
0000
1000
1001
0000
0000
0000
,
0000
0010
0100
0010
1000
0100
1000
0001
,
0000
0100
0010
0100
0001
0000
0101
0000
,
0000
1000
0010
1000
0001
0100
0000
0001
,
0010
0001
1000
0010
0100
0000
0001
0010
,
0001
0000
0000
0000
0100
0010
1000
0100
,
0000
0010
0001
0010
0100
0000
1001
0000
,
0100
0010
0100
0001
0000
1000
0000
0101
,
0000
0110
0000
1010
0000
0000
0001
0001
,
0001
0000
1000
0010
0000
0100
0000
0001
,
0010
0100
1000
0000
0101
0000
0000
0000
,
1000
0010
0100
0001
0000
1001
0000
1000
,
0010
0100
0001
1000
0000
0110
0000
0001
,
0100
0000
0000
0010
1000
0000
0000
0000
,
0000
0001
0000
0100
0001
0000
0101
0000
,
1000
0001
1000
0002
0000
0103
0010
0100
,
0000
0001
1000
0000
1001
0000
0001
0010
,
0100
0000
1000
0010
0000
0100
0001
1000
,
0000
0010
0000
0110
0000
1000
0001
1000
,
0001
0000
0000
0100
0000
0010
0100
0010
,
1000
1010
0100
0101
,
0110
0000
0000
0000
0001
0010
0100
1000
,
0000
0010
0000
0100
0010
0000
0000
0000
,
1000
0001
0100
0002
0000
1003
0001
0200
,
0000
0310
0100
0010
0000
1001
0000
0100
,
0010
1000
0010
0100
0000
0001
0010
0001
,
0000
1000
0010
0100
0101
0000
0000
0000
,
2000
0000
3001
0100
0000
0010
0100
0001
,
0000
1000
0001
0100
0010
0000
1000
0000
,
0001
0000
0000
1000
1010
0000
0000
0000
,
0000
0001
0000
1000
0010
0000
1001
0000
,
0001
0100
0010
2000
0000
3100
0010
0002
,
0000
1003
0010
0200
0000
0301
0100
0010
,
1000
0001
0100
0020
0000
1030
0100
2000
,
0000
3001
0100
0001
0000
0100
0100
0100
,
0010
1000
1000
0002
0000
0013
0100
2000
,
0000
3010
0100
0010
0000
0100
0001
0010
,
0001
0100
0001
0200
0000
0310
0100
0010
,
0000
1000
0001
2002
0000
0000
0000
3003
,
1000
0000
0010
0100
0000
0010
0000
0101
,
0000
1010
0000
1001
0000
0000
0010
1000
,
0020
0000
1030
0001
0000
0100
0000
0001
,
0000
1000
0001
0000
1001
0000
0000
0000
,
0001
0100
0001
0101
0000
1010
0000
0100
,
0010
0100
0010
1010
0000
0101
0000
0010
,
0100
0000
0000
0010
0100
0000
0000
0000
,
0000
1000
0000
1000
0001
0000
1001
0000
,
0100
0010
0100
0020
0000
1030
0010
2000
,
0000
3001
0100
0000
0010
0000
0001
0100
,
0001
0000
1000
0001
0000
0100
0010
1000
,
0000
0101
0000
1001
0000
0100
0010
0100
,
0020
0000
0000
1030
0000
0010
1000
0001
,
0100
0010
1001
0110
,
0101
0000
0000
0000
1000
0010
1000
0002
,
0000
0103
0000
0001
1000
0000
0000
0000
,
0001
0010
0100
2000
0000
3010
0100
0002
,
0000
1003
0001
1000
0000
0101
0000
0010
,
1000
0010
1000
0001
0000
0100
0001
0100
,
0000
0001
1000
0001
1000
0000
0000
0000
,
0010
0000
0100
0010
0000
1000
0001
1000
,
0000
0010
1000
0010
0000
0100
0001
1000
,
1001
0000
0000
0001
0101
0000
0000
0000
,
0000
0010
1000
0010
0100
0001
1000
0000
,
0010
0100
0001
0200
0000
0310
1000
0002
,
0000
0103
0010
0000
1010
0000
0100
0001
,
1000
0100
0010
0002
0000
0013
0100
2000
,
0000
3100
0010
0002
0000
0103
0001
0100
,
0010
1000
0010
0200
0000
0301
1000
0020
,
0000
1030
0001
0000
1010
0000
1000
0100
,
0010
0001
0100
0002
0000
0013
0100
2000
,
0000
3100
0010
0002
0000
0103
0010
1000
,
0001
1000
0001
0200
0000
0301
1000
0020
,
0000
0130
0001
0000
1000
0001
0100
0010
,
1000
0010
0100
0001
0000
1000
0001
1001
,
0000
0010
0100
0110
0000
1000
0100
0010
,
0001
0100
0010
0110
0000
1000
0010
1010
,
0000
0100
0001
0101
0000
0010
1000
0010
,
1000
0001
0100
0101
0000
1000
0010
1010
,
0000
0100
0001
0100
0110
0000
2002
0000
,
0000
0000
0000
0000
,
0000
3003
0000
0000
;

//---------------dance-single - ----------------
#NOTES:
     dance-single:
     :
     Medium:
     8:
     0.505559,0.563260,0.265418,0.281504,0.000000,440.000000,407.000000,33.000000,35.000000,0.000000,0.000000,0.505559,0.563260,0.265418,0.281504,0.000000,440.000000,407.000000,33.000000,35.000000,0.000000,0.000000:
0000
0000
0000
0000
,
0000
0000
0000
0000
,
0000
0000
0000
0000
,
0000
0000
0000
0000
,
1000
0001
0100
0020
0000
0030
1000
0002
,
0000
0003
0100
0020
0000
0030
1000
0000
,
0000
0000
0001
2000
0000
3000
0010
0200
,
0000
0300
0001
2000
0000
3000
0010
0000
,
0100
0001
0100
0020
0000
0030
1000
0002
,
0000
0003
1000
2000
0000
3000
0010
0000
,
1000
0000
0001
0200
0000
0300
0010
2000
,
0000
3000
0001
0200
0000
0000
0300
0000
,
0010
1000
0010
0100
,
0001
0100
0110
0000
,
0000
0001
0100
0001
,
0100
0010
1000
1001
,
0001
0000
0100
0000
0010
0010
0000
1000
,
0100
0010
0001
0100
0001
0000
1000
0000
,
1010
0000
0100
0001
,
0100
0010
1000
0010
,
0100
0000
0001
1000
0000
0010
0000
1000
,
0000
0101
0000
1001
0000
0000
0010
0100
,
0001
0000
1000
0010
0000
0100
0000
0001
,
0000
1000
0010
0000
0101
0000
0000
0000
,
1000
0010
1000
0001
0000
0101
0000
0010
,
1000
0010
1000
0010
0000
0101
0000
1000
,
1000
0000
0000
0010
0010
0000
0000
0000
,
0000
0001
0000
0100
0001
0000
1010
0000
,
0100
0000
0001
0100
0000
0010
1000
0010
,
0000
0100
0010
0000
0100
0000
0010
1000
,
0010
0000
0100
0002
0000
0003
0000
1000
,
0000
0101
0000
1001
0000
0010
0100
0010
,
0100
0000
0000
0001
0000
1000
0001
0000
,
0100
0101
0010
1001
,
0110
0000
0000
0000
0001
0000
1000
0010
,
0000
1000
0000
0001
0100
0000
0000
0000
,
0010
1000
0001
0200
0000
0300
0010
2000
,
0000
3000
0001
1000
0000
0110
0000
0001
,
1000
0001
0100
0010
0000
1000
0001
1000
,
0000
0010
0000
0100
0001
0000
0000
0000
,
1000
0000
0010
0100
0000
1000
0010
1000
,
0000
0001
0100
0001
0100
0000
0010
0000
,
0101
0000
1010
0000
,
0000
0100
0000
0010
0100
0000
0110
0000
,
1000
0100
0010
0002
0000
0003
0100
0020
,
0000
0030
1000
0200
0300
1000
1000
0010
,
1000
0010
0100
0002
0000
0003
0010
0200
,
0000
0300
1000
0020
0030
0100
0001
0100
,
0001
0100
0010
2000
0000
3000
0001
0200
,
0000
0300
0010
2000
3000
0001
0001
0100
,
0001
0000
1000
0020
0000
0030
0100
0002
,
0000
0003
1000
0020
0000
0000
0030
0000
,
0100
0000
0001
0100
0000
0001
0000
1000
,
0000
0001
0000
0110
0000
0000
1000
0010
,
1000
0000
0001
0100
0000
0001
0000
0100
,
0000
0001
1000
0000
0110
0000
0000
0000
,
0001
0000
1000
0010
0000
1000
0000
0001
,
0010
0100
1000
0010
0000
1010
0000
0100
,
0001
0000
0000
0100
0001
0000
0000
0000
,
0000
1000
0000
0001
1000
0000
1001
0000
,
0010
0000
0100
0010
0000
1000
0001
0100
,
0000
0001
0100
0000
0010
0000
1000
0000
,
0010
0000
1000
0010
0000
0000
0000
0100
,
0000
0001
0000
1001
0000
0100
0010
0100
,
0020
0000
0030
1000
0000
0001
1000
0000
,
0010
0110
0001
0101
,
1001
0000
0000
0000
0001
0000
0100
0010
,
0000
0110
0000
0001
1000
0000
0000
0000
,
0010
0000
1000
0010
0000
0100
0001
0100
,
0000
0010
1000
0010
0000
0001
0000
0000
,
0010
0100
0010
0100
0000
0001
1000
0001
,
0000
1000
0010
1000
0010
0000
0000
0000
,
0100
0000
0001
0100
0000
0010
1000
0010
,
0000
0100
0001
0100
0000
0000
0010
0000
,
0101
0000
1010
0000
,
0100
0001
1000
0010
,
0100
0001
0100
0001
0000
0010
1000
0010
,
0000
1000
0001
0000
0110
0000
1000
0000
,
0010
0000
0100
0001
0000
0100
0001
0100
,
0000
0010
1000
0010
0000
0100
0001
0100
,
0010
1000
0010
0200
0000
0300
0001
2000
,
0000
3000
0010
0000
0100
0000
0101
0000
,
1000
0010
1000
0020
0000
0030
0100
0002
,
0000
0003
0100
0020
0000
0000
0030
0000
,
1000
0100
0010
0001
0000
0100
0001
0100
,
0000
0010
0100
0000
1010
0000
0001
0000
,
0100
0010
0100
0010
0000
1000
0001
1000
,
0000
0010
1000
0010
0000
0100
0001
0100
,
0001
1000
0001
0100
0000
0010
1000
0010
,
0000
0010
1000
0010
0000
0100
0010
0001
,
0100
0001
0100
0010
0000
1000
0010
1000
,
0000
0001
0100
0001
0100
0000
2002
0000
,
0000
0000
0000
0000
,
0000
0000
0000
3003
0000
0000
0000
0000
;

//---------------dance-single - ----------------
#NOTES:
     dance-single:
     :
     Easy:
     4:
     0.390659,0.442766,0.209118,0.032172,0.000000,340.000000,314.000000,26.000000,4.000000,0.000000,0.000000,0.390659,0.442766,0.209118,0.032172,0.000000,340.000000,314.000000,26.000000,4.000000,0.000000,0.000000:
0000
0000
0000
0000
,
0000
0000
0000
0000
,
0000
0000
0000
0000
,
0000
0000
0000
0000
,
1000
0001
1000
0010
,
0100
0010
0100
0001
,
0010
1000
0010
0100
,
0001
0100
0001
1000
,
0100
0010
0001
1000
,
0001
1000
0001
0100
,
0010
1000
0010
1000
,
0001
0100
0010
1000
,
0001
0000
1010
0000
,
0110
0000
0101
0000
,
0010
0000
1000
0000
,
0001
0010
0100
1000
,
0001
0100
0001
0100
,
0010
1000
0010
0100
,
0100
0000
0001
0000
,
1000
0001
1000
1000
,
0010
0100
0001
0100
,
0010
0110
1010
0100
,
0001
0000
0100
0010
0000
1000
0000
0001
,
0000
1000
0010
0000
0100
0000
0000
0000
,
0001
0000
1000
0010
0000
0100
0000
0000
,
0001
0000
1000
0010
0000
0100
0000
0000
,
0001
0000
1010
0000
,
0000
0100
0000
0010
0100
0000
0010
0000
,
0001
0010
0100
1000
,
0100
0010
0001
1000
,
0100
1000
0100
1000
,
0010
0100
0010
0100
,
1001
0000
0001
0010
,
0001
0010
0001
1000
,
1001
0000
0100
0010
,
0100
0010
0110
0000
,
0001
0010
0100
1000
,
0100
0010
0001
1000
,
0100
1000
0100
1000
,
0010
0100
0101
0000
,
1000
0010
0100
0010
,
0100
0001
1000
0010
,
0110
0000
1001
0000
,
0000
0010
0000
0100
0010
0000
0100
0000
,
0001
1000
0010
0100
,
0010
0100
0001
1000
,
0010
0100
0001
0010
,
0001
0010
0001
1000
,
0100
1000
0100
1000
,
0010
0100
0010
0100
,
0001
0010
0100
1000
,
0001
1000
1000
0000
,
0020
0000
0000
0000
,
0000
0000
0000
0030
0000
0000
0000
0000
,
0200
0000
0000
0300
,
1001
1001
1001
0000
,
0100
0010
0100
0001
,
1000
0010
0100
0001
,
1000
0000
0010
0000
,
0000
0100
0000
0010
0100
0000
0010
0000
,
1000
0001
1000
0001
,
1000
0010
0110
0001
,
0010
0000
0100
0000
1000
0000
0100
0001
,
0000
1001
0000
1001
0000
0000
0010
0000
,
0200
0000
0000
0310
0000
0000
1000
0000
,
0001
0010
1000
0010
,
0200
0000
0000
0300
0001
0000
0010
0000
,
0100
1000
1000
0000
,
0001
0100
0010
0100
,
0001
0100
0010
0100
,
0001
1000
0001
1000
,
0010
0100
0110
0000
,
0001
0010
0100
1000
,
0100
0010
0001
1000
,
1001
0000
0110
0000
,
0110
0000
0110
0000
,
1000
0100
1000
0100
,
1000
0010
1000
0001
,
0100
0001
0100
0001
,
0010
0001
0010
0001
,
0010
0100
1000
0100
,
1000
0100
1000
0010
,
0100
0001
0100
0001
,
0100
0010
0010
0010
,
0001
0010
0100
1000
,
0100
1000
0100
1000
,
0010
0100
0010
0100
,
0001
0100
0001
0100
,
0001
0010
0100
1000
,
0100
0010
0001
1000
,
0010
1000
0010
1000
,
0001
1010
0110
1001
;
