#TITLE:EGOISM 110;
#SUBTITLE:;
#ARTIST:BEMANI Sound Team "U1 Ground-Speed";
#TITLETRANSLIT:;
#SUBTITLETRANSLIT:;
#ARTISTTRANSLIT:;
#CREDIT:SupremeX;
#BANNER:EGOISM 110-bn.png;
#BACKGROUND:EGOISM 110-bg.png;
#LYRICSPATH:;
#CDTITLE:;
#MUSIC:EGOISM 110.ogg;
#OFFSET:-3.303;
#SAMPLESTART:11.955;
#SAMPLELENGTH:12.000;
#SELECTABLE:YES;
#BPMS:0.000=110.000,78.500=880.000,82.500=440.000,84.500=220.002,86.500=110.002,149.500=220.002,158.000=440.000;
#STOPS:51.500=0.280
,55.000=0.280
,58.500=0.140
,60.000=0.140
,121.750=0.140
,125.500=0.140
,145.000=0.275
,190.000=0.275
,192.000=0.270
,199.000=0.140
,204.000=0.140
,210.000=0.140
,215.000=0.140
,218.000=0.140
;
#BGCHANGES:;

//---------------dance-single - ----------------
#NOTES:
     dance-single:
     :
     Challenge:
     12:
     0.807,0.915,0.742,0.105,0.733:
0000
0000
0000
0000
,
0000
0000
0000
0000
,
1000
0110
0010
0011
0100
2200
3300
0000
,
0001
0110
0100
1100
0010
0220
0330
0000
,
0001
0100
0001
0100
0000
0010
0100
0010
1000
0100
1000
0100
0010
0001
0010
0100
,
0000
0001
0010
0100
1000
0000
0100
0010
0001
0010
0100
1000
0100
0010
0011
0000
,
0100
1100
1010
0110
0001
0011
0100
0110
,
1100
1010
0110
0101
0001
1000
0110
0110
,
0001
0010
0100
1000
0000
0010
0100
0001
1000
0010
0100
0010
1000
0001
0100
0000
,
0000
0010
0100
0010
0000
1000
0100
0010
0001
1000
0100
0010
0001
1000
0100
1000
,
1100
0010
0110
0110
0001
1000
1010
1010
,
0100
0010
0101
0101
0010
0110
0110
1001
,
1000
0100
0010
0001
0001
0000
0000
1000
0100
0010
0001
0010
0100
1000
1000
0000
,
0010
0100
0010
0100
0000
0001
0010
0100
1000
0100
0010
0001
0001
0000
1000
0100
,
0010
0001
0000
0000
1000
0100
0010
0001
1000
0100
0100
0000
1000
0100
1000
0100
,
1000
0001
0100
0010
1000
0001
0100
0010
0011
0000
0110
0000
1000
0000
1100
0000
,
0100
0000
0010
0100
0001
1000
0001
0100
0010
0000
1010
0000
0101
0000
1001
0000
,
0010
0000
0100
0010
1000
0001
1000
0010
0100
0000
1001
0000
1100
0000
0110
0000
,
0001
0000
0010
0100
1000
0100
0010
0001
0001
0000
1000
0100
0010
0001
0010
0100
,
1000
0100
0010
0001
0010
0100
1000
0100
0010
0000
2002
0000
0000
0000
0000
0000
,
0000
3000
0203
0000
,
0320
0000
0000
0000
0000
0000
0000
0000
0030
0000
1000
0100
1000
0100
1000
0100
,
0010
0001
0010
0001
0010
0100
1000
0100
1000
0000
0010
0100
0001
0100
0010
0100
,
0001
0010
0100
1000
0100
0010
0001
0000
1000
0000
0110
0000
0110
0000
0011
0000
,
0011
0000
1000
0100
0010
0001
0010
0100
1000
0000
1000
0100
1000
0100
0010
0100
,
0010
0100
0001
0010
0001
0010
0100
1000
0100
0000
0010
0000
0100
0000
0001
0000
,
1000
0000
1001
0100
0010
1000
0001
0100
0010
1000
0001
0010
0100
1000
0100
0010
,
0100
0000
0010
0000
0110
0000
0101
0000
1000
0100
1000
0100
1000
0100
0010
0100
,
0010
0001
0010
0001
0010
0000
0011
0000
0100
1000
0100
0010
0001
0010
0100
1000
,
0100
0010
0001
0100
0010
1000
0001
0100
0010
0000
1000
0100
0010
0100
0010
0000
,
0001
0010
0100
0010
0100
1000
0100
1000
0000
0000
0010
0001
0010
0011
0000
0100
,
1000
0100
0010
0001
0010
0100
1100
0000
0120
0000
0000
0000
0000
0000
0000
0000
,
0100
0000
0100
0000
0130
0000
0000
0000
1000
0100
1000
0100
0010
0001
0010
0100
,
1000
0000
1100
0000
1100
0000
0110
0000
0110
0000
0001
0010
0001
0100
0001
0010
,
0100
0000
0000
1100
0000
0000
0101
0000
0000
1100
0000
0000
0101
0000
0000
0000
0110
0000
0000
0000
0001
0000
0010
0000
0100
0000
1000
0000
0100
0000
0010
0000
,
0001
0010
0100
1000
0100
0010
0001
0000
0110
0000
0010
1000
0010
1000
0100
0010
,
0001
0010
0100
1000
0100
0010
0001
0010
0100
1000
0100
1000
0100
0010
0100
0010
,
0001
0010
0001
0010
0100
0010
0100
0000
1000
0000
0100
0000
0010
0000
0001
0000
,
0010
0100
1000
0100
0010
0100
0010
0001
,
0010
0001
0010
0100
1100
0000
1100
0000
,
0110
0110
0011
0011
,
0110
0110
1100
1100
,
1001
1001
0101
0101
,
1010
0000
1010
0000
0001
0100
0001
0100
,
0001
0100
0001
0000
1000
0010
1000
0010
,
1000
0010
1000
0000
0001
0100
0001
0100
,
0001
0100
0001
0000
1000
0010
1000
0010
,
0100
0001
0100
0001
0100
0000
1010
0000
,
1010
0001
0010
0100
,
1000
0000
0100
0000
0010
0001
0010
0000
,
0100
0000
1000
0000
0001
0000
1000
0100
,
1000
0100
0010
0001
,
0010
0000
0100
1000
0100
0000
0010
0000
,
0001
0000
1000
0000
0001
0100
0001
0000
,
1000
0000
0010
0100
0010
0000
0001
0000
,
1000
0000
0001
1000
2002
0000
0000
0000
,
0000
0000
0000
0000
,
0000
0000
0000
0000
,
0000
3003
0000
0000
;

//---------------dance-single - ----------------
#NOTES:
     dance-single:
     :
     Hard:
     10:
     0.585,0.776,0.266,0.086,0.285:
0000
0000
0000
0000
,
0000
0000
0000
0000
,
1000
0100
0010
0001
0100
0220
0330
0000
,
0001
0010
0100
1000
0010
0220
0330
0000
,
1000
0100
0010
0001
1000
0100
1100
0010
,
0001
0010
0100
0010
0001
0010
0100
0110
,
1000
0100
0010
0100
1000
0100
0010
0010
,
0001
0010
0100
0010
0001
0010
0100
0100
,
1000
0100
1000
0001
0010
0100
1000
0100
,
1100
0010
0001
0010
0100
1000
0010
0100
,
0101
0010
0100
1000
0100
0010
0100
1000
,
0100
0010
0001
0010
0100
0010
0001
0010
,
0100
0001
1000
0001
1000
0000
0000
0100
0010
1000
0001
0100
0010
0100
0010
0000
,
0001
1000
0001
1000
0000
0010
0100
0001
1000
0010
0100
0010
0100
0000
0001
1000
,
0001
1000
0000
0000
1000
0100
0010
0001
0010
0100
1000
0000
0001
0100
0001
0100
,
0001
1000
0010
1000
0010
1000
0100
0010
0001
0000
0110
0000
1000
0000
1100
0000
,
0100
0000
0010
0100
0001
0100
0001
0100
0010
0000
1000
0000
0001
0000
1001
0000
,
0010
0000
0100
0010
1000
0010
1000
0010
0100
0000
0001
0000
1000
0000
0110
0000
,
0001
0000
0010
0100
1000
0100
1000
0100
0010
0000
0001
0000
0100
0000
0110
0000
,
1000
0000
0001
0010
0100
1000
0100
0010
0000
0000
2002
0000
0000
0000
0000
0000
,
0000
0000
0000
0000
,
0000
3003
0000
0000
0000
0010
0100
0010
,
1000
0001
0100
0001
1000
0010
0100
0010
,
1000
0001
0100
0001
1000
0010
1010
0100
,
0110
0001
0010
0100
0010
1000
1100
0010
,
0110
0001
0010
0100
1000
0001
0100
0001
,
1000
1001
0010
0100
0010
0100
0001
1000
,
1000
0010
0100
0010
1000
0001
1001
0010
,
0110
0100
0001
0010
0100
1000
0110
0001
,
0101
0000
0001
0000
0010
0000
0100
0000
1000
0000
0001
0010
0100
0010
0100
0000
,
1000
0100
0010
0001
0010
0100
1000
0100
0000
0000
0010
0001
0010
0001
0000
0100
,
1000
0100
0010
0100
0010
0100
0001
0000
0020
0000
0000
0000
0000
0000
0000
0000
,
0100
0000
0100
0000
0130
0000
0000
0000
1000
0000
0100
0000
0010
0001
0010
0100
,
1000
0000
1000
0000
0010
0000
0110
0000
0110
0000
0100
0010
0001
1000
0001
0010
,
0100
0000
0000
1000
0000
0000
0001
0000
0000
1000
0000
0000
0001
0000
0000
0000
0110
0000
0000
0000
0010
0000
0100
0000
0001
0000
1000
0000
0001
0000
0100
0000
,
0010
0000
0100
0000
0001
0000
0100
0000
0101
0000
0010
1000
0010
1000
0100
0000
,
0010
0001
0110
1100
0010
0001
0010
0100
,
1000
0100
0010
0001
1000
0100
1000
0100
,
0010
0100
0010
0100
0001
0100
0001
1000
,
0010
1000
0010
0100
1000
0000
0010
0000
,
1000
0001
0010
1000
,
0001
0100
0010
0001
,
0010
1000
0100
0010
,
0001
0100
0010
0100
,
1000
0100
0010
0001
,
0100
1000
0010
0100
,
0001
0010
0100
1000
,
0010
1000
1000
0001
,
0001
1000
0010
0100
,
0001
0010
1000
0100
,
0010
0100
1000
0010
,
1000
0000
0001
0100
,
0001
0100
0001
1000
,
0010
1000
0001
1000
,
0010
0100
0001
1000
,
0010
1000
0220
0000
,
0000
0000
0000
0000
,
0000
0000
0000
0000
,
0000
0330
0000
0000
;

//---------------dance-single - ----------------
#NOTES:
     dance-single:
     :
     Medium:
     7:
     0.378,0.469,0.010,0.038,0.000:
0000
0000
0000
0000
,
0000
0000
0000
0000
,
0001
0010
0100
1000
0100
0010
0000
0000
,
0001
0010
0100
1000
0100
0010
0000
0000
,
0001
0010
0001
1000
0100
1000
0100
1000
,
0000
0001
0010
0100
0010
0001
0010
0100
,
1000
0100
0010
0100
1000
0100
0010
0001
,
0010
0100
0010
0001
0010
0100
0010
0001
,
1000
0100
0010
0100
0010
0100
0001
0001
,
0000
1000
0100
1000
0100
1000
0100
0010
,
0100
0010
0100
0010
0100
0001
0100
0001
,
0100
0001
1000
0100
1000
0100
0010
0001
,
1000
1000
0000
0100
0100
1000
0100
0000
,
1000
1000
0000
0001
0100
0001
0000
0001
,
0001
0000
1000
0010
1000
0010
0100
0100
,
0000
0001
0001
0000
0000
1000
0100
1000
,
0000
0100
1000
0100
0000
0010
0001
0010
,
0000
0001
1000
0001
0000
1000
1000
0100
,
0010
0100
0010
0001
0000
1000
0100
0010
,
0001
0010
0100
1000
0000
0001
0000
0000
,
0000
0000
1000
0000
,
0000
0001
0000
0000
0000
1000
0010
0100
,
0001
1000
0010
0100
0001
1000
0100
0010
,
0001
0100
0010
0100
0000
0001
0001
1000
,
1000
0010
0010
0100
0100
0001
0001
1000
,
1000
0010
0010
0100
0100
0001
1000
0010
,
0100
0010
0000
1000
0100
0010
0001
0010
,
0100
0010
0001
0010
0000
0100
0100
1000
,
1000
0100
0100
1000
1000
0001
0001
0010
,
0010
0100
0100
1000
1000
0010
0010
0000
,
0100
0001
0100
0001
0000
1000
0100
0000
,
1000
0010
0100
0010
2000
0000
0000
0000
,
3002
0000
0000
0000
1003
1000
0100
0010
,
0100
1000
0100
0010
0001
0010
0100
1000
,
0001
0001
0001
0000
1000
0010
0100
0010
,
1000
0010
0100
0000
0001
0010
0100
1000
,
0100
0010
0010
0001
0010
0100
1000
0010
,
0100
0010
0100
0010
0000
1000
0000
1000
,
0000
0001
0000
0001
0000
1000
0000
0100
,
0000
1000
0000
0000
0000
0001
0000
0000
,
0000
0001
0000
0000
0000
0100
0000
0000
,
0000
0010
0000
0000
0000
0100
0000
0000
,
0000
0010
0000
0000
0000
0010
0000
0000
,
0000
0000
0000
0000
0000
1000
0000
0000
,
0000
0100
0000
0000
0000
0010
0000
0000
,
0000
0001
0000
0000
0000
0100
0000
0000
,
0000
0001
0000
0000
0000
0000
0000
0000
,
0000
1000
0000
0000
0000
0100
0000
0000
,
0000
1000
0000
0100
,
0000
0010
0000
0001
,
0000
0010
0000
0100
,
0000
0000
1000
0000
,
0001
0000
0000
0001
,
0000
0100
0000
0000
,
0100
0000
0010
0000
,
0000
0000
0010
0000
0000
2002
0000
0000
,
0000
0000
0000
0000
,
0000
0000
0000
0000
,
3003
0000
0000
0000
;

//---------------dance-single - ----------------
#NOTES:
     dance-single:
     :
     Easy:
     5:
     0.257,0.331,0.000,0.029,0.000:
0000
0000
0000
0000
,
0000
0000
0000
0000
,
1000
0000
0000
0010
0100
0010
0000
0000
,
0000
1000
0000
0001
0000
0100
0010
0100
,
0010
0000
1000
0000
0001
0100
0001
0000
,
1000
0000
1000
0000
0010
0100
0010
0100
,
0001
0001
1000
1000
,
0010
0100
0010
0000
0100
0000
0100
0000
,
0001
1000
0001
0000
1000
0000
1000
0000
,
0001
0100
0001
0000
0100
0000
0100
0000
,
0010
0000
0010
0000
1000
0001
1000
0000
,
0100
0000
0100
0000
0010
0001
0010
0000
,
0100
0000
0100
0000
1000
0100
1000
0000
,
0000
0100
0000
0010
0100
0010
0000
0000
,
1000
0000
0001
0100
0001
0100
0010
0010
,
0000
0100
0100
0000
0000
0001
0000
1000
,
0000
0000
0100
1000
0000
0001
0000
0100
,
0000
0010
0100
0010
0000
1000
0000
0010
,
0000
0100
0010
0100
0000
0001
0000
0001
,
0000
1000
0001
1000
0000
0200
0000
0000
,
0000
0000
0000
0000
,
0000
0000
0000
0300
0000
1000
0000
0001
,
0000
1000
0000
0001
0000
0100
0000
0010
,
0000
0100
0000
0010
0000
1000
0100
1000
,
0000
0010
0000
0010
0000
0100
0001
0100
,
0000
0010
0000
0010
0000
1000
0000
0100
,
0000
0010
0000
0001
0000
0010
0000
0100
,
0000
1000
0000
0001
0000
1000
0100
1000
,
0000
0001
0000
0001
0000
0100
0010
0100
,
0000
0001
0000
0001
0000
1000
1000
0000
,
0010
0100
0010
0100
0000
0001
0001
0000
,
0100
0010
0100
0010
2000
0000
0000
0000
,
0000
0000
3001
1000
,
0010
0100
0010
0000
0100
0000
0100
0000
,
0010
1000
0010
0000
0100
0000
0100
0000
,
0001
0100
0001
0000
1000
0000
0100
0000
,
1000
0100
1000
0001
0000
0001
0000
0001
,
0000
0001
0000
1000
0000
0000
0000
1000
,
0000
0000
0000
1000
0000
0000
0000
1000
,
0000
0000
0000
1000
0000
0000
0000
0000
,
0000
0001
0000
0000
0000
0000
0000
0000
,
0000
0100
0000
0000
0000
0000
0000
0000
,
0000
0010
0000
0000
0000
0000
0000
0000
,
0000
1000
0000
0000
0000
0000
0000
0000
,
0000
0001
0000
0000
0000
0000
0000
0000
,
0000
1000
0000
0000
0000
0000
0000
0000
,
0000
0010
0000
0000
0000
0000
0000
0000
,
0000
1000
0000
0001
,
0000
1000
0000
0000
,
0000
0100
0000
0000
0000
0000
0100
0000
,
0000
0000
1000
0000
,
1000
0000
0000
0000
0000
0001
0000
0000
,
0000
0001
0000
0000
0000
0000
0100
0000
,
0000
0100
0000
0000
,
0000
0010
0000
0000
,
0010
0000
0200
0000
,
0000
0000
0000
0000
,
0000
0000
0000
0000
,
0300
0000
0000
0000
;

//---------------dance-single - Copied from ----------------
#NOTES:
     dance-single:
     Copied from:
     Beginner:
     3:
     0.190,0.248,0.019,0.019,0.000: // measure 1
0000
0000
0000
0000
,  // measure 2
0000
0000
0000
0000
,  // measure 3
1000
0010
1000
0000
,  // measure 4
0000
0001
0000
0100
0000
0001
0000
0000
,  // measure 5
1000
0010
1000
0010
,  // measure 6
0100
0010
0100
0010
,  // measure 7
0100
0001
0100
0001
,  // measure 8
1000
0010
1000
0010
,  // measure 9
0100
0010
0100
0010
,  // measure 10
0100
0001
0100
0001
,  // measure 11
1000
1000
0010
0010
,  // measure 12
0100
0100
0001
0001
,  // measure 13
1000
1000
1000
1000
,  // measure 14
0010
0010
0010
0010
,  // measure 15
0100
0100
0100
0001
,  // measure 16
0000
1000
0000
0000
0000
0001
0000
1000
,  // measure 17
0000
0010
0000
0010
0000
1000
0000
0001
,  // measure 18
0000
1000
0000
1000
0000
0010
0000
0010
,  // measure 19
0000
0100
0000
0001
0000
1000
0000
0010
,  // measure 20
0000
1000
0000
0001
0000
0200
0000
0000
,  // measure 21
0000
0000
0000
0000
,  // measure 22
0000
0300
0000
0000
0000
0010
0000
0100
,  // measure 23
0000
0010
0000
0100
0000
0010
0000
0100
,  // measure 24
0000
0010
0000
0100
0000
0001
0000
0001
,  // measure 25
0000
0000
0000
0000
0000
1000
0000
1000
,  // measure 26
0000
0000
0000
0000
0000
0010
0000
0100
,  // measure 27
0000
0010
0000
0100
0000
0010
0000
0100
,  // measure 28
0000
0000
0000
0000
0000
0001
0000
0001
,  // measure 29
0000
0000
0000
0000
0000
1000
0000
1000
,  // measure 30
0000
0000
0000
0000
0000
0100
0000
0000
,  // measure 31
0010
0000
0100
0000
0000
0001
0000
0000
,  // measure 32
1000
0001
1000
0000
,  // measure 33
0000
0000
0010
0100
,  // measure 34
0010
0010
1000
0001
,  // measure 35
1000
1000
0010
0100
,  // measure 36
0001
1000
0010
0100
,  // measure 37
0001
0000
1000
0010
0000
0000
0000
0000
,  // measure 38
0000
0000
0000
0100
0000
0000
0000
0000
,  // measure 39
0000
0000
0000
0000
,  // measure 40
0000
0000
0010
0000
,  // measure 41
0000
0000
0000
1000
,  // measure 42
0000
0000
0000
0001
,  // measure 43
0000
0000
0000
1000
,  // measure 44
0000
0000
0000
0010
,  // measure 45
0000
0000
0000
0100
,  // measure 46
0000
0000
0000
0001
,  // measure 47
0000
0000
0000
1000
,  // measure 48
0000
0000
1001
0000
,  // measure 49
1001
0000
0000
0000
,  // measure 50
0000
0010
0000
0000
0000
0000
0100
0000
,  // measure 51
0000
0000
0000
0000
0000
0010
0000
0000
,  // measure 52
0100
0000
0000
0000
,  // measure 53
0000
0010
0000
0000
0100
0000
0000
0000
,  // measure 54
0000
0010
0000
0100
,  // measure 55
0000
0000
0100
0000
,  // measure 56
0010
0000
0000
0020
0000
0000
0000
0000
,  // measure 57
0000
0000
0000
0000
,  // measure 58
0000
0000
0000
0000
,  // measure 59
0030
0000
0000
0000
;
