#TITLE:Dooooope;
#SUBTITLE:;
#ARTIST:Rimo;
#TITLETRANSLIT:;
#SUBTITLETRANSLIT:;
#ARTISTTRANSLIT:;
#GENRE:;
#CREDIT:SupremeX;
#BANNER:Dooooope-bn.png;
#BACKGROUND:Dooooope-bg.png;
#LYRICSPATH:;
#CDTITLE:;
#MUSIC:Dooooope.ogg;
#OFFSET:-1.961002;
#SAMPLESTART:30.160000;
#SAMPLELENGTH:12.000000;
#SELECTABLE:YES;
#BPMS:0.000000=136.000000
;
#STOPS:
;
#BGCHANGES:;
#KEYSOUNDS:;
#ATTACKS:;

//---------------dance-single - ----------------
#NOTES:
     dance-single:
     :
     Hard:
     8:
     0.443679,0.509944,0.121454,0.069402,0.225557,358.000000,344.000000,14.000000,8.000000,0.000000,0.000000,0.443679,0.509944,0.121454,0.069402,0.225557,358.000000,344.000000,14.000000,8.000000,0.000000,0.000000:
0000
0000
0000
0000
,
0000
0000
0000
0000
,
0000
0000
0000
0000
,
0000
0000
0000
0000
,
2000
0000
0000
0000
0000
0000
3000
0002
,
0000
0000
0000
0000
0000
0000
0003
0200
,
0000
0000
0000
0000
0000
0000
0300
0020
,
0000
0000
0000
0030
,
1000
0001
0100
0010
,
1000
0001
0100
0010
,
1000
0001
1000
0010
,
0100
0010
1000
0001
,
1000
0000
0000
1000
0000
0000
1000
0000
0000
0000
0100
0000
0010
0000
0000
0000
,
0001
0000
0000
0001
0000
0000
0001
0000
0000
0000
0010
0000
0100
0000
0000
0000
,
1000
0000
0000
1000
0000
0000
1000
0000
0000
0000
0100
0000
0010
0000
0000
0000
,
0001
0000
0000
0100
0000
0100
0000
0010
0000
0000
1000
0000
1000
0000
0000
0000
,
0010
0000
0110
0000
0100
0000
0001
0001
,
1000
0000
0100
0000
0010
0000
0001
0000
1000
0100
1000
0000
0100
1000
0100
0000
,
0010
0000
0001
0000
0010
0000
0100
0100
,
1000
0100
0010
0100
0010
0001
1000
0001
,
1000
0000
1001
0000
0001
0000
1000
1000
,
0001
0000
0010
0000
0100
0000
1000
0000
0100
0010
0100
0000
0001
0010
0001
0000
,
1000
0000
1001
0000
0001
0000
0100
0100
,
0001
0010
0001
0000
0001
0000
0000
1000
0100
0000
1000
0000
1000
0000
0000
0000
,
0010
0000
0110
0000
0100
0000
0001
0001
,
0010
0000
0100
0000
1000
0000
0100
0000
0010
0000
0001
0010
0001
0000
0010
0001
,
0010
0000
0100
0000
1001
0000
0001
1000
,
1000
0100
0010
0001
0010
0100
0010
0100
,
1000
0000
0110
0000
0001
0000
1000
1000
,
0100
0000
0010
0000
0100
0000
0010
0000
0001
0000
1000
0100
1000
0000
0100
1000
,
0100
0000
0001
0000
1000
0000
0100
0100
,
1000
0100
1000
0000
1000
0000
0000
0001
0010
0000
0001
0000
0001
0000
0000
0000
,
1000
0000
1000
0000
0000
0100
0000
0000
1000
0000
0000
0100
0000
0000
1000
0000
,
0001
0000
0001
0000
0000
0010
0000
0000
0001
0000
0000
0010
0000
0000
0001
0000
,
0100
0000
0100
0000
0000
0010
0000
0000
0100
0000
0000
0010
0000
0000
0100
0000
,
0001
1000
0100
1000
0001
1000
0100
0000
,
0010
0001
0010
0100
1000
0100
0010
0100
,
0000
0001
0010
0100
0010
0001
0010
0100
,
0000
1000
0100
0010
0100
0010
0001
1000
,
0100
0010
0100
1000
0100
0010
0001
1000
,
0010
0010
0010
0010
,
0100
0100
0100
0100
,
0001
0001
0001
0001
,
1000
0100
1000
0000
1000
0000
0000
0010
0100
0000
0010
0000
0010
0000
0000
0000
,
1000
0100
1000
0100
0010
0100
0010
0001
,
0010
0001
0010
0100
1000
0100
2000
0000
,
3100
0000
0000
0000
1001
0000
0000
0000
1000
0000
0000
0001
0000
0001
0000
0100
,
0010
0000
1000
0000
0001
0000
1000
0000
0010
0000
0100
0010
0100
0000
0010
0000
,
1000
0000
1001
0000
1000
0000
0001
0001
,
0010
0100
1000
0100
0010
0100
1000
0100
,
0010
0000
0000
0000
0110
0000
0000
0000
0100
0000
0000
0001
0000
0001
0000
0000
,
1000
0100
1000
0000
1000
0000
0000
0010
0100
0000
0010
0000
0010
0000
0000
0000
,
1000
0000
0000
0000
1001
0000
0000
0000
0001
0000
0000
1000
0000
1000
0000
0100
,
1000
0000
0100
0000
0010
0000
0010
0000
0001
0010
0001
0000
0010
0100
0010
0000
,
1000
0000
0000
0000
1001
0000
0000
0000
1000
0000
0000
0001
0000
0001
0000
1000
,
0100
0000
1000
0000
0100
0000
0010
0000
0100
0000
0010
0001
0020
0000
0000
0000
,
0031
0000
0000
0000
1001
0000
0000
0000
1000
0000
0000
0100
0000
0100
0000
1000
,
0100
0000
0010
0000
0100
0000
0010
0000
0001
0000
0010
0001
0010
0000
0001
0100
,
0010
0000
0000
0000
0110
0000
0000
0000
0100
0000
0000
0001
0000
0001
0000
0000
,
1000
0100
1000
0000
1000
0000
0000
0010
0100
0000
0100
0000
0010
0000
0000
0000
,
2002
0000
0000
0000
,
0000
0000
0000
0000
0000
0000
0000
3003
;

//---------------dance-single - ----------------
#NOTES:
     dance-single:
     :
     Medium:
     7:
     0.291242,0.375748,0.017351,0.104103,0.000000,235.000000,233.000000,2.000000,12.000000,0.000000,0.000000,0.291242,0.375748,0.017351,0.104103,0.000000,235.000000,233.000000,2.000000,12.000000,0.000000,0.000000:
0000
0000
0000
0000
,
0000
0000
0000
0000
,
0000
0000
0000
0000
,
0000
0000
0000
0000
,
0010
0000
0000
0000
0000
0000
0000
1000
,
0000
0001
0000
0000
0000
0000
0000
0000
,
1000
0000
0000
0000
,
0001
0000
1000
0000
,
0001
1000
0001
0100
,
0010
0100
0010
1000
,
0001
1000
0010
0100
,
0001
1000
0010
0100
,
0002
0000
0000
0003
,
2000
0000
0000
3000
,
0020
0000
0000
0030
,
0100
0000
0100
0100
,
0001
0000
1000
0000
1001
0000
0010
0100
,
0010
1000
0100
0010
0001
0000
1000
0000
,
0010
0000
0100
0000
0001
0000
1000
1000
,
0010
0100
0010
0000
0100
0010
0100
0000
,
0001
1000
0001
1000
,
0010
0100
0010
0000
1000
0001
1000
0000
,
0010
0100
0001
1000
,
0001
1000
1000
0000
0010
0100
0100
0000
,
0001
0000
1000
0000
0010
0000
0100
0001
,
1000
0010
0100
0010
1000
0000
0001
0000
,
0100
0000
0010
0000
1000
0000
0001
1000
,
0001
1000
0010
0100
0010
1000
0010
0000
,
1000
0000
0001
0000
1000
0000
0010
0100
,
0010
1000
0001
0100
0010
1000
0001
0000
,
0100
0010
1000
0010
,
0100
0100
0100
0000
0001
0001
0001
0000
,
2000
0000
0000
3000
,
0020
0000
0000
0030
,
0200
0000
0000
0300
,
0002
0000
0000
0003
,
2000
0000
0000
3000
,
0020
0000
0000
0030
,
0200
0000
0000
0300
,
0001
0001
0001
1000
,
0010
0100
0001
1000
,
0010
0100
0001
1000
,
0010
0100
0001
1000
,
0010
0100
0001
1000
,
0010
0000
0100
0000
0100
0000
0001
1000
,
0001
0000
1000
0010
1000
0000
0001
0100
,
0001
0000
1000
0000
0001
0000
1000
1000
,
0010
0100
0010
1000
0001
0100
0010
0000
,
1000
0000
0001
0000
1000
0000
0001
0001
,
1000
0010
0100
0001
1000
0010
0100
0000
,
0001
0000
1000
0000
0010
0000
0100
0100
,
0001
1000
0010
0000
0100
0001
1000
0000
,
0010
0100
0001
1000
,
0010
0100
0001
1000
0010
0100
0001
0000
,
1000
0010
0100
0001
,
1000
0010
0100
0001
1000
0010
0100
0000
,
0001
0000
1000
0000
0001
0000
0100
0010
,
0100
0001
1000
0001
1000
0010
0100
0000
,
0001
1000
0010
0100
,
0001
1000
1000
0000
0010
0100
0100
0000
,
2002
0000
0000
0000
,
0000
0000
0000
0000
0000
0000
0000
3003
;

//---------------dance-single - ----------------
#NOTES:
     dance-single:
     :
     Easy:
     3:
     0.194574,0.268392,0.043376,0.130129,0.000000,157.000000,152.000000,5.000000,15.000000,0.000000,0.000000,0.194574,0.268392,0.043376,0.130129,0.000000,157.000000,152.000000,5.000000,15.000000,0.000000,0.000000:
0000
0000
0000
0000
,
0000
0000
0000
0000
,
0000
0000
0000
0000
,
0000
0000
0000
0000
,
0020
0000
0000
0000
,
0000
0000
0000
0000
,
0000
0000
0000
0000
,
0030
0000
0100
0000
,
0002
0000
0000
0003
,
2000
0000
0000
3000
,
0002
0000
0000
0003
,
2000
0000
0000
3000
,
0200
0000
0000
0300
,
0020
0000
0000
0030
,
0200
0000
0000
0300
,
0002
0000
0000
0003
,
1000
0000
0001
0000
,
1000
0001
1000
0001
,
0100
0000
0010
0000
,
0100
0010
0100
0010
,
1000
0000
0001
0000
,
1000
0001
1000
0001
,
0100
0000
0010
0000
,
1001
0000
1001
0000
,
0100
0010
0100
0010
,
1000
0001
1000
0001
,
0100
0010
0100
0010
,
1000
0001
1000
0001
,
0100
0010
0100
0010
,
1000
0001
1000
0001
,
0100
0010
0100
0010
,
1001
0000
1001
0000
,
0010
0000
0100
0000
,
0001
0000
1000
0000
,
0010
0100
0001
1000
,
0010
0100
0001
1000
,
0010
0000
0100
0000
,
0010
0000
0100
0000
,
0010
0100
0001
1000
,
0001
0100
0010
1000
,
0002
0000
0000
0000
0000
0000
0000
0003
,
2000
0000
0000
3000
,
0020
0000
0000
0030
,
0200
0000
0000
0300
,
0001
1000
0001
0100
,
0100
0100
0100
0100
,
0010
1000
0001
0000
,
1000
0001
1000
0001
,
0100
0010
0100
0000
,
0001
1000
0010
0100
,
0001
1000
0001
0000
,
1000
0001
0100
0010
,
1000
1000
1000
1000
,
0001
0001
0001
0001
,
0100
0100
0100
0100
,
0010
0010
0010
0010
,
1000
1000
1000
1000
,
0001
0001
0001
0001
,
1000
0010
1000
0001
,
0100
0100
0010
0010
,
2002
0000
0000
0000
,
0000
0000
0000
0000
0000
0000
0000
3003
;

//---------------dance-single - Copied from----------------
#NOTES:
     dance-single:
     Copied from:
     Beginner:
     2:
     0.071881,0.104103,0.008675,0.000000,0.000000,58.000000,57.000000,1.000000,0.000000,0.000000,0.000000,0.071881,0.104103,0.008675,0.000000,0.000000,58.000000,57.000000,1.000000,0.000000,0.000000,0.000000:
0000
0000
0000
0000
,
0000
0000
0000
0000
,
0000
0000
0000
0000
,
0000
0000
0000
0000
,
0001
0000
0000
0000
,
0000
1000
0000
0000
0000
0000
0000
0000
,
0000
0001
0000
0000
0000
0000
0000
0000
,
0000
1000
0000
0000
0000
0000
0000
0000
,
0001
0000
0000
0000
,
1000
0000
0000
0000
,
0001
0000
0000
0000
,
1000
0000
0000
0000
,
0010
0000
0000
0000
,
0100
0000
0000
0000
,
0010
0000
0000
0000
,
0100
0000
0000
0000
,
0001
0000
0000
0000
,
0001
0000
0000
0000
,
1000
0000
0000
0000
,
1000
0000
0000
0000
,
0001
0000
0000
0000
,
0001
0000
0000
0000
,
1000
0000
0000
0000
,
1000
0000
0000
0000
,
0010
0000
0000
0000
,
0010
0000
0000
0000
,
0100
0000
0000
0000
,
0100
0000
0000
0000
,
0001
0000
0000
0000
,
0001
0000
0000
0000
,
1000
0000
0000
0000
,
1000
0000
0000
0000
,
0001
0000
0000
0000
,
0010
0000
0000
0000
,
0100
0000
0000
0000
,
1000
0000
0000
0000
,
1000
0000
0000
0000
,
0100
0000
0000
0000
,
0010
0000
0000
0000
,
0001
0000
0000
0000
,
1000
0000
0000
0000
,
0010
0000
0000
0000
,
0100
0000
0000
0000
,
0001
0000
0000
0000
,
1000
0000
0000
0000
,
0010
0000
0000
0000
,
0100
0000
0000
0000
,
0001
0000
0000
0000
,
1000
0000
0000
0000
,
0010
0000
0000
0000
,
0100
0000
0000
0000
,
0001
0000
0000
0000
,
0001
0000
0000
0000
,
0100
0000
0000
0000
,
0010
0000
0000
0000
,
1000
0000
0000
0000
,
0001
0000
0000
0000
,
0100
0000
0000
0000
,
0010
0000
0000
0000
,
1000
0000
0000
0000
,
1001
0000
0000
0000
;
