#TITLE:Disco Nights;
#SUBTITLE:;
#ARTIST:Relect;
#TITLETRANSLIT:;
#SUBTITLETRANSLIT:;
#ARTISTTRANSLIT:;
#CREDIT:SupremeX;
#BANNER:Disco Nights-bn.png;
#BACKGROUND:Disco Nights-bg.png;
#LYRICSPATH:;
#CDTITLE:;
#MUSIC:Disco Nights.ogg;
#OFFSET:-0.712;
#SAMPLESTART:75.660;
#SAMPLELENGTH:12.000;
#SELECTABLE:YES;
#BPMS:0.000=128.000;
#STOPS:;
#BGCHANGES:;

//---------------dance-single - ----------------
#NOTES:
     dance-single:
     :
     Hard:
     7:
     0.418,0.436,0.031,0.104,0.000:
0000
0000
0000
0000
,
0000
0000
0000
0000
,
0000
0000
0000
0000
,
0000
0000
0000
0000
,
0010
1000
0001
0000
1000
0100
1000
0000
,
0001
1000
0001
0000
1000
0001
0100
0000
,
0001
1000
0010
0000
1000
0010
1000
0000
,
0100
0010
0100
0010
0100
0010
0001
0000
,
0220
0000
0330
0000
1000
0010
0100
0000
,
0001
1000
0001
0000
1000
0001
0100
0000
,
0001
0100
0001
0000
1000
0100
1000
0000
,
0001
1000
0010
0000
0100
0010
0100
0000
,
0001
1000
0100
0000
1000
0001
0010
0000
,
0100
1000
0100
0000
0010
0001
0010
0000
,
0100
1000
0001
0000
1000
0001
1000
0000
,
0001
0010
0001
0000
1000
0010
0100
0000
,
0001
1000
0001
1000
0001
1000
0001
1000
,
0001
0100
0001
0100
0001
0100
0001
0100
,
0010
1000
0010
1000
0010
1000
0010
1000
,
0001
0100
0001
0100
0001
0100
0001
0000
,
1000
1000
0100
1000
0010
0100
0010
0100
,
0001
0001
1000
0100
0010
0100
1000
0100
,
0010
0010
0001
0010
0100
1000
0100
0010
,
0001
0001
1000
0010
0100
0010
0100
0010
,
0100
0001
1000
0010
,
1000
0000
0220
0000
0000
0000
0000
0330
,
0001
0000
1000
0001
1000
0100
0010
0100
,
0010
0000
0001
0010
0001
0010
0001
0010
,
0100
0000
1000
0100
1000
0001
1000
0100
,
1000
0000
0001
0010
0001
1000
0001
0010
,
0001
1000
0001
0000
0100
0010
0100
0000
,
0010
1000
0001
0000
1000
0001
0100
0000
,
0001
0010
0100
1000
0100
0010
0001
0010
,
0100
2000
0000
0000
,
3100
0000
0100
1000
0100
0010
0100
1000
,
0100
0020
0000
0000
,
0031
0000
0001
1000
0001
0100
0010
0100
,
0010
0200
0000
0000
,
0301
0000
0010
1000
0001
0100
0001
1000
,
0001
0002
0000
0000
,
1003
0001
1000
0000
0100
0100
0100
0000
,
0010
0001
1000
0000
1000
1000
1000
0000
,
0001
0010
0100
0000
1000
0100
0010
0000
,
0001
0010
0001
0000
0010
0010
0010
0000
,
0100
1000
0100
0000
0010
0001
0010
0000
,
0100
1000
0001
0000
0010
0010
0010
0000
,
0100
1000
0100
0000
0010
0001
0100
0000
,
1000
0001
0100
0000
0001
1000
0100
0010
,
2002
0000
0000
0000
,
0000
3003
0000
0000
0000
0000
0000
0000
;

//---------------dance-single - ----------------
#NOTES:
     dance-single:
     :
     Medium:
     5:
     0.316,0.306,0.125,0.073,0.000:
0000
0000
0000
0000
,
0000
0000
0000
0000
,
0000
0000
0000
0000
,
0000
0000
0000
0000
,
1000
0010
1000
1000
,
0001
0100
0001
0001
,
1000
0010
1000
1000
,
0001
0100
0001
0001
,
2000
3000
0010
0100
,
0001
1000
0001
0000
1000
0000
1000
0000
,
0010
0100
0001
1000
,
0010
0100
0010
0000
1000
0000
1000
0000
,
0001
0100
0010
1000
,
0001
0100
0001
0000
1000
0000
1000
0000
,
0010
0100
0001
1000
,
0010
0100
0010
0000
0100
0000
0100
0000
,
0001
0001
1000
1000
,
0110
0110
0001
0001
,
1000
1000
0001
0001
,
0110
0110
1000
1000
,
0001
1000
0001
1000
,
0110
0000
1001
0000
,
0010
0100
0001
1000
,
0110
0000
1001
0000
,
0220
0000
0000
0000
0000
0330
0000
0000
,
1001
0220
0000
0330
,
1000
0000
0001
0000
1000
0010
1000
0000
,
0001
0100
0100
0100
,
0010
1000
0001
1000
,
0010
0000
0100
0001
0100
0001
0100
0000
,
0010
0010
1000
1000
,
0001
0001
0100
0100
,
0010
1000
0001
0100
,
0010
0000
1000
0010
1000
0010
1000
0010
,
1000
0001
0100
0010
,
1000
0000
0001
0100
0001
0100
0001
0100
,
0010
1000
0010
1000
,
0001
0000
1000
0010
1000
0010
1000
0010
,
0100
0001
0100
0010
,
1000
0000
0001
0001
0001
0001
0001
0001
,
0100
0000
0010
0000
1000
0010
1000
0000
,
0001
0000
0100
0000
0010
0010
0010
0000
,
1000
0000
0001
0000
0100
0010
0100
0000
,
0001
0000
1000
0000
0010
0100
0010
0000
,
1000
0000
0001
0000
1000
1000
1000
0000
,
0010
0100
0001
0001
,
1000
0010
1000
0000
0001
0000
0001
0000
,
0100
0010
0100
0000
0010
0000
0010
0000
,
2002
0000
0000
0000
0000
0000
0000
3003
;

//---------------dance-single - ----------------
#NOTES:
     dance-single:
     :
     Easy:
     3:
     0.200,0.255,0.052,0.094,0.000:
0000
0000
0000
0000
,
0000
0000
0000
0000
,
0000
0000
0000
0000
,
0000
0000
0000
0000
,
0001
0000
1000
0000
,
0001
0100
0010
0000
,
1000
0000
0001
0000
,
1000
0010
0100
0000
,
0001
0000
0001
0001
,
1000
0000
1000
1000
,
0010
0000
0010
0010
,
0100
0000
0100
0100
,
0001
0000
1000
1000
,
0001
0000
0100
0100
,
0010
0000
1000
1000
,
0010
0000
0100
0100
,
1000
1000
1000
1000
,
0001
0001
0001
0001
,
0100
0100
0100
0100
,
0010
0010
0010
0010
,
1000
0000
1001
0000
,
0001
0000
1001
0000
,
1000
0000
0110
0000
,
0001
0000
0110
0000
,
1000
0000
0000
0000
,
0001
2000
0000
0000
,
3000
0010
0000
0100
,
0000
0000
0020
0000
0000
0000
0000
0030
,
0000
0100
0000
0010
,
0000
0000
0200
0000
0000
0000
0000
0300
,
0001
0000
0001
0000
,
1000
0000
1000
0000
,
0001
0000
0001
0000
,
0001
0000
0002
0000
0000
0000
0000
0003
,
0100
0000
0100
0000
,
0100
0200
0000
0300
,
0010
0000
0010
0000
,
0010
0000
0020
0000
0000
0000
0000
0030
,
1000
0000
1000
0000
,
1000
0000
2000
0000
0000
0000
0000
3000
,
0001
0001
0100
0100
,
0010
0010
1000
1000
,
0001
0001
0100
0100
,
0010
0010
1000
1000
,
0010
0010
0100
0100
,
0001
0001
1000
1000
,
0010
0010
0100
0100
,
0001
0001
1000
1000
,
2002
0000
0000
0000
0000
0000
0000
3003
;

//---------------dance-single - Copied from ----------------
#NOTES:
     dance-single:
     Copied from:
     Beginner:
     1:
     0.067,0.075,0.000,0.000,0.000: // measure 1
0000
0000
0000
0000
,  // measure 2
0000
0000
0000
0000
,  // measure 3
0000
0000
0000
0000
,  // measure 4
0000
0000
0000
0000
,  // measure 5
0010
0000
0000
0000
,  // measure 6
0100
0000
0000
0000
,  // measure 7
0010
0000
0000
0000
,  // measure 8
0100
0000
0000
0000
,  // measure 9
0001
0000
0000
0000
,  // measure 10
1000
0000
0000
0000
,  // measure 11
0001
0000
0000
0000
,  // measure 12
1000
0000
0000
0000
,  // measure 13
0010
0000
0000
0000
,  // measure 14
0100
0000
0000
0000
,  // measure 15
0010
0000
0000
0000
,  // measure 16
0100
0000
0000
0000
,  // measure 17
0001
0000
0000
0000
,  // measure 18
0001
0000
0000
0000
,  // measure 19
1000
0000
0000
0000
,  // measure 20
1000
0000
0000
0000
,  // measure 21
0010
0000
0000
0000
,  // measure 22
0010
0000
0000
0000
,  // measure 23
0100
0000
0000
0000
,  // measure 24
0100
0000
0000
0000
,  // measure 25
0001
0000
0000
0000
,  // measure 26
1000
0000
0000
0000
,  // measure 27
0001
0000
0000
0000
,  // measure 28
0100
0000
0000
0000
,  // measure 29
0010
0000
0000
0000
,  // measure 30
1000
0000
0000
0000
,  // measure 31
0001
0000
0000
0000
,  // measure 32
0001
0000
0000
0000
,  // measure 33
1000
0000
0000
0000
,  // measure 34
0010
0000
0000
0000
,  // measure 35
0100
0000
0000
0000
,  // measure 36
0001
0000
0000
0000
,  // measure 37
1000
0000
0000
0000
,  // measure 38
0010
0000
0000
0000
,  // measure 39
0100
0000
0000
0000
,  // measure 40
0001
0000
0000
0000
,  // measure 41
1000
0000
0000
0000
,  // measure 42
1000
0000
0000
0000
,  // measure 43
0100
0000
0000
0000
,  // measure 44
0100
0000
0000
0000
,  // measure 45
0010
0000
0000
0000
,  // measure 46
0010
0000
0000
0000
,  // measure 47
0001
0000
0000
0000
,  // measure 48
0001
0000
0000
0000
,  // measure 49
1000
0000
0000
0000
;
