#TITLE:Dam Dam Deo (Eho Remix);
#SUBTITLE:;
#ARTIST:FELICIDAD;
#TITLETRANSLIT:;
#SUBTITLETRANSLIT:;
#ARTISTTRANSLIT:;
#CREDIT:SupremeX;
#BANNER:Dam Dam Deo (Eho Remix)-bn.png;
#BACKGROUND:Dam Dam Deo (Eho Remix)-bg.png;
#LYRICSPATH:;
#CDTITLE:;
#MUSIC:DanDanDeo.ogg;
#OFFSET:-0.073;
#SAMPLESTART:54.040;
#SAMPLELENGTH:12.000;
#SELECTABLE:YES;
#BPMS:0.000=124.940;
#STOPS:;
#BGCHANGES:16.000=water1.avi=1.000=0=0=1,
32.000=sun1.avi=1.000=0=0=1,
48.000=smoke3.avi=1.000=0=0=1,
64.000=kangaroo1.avi=1.000=0=0=1,
80.000=fish2.avi=1.000=0=0=1,
96.000=fish1.avi=1.000=0=0=1,
112.000=sun2.avi=1.000=0=0=1,
128.000=surf1.avi=1.000=0=0=1,
144.000=fish1.avi=1.000=0=0=1,
160.000=kangaroo1.avi=1.000=0=0=1,
176.000=sun1.avi=1.000=0=0=1,
184.000=Dam Dam Deo (Eho Remix)-bg.png=1.000=0=0=1,
99999=-nosongbg-=1.000=0=0=0 // don't automatically add -songbackground-
;

//---------------dance-single - ----------------
#NOTES:
     dance-single:
     :
     Hard:
     8:
     0.440,0.418,0.214,0.257,0.182: // measure 1
0000
0000
0000
0000
,  // measure 2
0000
0000
0000
0000
,  // measure 3
0000
0000
0000
0000
,  // measure 4
0000
0000
0000
0000
,  // measure 5
0001
0000
0001
0000
1000
0100
0010
0000
,  // measure 6
0100
0000
0100
0000
0001
0010
0100
1000
,  // measure 7
0000
0000
0010
0000
0100
0010
0100
0000
,  // measure 8
0001
0100
1010
0101
,  // measure 9
2000
0000
3100
0010
0000
0010
0100
0000
,  // measure 10
0002
0000
0000
0000
1003
0000
0001
0000
0000
0100
0010
0000
0100
0010
0000
0000
,  // measure 11
0200
0000
0000
0000
0301
0000
0010
0000
0100
0000
0000
1000
0100
0000
1000
0000
,  // measure 12
0001
0100
0010
1000
0100
0010
0001
0000
,  // measure 13
0020
0000
0130
0100
0000
0010
1000
0000
,  // measure 14
0200
0000
0000
0000
1300
0000
1000
0000
0000
0001
0010
0000
0001
0010
0000
0000
,  // measure 15
0002
0000
0000
0000
1003
0000
0001
0000
0010
0000
0000
0100
1000
0000
0100
0000
,  // measure 16
0010
0001
0010
0100
1000
0010
1000
0000
,  // measure 17
0001
0000
0000
1001
0000
0000
1000
0000
0010
0000
0100
0000
0001
0000
0100
0000
,  // measure 18
0010
0000
0000
1010
0000
0000
1000
0000
0100
0000
0000
0010
0000
0001
0010
0000
,  // measure 19
0100
0000
0000
1100
0000
0000
1000
0000
0020
0000
0000
0000
0000
0000
0030
0000
,  // measure 20
1000
0000
0000
1001
0000
0000
0001
0000
0200
0000
0000
0000
0000
0300
0000
0000
,  // measure 21
0010
0000
0000
1100
0000
0000
0001
0000
0010
0000
0100
0000
1000
0000
0000
0000
,  // measure 22
0100
0000
0000
1010
0000
0000
1000
0000
0001
0000
0100
0000
0001
1000
0001
0000
,  // measure 23
1000
0000
0000
1001
0000
0000
0010
0000
0020
0000
0000
0000
0000
0000
0030
0000
,  // measure 24
0100
0000
0000
1001
0000
0000
0001
0000
2000
0000
0000
0000
0000
0000
3000
0000
,  // measure 25
0010
0000
0100
0000
0010
0000
0100
0000
0001
0000
0000
1001
0000
0000
0200
0000
,  // measure 26
0000
0000
0000
0000
0310
0000
1000
0000
0001
0000
0000
0011
0000
0000
1001
0000
,  // measure 27
0000
0000
0001
0000
0100
0000
0010
0000
1000
0000
0000
0101
0000
0000
2000
0000
,  // measure 28
0000
0000
3000
0000
0100
0000
0100
0000
0010
0000
0000
0011
0000
0000
1000
0000
,  // measure 29
0100
1000
0100
0010
0001
0001
0100
0100
,  // measure 30
0010
0000
1000
1000
0010
0100
0001
0001
,  // measure 31
1000
0000
0001
0100
0010
0010
1000
1000
,  // measure 32
0010
0000
0000
0220
0000
0000
0000
0000
0000
0000
0000
0000
0330
0000
0000
0000
,  // measure 33
1001
0001
0100
0010
1000
1000
0010
0010
,  // measure 34
0000
0000
0100
0001
1000
1000
0001
0001
,  // measure 35
0000
0000
0010
0100
0010
0010
1000
1000
,  // measure 36
0001
0000
0000
0220
0000
0000
0000
0000
0000
0000
0000
0000
0000
0330
0000
0000
,  // measure 37
2000
0000
0000
3001
1000
0100
0010
0001
,  // measure 38
0200
0000
0000
0000
0000
0000
0301
0000
1000
0000
0010
0000
0100
0010
0000
0000
,  // measure 39
0020
0000
0000
0000
0000
0000
0130
0000
0001
0000
0010
0000
0100
1000
0000
0000
,  // measure 40
0010
0000
0000
1010
0000
0000
1000
0000
0002
0000
0000
0000
0000
0000
0003
0000
,  // measure 41
0200
0000
0000
0301
1000
0100
0010
0001
,  // measure 42
2000
0000
0000
0000
0000
0000
3001
0000
0010
0000
0100
0000
1000
0010
0000
0000
,  // measure 43
0200
0000
0000
0000
0000
0000
0310
0000
0100
0000
0010
0000
1000
0100
0000
0000
,  // measure 44
1000
0000
0000
1001
0000
0000
0001
0000
0020
0000
0000
0000
0000
0000
0030
0000
,  // measure 45
0100
0000
0000
0100
1000
0000
0000
0000
1000
0000
0100
0000
0010
0000
0100
0000
,  // measure 46
0001
0000
0000
1000
0100
0000
0000
1000
0000
1000
0000
0001
0100
0000
0010
0000
,  // measure 47
1000
0000
0000
0000
;

//---------------dance-single - ----------------
#NOTES:
     dance-single:
     :
     Medium:
     5:
     0.332,0.343,0.128,0.086,0.075:
0000
0000
0000
0000
,
0000
0000
0000
0000
,
0000
0000
0000
0000
,
0000
0000
0000
0000
,
0010
0000
0010
0000
1000
0100
0010
0001
,
0000
0000
1000
0000
0100
0010
0100
0010
,
0000
0000
0001
0000
1000
0010
0100
0000
,
0010
0100
0110
0101
,
0010
0000
1000
0010
1000
0100
0010
0100
,
0001
0000
0010
0100
0010
1000
0001
0000
,
0001
0000
0100
0010
1000
0001
1000
0000
,
0010
0000
1000
0100
1000
0100
0010
0000
,
0010
0000
0001
0100
0010
1000
0010
0000
,
0100
0000
0001
1000
0001
0010
0100
0000
,
0100
0000
1000
0010
0100
0001
1000
0000
,
0010
0000
0010
1000
0100
0010
0001
0000
,
0100
0000
0000
0010
0000
0000
0110
0000
0000
0000
0000
0000
0000
0000
0000
0000
,
1000
0000
0000
0100
0000
0000
1100
0000
0000
0000
0000
0000
0000
0000
0000
0000
,
0001
0000
0000
0100
0000
0000
0001
0000
0002
0000
0000
0000
0000
0003
0000
0000
,
1000
0000
0000
0010
0000
0000
1000
0000
2000
0000
0000
0000
0000
3000
0000
0000
,
0010
0000
0000
0100
0000
0000
0110
0000
0000
0000
0000
0000
0000
0000
0000
0000
,
0001
0000
0000
1000
0000
0000
1001
0000
0000
0000
0000
0000
0100
0000
0000
0000
,
0010
0000
0000
0100
0000
0000
0110
0000
0020
0000
0000
0000
0000
0030
0000
0000
,
1000
0000
0000
0100
0000
0000
0010
0000
0002
0000
0000
0000
0000
0000
0003
0000
,
1000
0000
0000
0000
1000
0000
0000
0000
0001
0000
0000
0010
0000
0000
0100
0000
,
0000
0000
0000
0000
1000
0000
0000
0000
1000
0000
0000
0100
0000
0000
0010
0000
,
0000
0000
0000
0000
0001
0000
0000
0000
1000
0000
0000
0010
0000
0000
0100
0000
,
0000
0001
1000
0100
,
0110
0000
0001
0000
0100
0100
0100
0000
,
0010
0000
1000
0000
0010
0010
0010
0000
,
0100
0000
0001
0000
1000
1000
1000
0000
,
0001
0000
0000
2002
0000
0000
0000
0000
0000
0000
0000
0000
3003
0000
0000
0000
,
1000
0000
0100
0000
0010
0010
0010
0000
,
0001
0000
1000
0000
0001
0001
0001
0000
,
0100
0000
0010
0000
1000
1000
1000
0000
,
0010
0100
0001
1000
,
1001
0000
0010
0000
0100
0010
0100
0000
,
0001
0000
1000
0000
0010
0100
0010
0000
,
1000
0000
0001
0000
1000
0100
0010
0000
,
0001
0000
0000
0001
0000
0000
1001
0000
2000
0000
0000
0000
0000
3000
0000
0000
,
0010
0000
0100
0000
0001
1000
0001
0000
,
0100
0000
0001
0000
1000
0010
0100
0000
,
0001
0000
1000
0000
0010
0100
0001
0000
,
1000
0000
0000
1000
0000
0000
1100
0000
2000
0000
0000
0000
0000
3000
0000
0000
,
0010
0000
0010
0000
0100
0001
0100
0000
,
0010
0000
1000
0000
0001
1000
0001
0000
;

//---------------dance-single - ----------------
#NOTES:
     dance-single:
     :
     Easy:
     3:
     0.251,0.246,0.043,0.203,0.000:
0000
0000
0000
0000
,
0000
0000
0000
0000
,
0000
0000
0000
0000
,
0000
0000
0000
0000
,
0010
0010
1000
1000
,
0001
0001
0100
0100
,
0010
1000
0001
0100
,
0001
1000
0001
1000
,
0002
0000
0000
0000
0000
0003
0000
0000
,
0200
0000
0000
0000
0000
0300
0000
0000
,
0020
0000
0030
0000
,
2000
0000
3000
0000
,
0001
0100
0001
1000
,
0010
1000
0001
0100
,
0010
1000
0001
1000
,
2002
0000
3003
0000
,
0010
0010
0100
0100
,
0001
0001
1000
1000
,
0010
0000
0100
0000
0002
0000
0000
0003
,
1000
0000
0010
0000
0200
0000
0000
0300
,
0001
0010
0100
1000
,
0010
1000
0100
0010
,
0001
0000
1000
0000
0200
0000
0000
0300
,
0010
0000
0010
0000
0002
0000
0000
0003
,
1000
0010
0100
0001
,
1000
1000
0010
0100
,
0001
1000
0010
0100
,
0202
0000
0000
0303
,
1000
0010
1000
1000
,
0001
0100
0010
0010
,
1000
0001
0100
0010
,
1000
2002
0000
3003
,
0100
0010
0100
0100
,
0001
1000
0010
0010
,
1000
0100
0010
0001
,
1000
2020
0000
3030
,
0001
0001
0100
0100
,
0010
0010
1000
1000
,
0001
0001
0100
0100
,
0010
0000
1000
0000
0020
0000
0000
0030
,
0100
0001
1000
1000
,
0010
0100
0001
0001
,
1000
0010
1000
1000
,
0001
0000
0100
0000
0020
0000
0000
0030
,
1000
1000
0001
0001
,
1000
1000
0010
0010
,
0200
0300
0000
0000
0000
0000
0000
0000
0000
0000
0000
0000
0000
0000
0000
0000
0000
0000
0000
0000
0000
0000
0000
0000
0000
0000
0000
0000
0000
0000
0000
0000
0000
0000
0000
0000
0000
0000
0000
0000
0000
0000
0000
0000
0000
0000
0000
0000
0000
0000
0000
0000
0000
0000
0000
0000
0000
0000
0000
0000
0000
0000
0000
0000
0000
0000
0000
0000
0000
0000
0000
0000
0000
0000
0000
0000
0000
0000
0000
0000
0000
0000
0000
0000
0000
0000
0000
0000
0000
0000
0000
0000
0000
0000
0000
0000
0000
0000
0000
0000
0000
0000
0000
0000
0000
0000
0000
0000
0000
0000
0000
0000
0000
0000
0000
0000
0000
0000
0000
0000
0000
0000
0000
0000
0000
0000
0000
0000
0000
0000
0000
0000
0000
0000
0000
0000
0000
0000
0000
0000
0000
0000
0000
0000
0000
0000
0000
0000
0000
0000
0000
0000
0000
0000
0000
0000
0000
0000
0000
0000
0000
0000
0000
0000
0000
0000
0000
0000
0000
0000
0000
0000
0000
0000
0000
0000
0000
0000
0000
0000
0000
0000
0000
0000
0000
0000
0000
0000
0000
0000
0000
0000
;

//---------------dance-single - Copied from----------------
#NOTES:
     dance-single:
     Copied from:
     Beginner:
     1:
     0.061,0.074,0.000,0.000,0.000:
0000
0000
0000
0000
,
0000
0000
0000
0000
,
0000
0000
0000
0000
,
0000
0000
0000
0000
,
0010
0000
0000
0000
,
0000
0000
0000
0000
,
0000
0000
0000
0000
,
0000
0000
0000
0000
,
1000
0000
0000
0000
,
1000
0000
0000
0000
,
1000
0000
0000
0000
,
1000
0000
0000
0000
,
0001
0000
0000
0000
,
0001
0000
0000
0000
,
0001
0000
0000
0000
,
0001
0000
0000
0000
,
0100
0000
0000
0000
,
0010
0000
0000
0000
,
0100
0000
0000
0000
,
0010
0000
0000
0000
,
0100
0000
0000
0000
,
0100
0000
0000
0000
,
0010
0000
0000
0000
,
0010
0000
0000
0000
,
1000
0000
0000
0000
,
0001
0000
0000
0000
,
1000
0000
0000
0000
,
0001
0000
0000
0000
,
1000
0000
0000
0000
,
0100
0000
0000
0000
,
1000
0000
0000
0000
,
0100
0000
0000
0000
,
0010
0000
0000
0000
,
0001
0000
0000
0000
,
0010
0000
0000
0000
,
0001
0000
0000
0000
,
1000
0000
0000
0000
,
1000
0000
0000
0000
,
1000
0000
0000
0000
,
0010
0000
0000
0000
,
0100
0000
0000
0000
,
0100
0000
0000
0000
,
0100
0000
0000
0000
,
0001
0000
0000
0000
,
0001
0000
0000
0000
,
0001
0000
0000
0000
,
0010
0000
0000
0000
;
