#TITLE:Cherry Pie;
#SUBTITLE:;
#ARTIST:SpeedMaster;
#TITLETRANSLIT:;
#SUBTITLETRANSLIT:;
#ARTISTTRANSLIT:;
#GENRE:;
#CREDIT:SupremeX;
#BANNER:Cherry Pie-bn.png;
#BACKGROUND:Cherry Pie-bg.png;
#LYRICSPATH:;
#CDTITLE:;
#MUSIC:Cherry Pie.ogg;
#OFFSET:-0.423947;
#SAMPLESTART:50.919998;
#SAMPLELENGTH:12.000000;
#SELECTABLE:YES;
#BPMS:0.000000=170.000000
;
#STOPS:
;
#BGCHANGES:;
#KEYSOUNDS:;
#ATTACKS:;

//---------------dance-single - ----------------
#NOTES:
     dance-single:
     :
     Hard:
     9:
     0.513681,0.545954,0.272977,0.160021,0.000000,382.000000,353.000000,29.000000,17.000000,0.000000,0.000000,0.513681,0.545954,0.272977,0.160021,0.000000,382.000000,353.000000,29.000000,17.000000,0.000000,0.000000:
0000
0000
0000
0000
,
0000
0000
0000
0000
,
0000
0000
0000
0000
,
0000
0000
0000
0000
0000
0000
1000
0100
,
1000
0100
1000
0000
0001
0000
0100
0010
,
0100
0010
0000
1000
1000
0000
0001
0010
,
0001
0010
0001
0000
1000
0000
0010
0100
,
0010
0100
0000
0010
0010
0000
1000
0001
,
0100
0010
0010
0000
0101
0000
0010
1000
,
0001
1000
0100
0000
0000
0000
0010
0001
,
0010
0100
1000
0000
0010
0100
0010
0000
,
1001
0000
0110
0000
0000
0000
0010
0100
,
0001
0100
0010
0000
1010
0000
0100
0001
,
0100
0010
0010
0000
0101
0000
0010
1000
,
0001
1000
0010
0000
0100
0010
0100
0000
,
0001
0000
1000
0000
0001
0000
1000
0100
,
0010
0001
1000
0000
0110
0000
0010
0100
,
0010
0100
0000
0001
0001
0000
1000
0100
,
0010
0001
1000
0000
0001
0000
0100
0010
,
0100
0010
0000
0100
0100
0000
0001
0010
,
0100
1000
0001
0000
0110
0000
1000
0100
,
1000
0100
0000
1000
1000
0000
0001
0010
,
0100
1000
0001
0000
0110
0000
1000
0100
,
1000
0100
0000
1000
1000
0000
0001
0100
,
0001
0100
0010
0100
0010
0000
1000
0010
,
1000
0010
0100
0000
0110
0000
0001
1000
,
0001
1000
0010
0000
0100
0100
0010
0100
,
0010
1000
0001
1000
0000
0000
0001
0100
,
0010
1000
0001
0000
0110
0000
1000
0010
,
0100
0001
1000
0000
0110
0000
0001
0000
,
1100
0000
0110
0000
0011
0000
1000
0100
,
0010
0001
1000
0000
0001
0000
1000
0000
,
0010
0010
0100
0000
0001
0001
1000
0000
,
0010
0100
0010
0000
0100
0000
0001
1000
,
0100
0010
0001
0000
1000
0000
0001
0010
,
0100
1000
0100
0010
0001
0000
0200
0000
,
0000
0320
0000
1030
,
0010
0010
0000
1000
1000
0000
0001
0000
,
0100
0010
0100
0000
0001
1000
0001
0000
,
1100
0000
1100
0000
0000
0000
0010
0001
,
0010
0001
1000
0000
1000
0000
0010
0100
,
0001
0100
0010
0000
1000
0000
0200
0000
,
0000
0302
0000
0000
2003
0000
0000
0000
,
0100
3100
1100
0001
,
0100
0001
0100
0000
0001
0000
1000
0000
,
0100
0100
0000
1000
1000
0000
0010
0100
,
0001
1000
0010
0000
1000
0000
0001
0100
,
0010
1000
0001
0000
1000
0000
0010
0100
,
0001
0100
0010
0000
1000
0000
0101
0000
,
1010
1001
0000
0020
,
0000
0230
0000
0000
0302
0000
0000
0000
,
0000
0003
0000
0000
0000
0000
2100
0000
,
0000
3020
0000
0130
,
0010
0010
0000
1000
1000
0000
0001
0010
,
0100
1000
0100
1000
1000
0000
0110
0000
,
1001
0000
0110
0000
1000
0000
0010
0100
,
0001
1000
0010
0000
1000
0000
1100
0000
,
0110
0011
0000
2000
,
0000
3200
0000
0000
2300
0000
0000
0000
,
0100
0000
3200
0000
,
0010
0000
0320
0000
,
0001
0000
0032
0000
,
1003
0000
1000
0000
0001
0000
0001
1000
,
0100
0010
0001
1000
0100
1000
0100
0000
,
0010
0001
0010
0000
0100
0000
1000
1000
,
0100
0010
0000
0001
0001
0000
1000
0100
,
0010
0001
1000
0000
0010
0000
0100
0010
,
1000
0010
0000
0100
0100
0000
0001
0010
,
0100
1000
0001
0000
1000
0000
0010
0100
,
0010
0100
0000
0001
0001
0000
1000
0100
,
0010
0001
2000
0000
0000
0000
3100
1000
,
0100
1000
0000
0001
0001
0000
1000
0000
,
1001
0001
0110
0000
;

//---------------dance-single - ----------------
#NOTES:
     dance-single:
     :
     Medium:
     5:
     0.344247,0.443588,0.065891,0.131782,0.000000,256.000000,249.000000,7.000000,14.000000,0.000000,0.000000,0.344247,0.443588,0.065891,0.131782,0.000000,256.000000,249.000000,7.000000,14.000000,0.000000,0.000000:
0000
0000
0000
0000
,
0000
0000
0000
0000
,
0000
0000
0000
0000
,
0000
0000
0000
1000
,
0100
0000
1000
0000
0001
0000
0100
0010
,
0100
0010
0000
0000
0001
0000
1000
0000
,
0010
0100
0010
1000
,
0001
0001
0000
1000
1000
0000
0010
0000
,
0100
0000
0010
0100
0010
0000
1000
0000
,
0001
0000
0100
0010
0100
0000
0001
0000
,
1000
0000
0001
0100
0001
0100
0001
0000
,
1000
1000
0000
0001
,
0001
0000
0100
0100
0000
0000
0010
0000
,
1000
0001
0000
1000
,
0010
1000
0010
1001
,
0110
1001
0110
0001
,
0100
0000
0001
0000
0100
0000
0001
0010
,
0100
1000
0000
0100
0100
0000
1000
0000
,
0100
0000
0010
0000
0001
0000
1000
0100
,
1000
0100
0000
1000
1000
0000
0001
0000
,
0010
0100
1000
0001
,
0100
0001
0000
0100
0100
0000
0010
0000
,
1000
0000
0010
0000
0000
0000
1000
0001
,
1000
0001
0000
0100
0100
0000
0001
0000
,
0001
0100
0100
0010
,
0010
0000
1000
0000
1000
0000
0010
0100
,
0010
0100
0010
0000
1000
0000
0010
0000
,
1000
0010
0000
0100
,
0001
0100
0001
1000
,
0100
1000
0000
0001
,
1000
0000
0001
0000
0100
0010
0100
0000
,
0001
1000
0100
1000
,
0001
0001
0010
0000
0100
0100
1000
0000
,
0010
0010
1000
0000
0001
0000
0001
0000
,
0100
0100
0010
0010
,
1000
0000
1000
0000
1000
0002
0000
0000
,
0000
2003
0000
0000
0000
3000
0010
0000
,
0100
0010
0000
0000
0000
0000
0100
0000
,
0010
0100
0001
0010
,
0100
1000
0000
0010
,
0100
0010
0000
1000
,
0100
0010
0000
0002
,
0000
0203
0000
0000
0320
0000
0000
0000
,
0030
0000
0000
1000
,
0100
1000
0001
0100
,
0010
0100
0000
0000
0001
0000
1000
0000
,
0001
0100
0000
0010
,
1000
0010
0000
1000
,
0001
1000
0001
0010
,
0100
1000
0000
0020
,
0000
0230
0000
0000
0302
0000
0000
0000
,
0003
0000
0000
2000
,
0000
3200
0000
0320
,
0000
0032
0000
0000
0003
0000
1000
0000
,
0100
1000
0001
0010
,
0100
1000
0000
0001
,
0100
0001
1000
0100
,
1000
0001
0000
1001
,
0000
0110
0000
0000
2002
0000
0000
0000
,
0000
0000
0000
0000
,
0000
0000
0000
0000
,
0000
0000
0000
0000
,
0000
3003
0000
0000
0000
0000
0000
0000
,
0000
0000
0000
1000
,
0100
0000
0010
0000
0001
0000
1000
0100
,
1000
0100
0000
0000
0010
0000
0001
0000
,
0010
0100
1000
0001
,
0100
0010
0000
0100
0010
0000
1000
0000
,
0001
1000
0001
1000
,
0010
0100
0000
0010
0100
0000
0001
0000
,
0010
0000
0100
0000
1000
0000
0010
0100
,
0010
0100
0000
0001
1000
0000
0010
0000
,
0100
0001
1000
0000
;

//---------------dance-single - ----------------
#NOTES:
     dance-single:
     :
     Easy:
     3:
     0.297182,0.371461,0.169434,0.056478,0.000000,221.000000,203.000000,18.000000,6.000000,0.000000,0.000000,0.297182,0.371461,0.169434,0.056478,0.000000,221.000000,203.000000,18.000000,6.000000,0.000000,0.000000:
0000
0000
0000
0000
,
0000
0000
0000
0000
,
0000
0000
0000
0000
,
0000
0000
0000
1000
,
0010
1000
0001
0100
,
0001
1000
0010
1000
,
0001
0001
0100
0010
,
0000
1000
0000
0000
0001
0000
1000
0000
,
0010
0010
1000
0001
,
0100
0010
0000
1000
,
0001
0001
1000
0010
,
0100
0100
0000
0001
,
1000
0010
0010
1000
,
0001
0100
0100
0001
,
1000
0001
0100
0010
,
1000
1001
1001
0010
,
0100
0010
0000
1000
,
1000
0000
0000
0001
,
0100
0001
0000
1000
,
1000
0000
0010
0100
,
0010
0100
0000
0001
,
0001
0000
0000
1000
,
0100
0010
0000
0001
,
1000
0010
1010
0100
,
0001
0100
0100
0001
,
1000
0100
0100
1000
,
0001
0010
0100
1000
,
0100
1000
0000
0001
,
1000
0100
0100
1000
,
0001
0010
0010
0001
,
1000
0100
0010
0001
,
0100
0101
0000
0000
,
0010
1010
0100
0101
,
0010
1000
0010
0100
,
0100
0001
0001
1000
,
1000
0010
0010
1000
,
0000
1001
0000
0010
,
0000
0110
0000
0000
0000
0000
1000
0000
,
1000
1000
0000
0001
,
0001
0001
0000
0100
,
0010
0100
0000
0010
,
0100
0010
0000
1000
,
0000
0110
0000
0000
2002
0000
0000
0000
,
3003
0000
0000
0001
,
1000
0001
1000
0001
,
0000
0110
0000
0000
0000
0000
1000
0000
,
0100
1000
0000
0001
,
1000
0001
0000
1000
,
0100
0010
0001
0010
,
0100
0010
0000
0001
,
0000
1100
0000
0000
0022
0000
0000
0000
,
0033
0000
0000
1000
,
0000
1000
0000
0100
,
0000
1001
0000
0000
0000
0000
0010
0000
,
0100
0010
0000
1000
,
0001
1000
0000
0010
,
0100
0010
1000
0001
,
0100
0010
0000
1001
,
0000
0110
0000
0000
2002
0000
0000
0000
,
0000
0000
0000
0000
,
0000
0000
0000
0000
,
0000
0000
0000
0000
,
0000
3003
0000
0000
0000
0000
0000
0000
,
0000
0000
0000
1000
,
0010
1000
0000
0001
,
0010
0100
1000
0100
,
0010
0001
0000
1000
,
1000
0001
0010
0100
,
1000
0001
0000
0100
,
0100
0010
1000
0001
,
1000
0001
0000
1000
,
0100
0010
1001
0010
;

//---------------dance-single - Copied from----------------
#NOTES:
     dance-single:
     Copied from:
     Beginner:
     2:
     0.088751,0.135077,0.009413,0.009413,0.000000,66.000000,65.000000,1.000000,1.000000,0.000000,0.000000,0.088751,0.135077,0.009413,0.009413,0.000000,66.000000,65.000000,1.000000,1.000000,0.000000,0.000000:
0000
0000
0000
0000
,
0000
0000
0000
0000
,
0000
0000
0000
0000
,
0000
0000
0000
1000
,
0000
0010
0000
1000
,
0000
0000
0000
0001
,
0000
0100
0000
0001
,
0000
0000
0000
1000
,
0000
0000
0000
1000
,
0000
0000
0000
0010
,
0000
0000
0000
0010
,
0000
0000
0000
0100
,
0000
0000
0000
0100
,
0000
0000
0000
0001
,
0000
0000
0000
0001
,
0000
0000
0000
1000
,
0000
0000
0000
0010
,
0000
0000
0000
1000
,
0000
0000
0000
0010
,
0000
0000
0000
0100
,
0000
0000
0000
0001
,
0000
0000
0000
0100
,
0000
0000
0000
0001
,
0000
0000
0000
1000
,
0000
0000
0000
0010
,
0000
0000
0000
0100
,
0000
0000
0000
0001
,
0000
0000
0000
1000
,
0000
0000
0000
0010
,
0000
0000
0000
0100
,
0000
0000
0000
0001
,
0000
0000
0000
0000
,
1000
0000
0000
0000
,
0000
0001
0000
0000
,
0000
0000
0000
0000
,
0000
0000
0000
1000
,
0000
0000
0000
0010
,
0000
0000
0000
1000
,
0000
0000
0000
0010
,
0000
0000
0000
0100
,
0000
0000
0000
0001
,
0000
0000
0000
0100
,
0000
0000
0001
0000
,
0000
0000
0000
1000
,
0000
0000
0000
0010
,
0000
0000
0000
1000
,
0000
0000
0000
0010
,
0000
0000
0000
0100
,
0000
0000
0000
0001
,
0000
0000
0000
0100
,
0000
0000
0001
0000
,
0000
0000
0000
1000
,
0000
0000
0000
1000
,
0000
0000
0000
0001
,
0000
0000
0000
0001
,
0000
0000
0000
0100
,
0000
0000
0000
0100
,
0000
0000
0000
0010
,
0000
0000
0020
0000
,
0000
0000
0000
0000
,
0000
0000
0000
0000
,
0000
0000
0000
0000
,
0000
0030
0000
0000
0000
0000
0000
0000
,
0000
0000
0000
1000
,
0000
0000
0000
0001
,
0000
0000
0000
1000
,
0000
0000
0000
0001
,
0000
0000
0000
0100
,
0000
0000
0000
0010
,
0000
0000
0000
0100
,
0000
0000
0000
0010
,
0000
0000
0000
1001
;
