#TITLE:Burning Up;
#SUBTITLE:;
#ARTIST:WHO'S THAT GIRL!;
#TITLETRANSLIT:;
#SUBTITLETRANSLIT:;
#ARTISTTRANSLIT:;
#CREDIT:SupremeX;
#BANNER:Burning Up-bn.png;
#BACKGROUND:Burning Up-bg.png;
#LYRICSPATH:;
#CDTITLE:;
#MUSIC:Burning Up.ogg;
#OFFSET:-1.390;
#SAMPLESTART:51.500;
#SAMPLELENGTH:12.000;
#SELECTABLE:YES;
#BPMS:0.000=138.180;
#STOPS:;
#BGCHANGES:;

//---------------dance-single - ----------------
#NOTES:
     dance-single:
     :
     Hard:
     8:
     0.385,0.465,0.121,0.157,0.000:
0000
0000
0000
0000
,
0000
0000
0000
0000
,
0000
0000
0000
0000
,
0000
2000
0000
0100
,
0000
3020
0000
0100
,
0000
0230
0000
0001
,
0000
0302
0000
1000
,
0000
2003
0000
0010
,
0000
0000
3020
0000
0000
0000
0000
0130
,
0010
0200
0000
0000
0000
0000
0000
0000
,
0000
0000
0000
0000
0000
0000
0300
0001
,
1000
0001
1000
0000
0010
0000
0010
0100
,
0000
0110
0000
0010
1000
0001
1000
0001
,
0100
0020
0000
0000
0130
0000
0001
0010
,
0100
1000
0000
1001
0000
0000
0010
0100
,
0010
0100
0000
0000
0001
0000
0001
1000
,
0100
1000
0000
0010
0100
0010
0100
0000
,
0100
0000
0100
0010
1000
0010
1000
0000
,
0000
0001
0010
0100
1000
0100
0000
0010
,
0001
0010
0100
0000
1000
0000
1000
0100
,
0000
0100
0000
0100
1000
0001
0100
0010
,
1000
0001
2000
0000
3010
0000
0010
1000
,
0000
1000
0000
0001
0010
0100
1000
0001
,
1000
0100
2000
0000
0000
3000
0000
0001
,
0001
0002
0000
0203
0000
0300
0000
0010
,
1000
0010
1000
0000
0001
0000
0001
0100
,
0100
0000
0010
0100
0000
0100
0000
0001
,
1000
0001
1000
0000
0100
0000
0010
0000
,
0100
0000
0010
0000
0100
0000
0000
0001
,
1000
0001
1000
0000
0100
0000
0100
1000
,
0100
0010
0000
0001
1000
0001
0000
1000
,
0100
1000
0100
0000
0010
0000
0001
0010
,
0100
1000
0000
0100
0010
0001
0001
1000
,
0001
1000
0001
0000
0100
0010
0001
0010
,
0100
0010
0000
0001
1000
0001
0000
1000
,
0100
2000
0000
0000
0001
0000
0001
0000
,
0001
0001
0001
3001
,
0100
0100
1000
0000
1000
0000
1000
0000
,
1000
0001
0001
0001
,
0001
0100
0100
0100
,
0100
0010
0010
0010
,
0010
1001
1001
1001
,
1001
0110
0110
0110
,
0110
0000
1000
0001
1000
0001
1000
0001
,
1000
0000
0010
0100
0010
0100
0010
1000
,
0001
1000
1000
0000
0000
0000
0000
0000
;

//---------------dance-single - ----------------
#NOTES:
     dance-single:
     :
     Medium:
     5:
     0.261,0.328,0.024,0.072,0.000:
0000
0000
0000
0000
,
0000
0000
0000
0000
,
0000
0000
0000
0000
,
0000
0020
0000
0000
,
0000
0000
0000
0030
,
0000
2000
0000
0000
,
0000
0000
0000
3000
,
0000
0002
0000
0000
,
0000
0000
0000
0003
,
0000
0200
0000
0000
,
0000
0000
0000
0000
,
0300
0010
1000
0001
,
1000
0010
0100
0001
,
1000
0001
1000
0000
0010
0000
0100
0000
,
0010
0000
1000
0000
0001
0000
1000
0001
,
1000
0001
0000
0000
0100
0000
0010
0000
,
1000
0001
0100
0100
,
0010
0000
1000
0000
0001
1000
0001
0000
,
0100
0010
1000
0001
,
0100
0001
0001
1000
,
1000
0010
0010
0100
,
0100
0000
0001
0000
1000
0000
0010
0100
,
0000
0001
0000
1000
0000
0000
0010
0100
,
0010
0000
0020
0000
0000
0030
0000
1000
,
1000
1000
0000
1000
0000
0000
0000
0000
,
0000
0000
0001
0000
1000
0000
0010
0100
,
0100
0000
0001
0000
0000
1000
0000
0010
,
0100
0010
0100
0000
0100
0000
0100
0000
,
0100
0100
0100
0000
,
1000
0000
1001
0000
1000
0000
0010
0100
,
0010
0100
0000
0100
0000
0100
0000
0001
,
1000
0001
1000
0000
0010
0000
0100
0000
,
0010
0100
0000
0100
0000
0100
0000
0001
,
1000
0001
1000
0000
0010
0000
0100
0010
,
0100
0010
0000
0010
0000
0010
0000
1000
,
1000
2000
0000
0000
0000
0000
0000
0000
,
0000
0000
0000
0000
0000
0000
0000
3000
,
0000
0001
0001
0100
,
0100
0010
0010
1000
,
1000
0001
0001
0100
,
0100
0010
0010
1000
,
1000
0001
1000
0001
,
1000
0010
0100
0010
,
0100
0001
1000
0001
,
1000
0010
0100
0010
,
0100
1001
0000
0000
;

//---------------dance-single - ----------------
#NOTES:
     dance-single:
     :
     Easy:
     3:
     0.202,0.246,0.024,0.097,0.000:
0000
0000
0000
0000
,
0000
0000
0000
0000
,
0000
0000
0000
0000
,
0000
0020
0000
0000
,
0000
0000
0000
0000
0000
0030
0000
0000
,
0000
0200
0000
0000
,
0000
0000
0300
0000
,
0000
0020
0000
0000
,
0000
0000
0000
0000
0000
0030
0000
0000
,
0000
0200
0000
0000
,
0000
0000
0000
0000
0000
0300
0000
0000
,
0000
0001
0000
1000
,
0010
0100
0001
1000
,
0001
1000
0000
0001
,
0000
1000
0010
0100
,
0100
0100
0001
1000
,
0000
0010
0000
0010
0000
0010
0000
0000
,
0000
0000
1000
0001
,
0000
0100
0100
0100
,
0010
1000
0000
0001
,
0000
1000
0000
0001
0000
0000
0000
0000
,
0000
1000
0010
0100
,
0001
1000
1000
0010
,
0100
0000
0002
0000
0000
0003
0000
0000
,
0000
2002
3003
0000
,
0000
0100
0100
0010
,
0010
0000
1000
0000
0000
0001
0000
0000
,
1000
0001
0001
0001
,
0001
0001
0001
0001
,
0000
1001
0000
1000
,
0010
1000
0010
1000
,
0000
0001
0100
0001
,
0100
0001
0000
0000
,
0000
1000
0010
1000
,
0010
1000
0000
0000
,
0000
0020
0000
0000
,
0000
0000
0000
0030
,
0000
0100
0100
0100
,
0100
0100
0100
0100
,
0100
0001
0001
0001
,
0001
0001
0001
0001
,
0001
1000
1000
1000
,
1000
1000
1000
1000
,
1000
0010
0010
0010
,
0010
0010
0010
0010
,
0010
0010
0000
0000
;

//---------------dance-single - Copied from ----------------
#NOTES:
     dance-single:
     Copied from:
     Beginner:
     1:
     0.052,0.055,0.000,0.000,0.000: // measure 1
0000
0000
0000
0000
,  // measure 2
0000
0000
0000
0000
,  // measure 3
0000
0000
0000
0000
,  // measure 4
0000
0010
0000
0000
,  // measure 5
0000
0000
0000
0000
,  // measure 6
0000
0100
0000
0000
,  // measure 7
0000
0000
0000
0000
,  // measure 8
0000
0010
0000
0000
,  // measure 9
0000
0000
0000
0000
,  // measure 10
0000
0100
0000
0000
,  // measure 11
0000
0000
0000
0000
,  // measure 12
0000
0001
0000
0000
,  // measure 13
0000
1000
0000
0000
0000
0000
0000
0000
,  // measure 14
0000
0001
0000
0000
,  // measure 15
0000
1000
0000
0000
0000
0000
0000
0000
,  // measure 16
0000
0001
0000
0000
,  // measure 17
0000
1000
0000
0000
0000
0000
0000
0000
,  // measure 18
0000
0000
0000
0001
,  // measure 19
0000
0000
0000
0000
0000
1000
0000
0000
,  // measure 20
0000
0010
0000
0000
,  // measure 21
0000
0100
0000
0000
0000
0000
0000
0000
,  // measure 22
0000
0010
0000
0000
,  // measure 23
0000
0100
0000
0000
0000
0000
0000
0000
,  // measure 24
0000
0010
0000
0000
,  // measure 25
0000
0100
0000
0000
0000
0000
0000
0000
,  // measure 26
0000
0001
0000
0000
,  // measure 27
0000
1000
0000
0000
,  // measure 28
0000
0001
0000
0000
,  // measure 29
0000
0000
0000
0000
,  // measure 30
0000
0100
0000
0000
,  // measure 31
0000
0000
0000
0000
,  // measure 32
0000
0010
0000
0000
,  // measure 33
0000
0000
0000
0000
,  // measure 34
0000
1000
0000
0000
,  // measure 35
0000
0000
0000
0000
,  // measure 36
0000
0001
0000
0000
,  // measure 37
0000
0000
0000
0000
,  // measure 38
0000
1000
0000
0000
,  // measure 39
0000
0000
0000
0000
,  // measure 40
0000
0001
0000
0000
,  // measure 41
0000
0000
0000
0000
,  // measure 42
0000
1000
0000
0000
,  // measure 43
0000
0000
0000
0000
,  // measure 44
0000
0001
0000
0000
,  // measure 45
0000
0000
0000
0000
,  // measure 46
0000
1000
0000
0000
;
