#TITLE:Bi-Zon Zon Zombi;
#SUBTITLE:;
#ARTIST:MC Natsack;
#TITLETRANSLIT:;
#SUBTITLETRANSLIT:;
#ARTISTTRANSLIT:;
#GENRE:;
#CREDIT:SupremeX;
#BANNER:Bi-Zon Zon Zombi.png;
#BACKGROUND:Bi-Zon Zon Zombi-bg.png;
#LYRICSPATH:;
#CDTITLE:CDTitle.png;
#MUSIC:Bi-Zon Zon Zombi.ogg;
#OFFSET:-0.105482;
#SAMPLESTART:19.190001;
#SAMPLELENGTH:12.000000;
#SELECTABLE:YES;
#BPMS:0.000000=100.000000
;
#STOPS:
;
#BGCHANGES:;
#KEYSOUNDS:;
#ATTACKS:;

//---------------dance-single - ----------------
#NOTES:
     dance-single:
     :
     Beginner:
     2:
     0.092439,0.182922,0.008296,0.000000,0.000000,78.000000,77.000000,1.000000,0.000000,0.000000,0.000000,0.092439,0.182922,0.008296,0.000000,0.000000,78.000000,77.000000,1.000000,0.000000,0.000000,0.000000:
0000
0000
0000
0000
,
0000
0000
0000
0000
,
0000
0000
0000
0000
,
0000
0000
0000
0000
,
1000
0000
0000
0000
,
1000
0000
0000
0000
,
0001
0000
0000
0000
,
0001
0000
0000
0000
,
0010
0000
0000
0000
,
0100
0000
0000
0000
,
0010
0000
0000
0000
,
0100
0000
0000
0000
,
0001
0000
0000
0000
,
1000
0000
0000
0000
,
0001
0000
0000
0000
,
0100
0000
0000
0000
,
1000
0000
0000
0000
,
0010
0000
0000
0000
,
0001
0000
0000
0000
,
1000
0000
1000
0000
,
0100
0000
0000
0000
,
0010
0000
0000
0000
,
0001
0000
0000
0000
,
1000
0100
0010
0001
,
0000
0000
0000
0000
,
0100
0000
0000
0000
,
1000
0000
0000
0000
,
0001
0000
0000
0000
,
0010
0000
0000
0100
,
0000
0000
0010
0000
,
1000
0000
0001
0000
,
1000
0000
0001
0000
,
0100
0010
0100
0010
,
0000
1000
0001
1000
,
0010
0100
0010
0100
,
0001
1000
0001
1000
,
0100
0000
0100
0000
,
0010
0000
0010
0000
,
0001
0000
0001
0000
,
1000
0000
1000
0000
,
0100
0000
0100
0000
,
0010
0000
0010
0000
,
0001
0000
0001
0000
,
0001
0000
1000
0000
,
1000
0000
1000
0000
,
0100
0010
0001
0000
,
1000
0000
1000
0000
,
0001
0000
0001
0000
,
0100
0000
0100
0000
,
0110
0000
0000
0000
;

//---------------dance-single - ----------------
#NOTES:
     dance-single:
     :
     Hard:
     8:
     0.353164,0.386169,0.082958,0.008296,0.008296,298.000000,288.000000,10.000000,1.000000,0.000000,0.000000,0.353164,0.386169,0.082958,0.008296,0.008296,298.000000,288.000000,10.000000,1.000000,0.000000,0.000000:
0000
0000
0000
0000
,
0000
0000
0000
0000
,
0000
0000
0000
0000
,
0000
0000
0000
0000
,
1000
0100
0010
0001
0100
0010
1000
0100
,
0010
0001
0100
0010
1000
0001
0100
0010
,
1000
0001
0100
0010
1000
0001
0100
0000
,
1001
0010
0200
0300
,
0001
0010
0100
1000
0010
0100
0001
0000
,
1000
0100
0010
0001
0100
0010
1000
0000
,
0001
0010
0100
1000
0010
0100
0001
1000
,
0000
0000
0001
0000
1000
0001
1000
0001
,
0100
0010
0100
0010
0100
0001
1000
0000
,
0010
0100
0010
0100
0010
1000
0001
0000
,
0100
0001
0100
0001
1000
0010
1000
0010
,
0000
0000
0100
0000
0010
0100
0010
0000
,
1000
0010
1000
0010
0100
0001
0100
0001
,
1000
0010
1000
0001
1000
0010
1000
0001
,
0100
0010
0100
0010
0100
0001
1000
0010
,
0100
0001
1000
0010
0100
0001
1000
0000
,
0010
0100
0010
1000
0010
0100
0010
0000
,
0100
0001
0100
0010
0100
0001
0100
0010
,
1000
0001
1000
0001
0100
0001
0100
0001
,
1000
0000
0101
0000
1010
0000
0100
0001
,
0000
0000
1000
0000
0010
0000
0100
0001
,
0100
0010
1000
0001
,
1000
0000
0010
0000
0100
0000
0001
1000
,
0001
0000
0000
0010
0000
0000
0100
0000
0000
1000
0000
0000
0000
0000
0001
0000
,
0000
0100
0010
0100
0010
0100
0100
0000
,
0001
1000
0010
0100
0001
1000
1000
0000
,
0010
0000
0100
0000
0001
1000
0001
0000
,
1000
0010
1000
0001
0100
0001
0100
0000
,
0001
0010
0100
1000
0010
0100
0100
0000
,
0001
0010
0100
1000
0010
1000
1000
0000
,
0010
0100
0001
0100
0010
0100
0001
0000
,
1000
0010
1000
0100
1000
0001
0001
0100
,
0000
0001
0100
0010
,
1000
0010
0100
0001
,
0100
0010
1000
0010
,
0100
0001
1000
0001
,
0100
0010
0100
0010
0100
0001
0100
0001
,
1000
0001
1000
0001
1000
0010
1000
0010
,
0100
0010
0100
0010
0100
0001
0100
0001
,
0100
0000
1010
0000
0000
0001
0011
0000
,
1000
0100
0010
0001
0100
0010
1000
0000
,
0001
0010
0100
1000
0010
0100
0001
0000
,
1000
0100
0010
0001
0100
0010
1000
0000
,
1001
0000
1010
0000
0110
0001
0101
0000
,
1000
0100
0010
0001
0100
0010
1000
0001
,
1001
0000
0000
0000
;

//---------------dance-single - ----------------
#NOTES:
     dance-single:
     :
     Medium:
     7:
     0.274946,0.345520,0.049775,0.000000,0.000000,232.000000,226.000000,6.000000,0.000000,0.000000,0.000000,0.274946,0.345520,0.049775,0.000000,0.000000,232.000000,226.000000,6.000000,0.000000,0.000000,0.000000:
0000
0000
0000
0000
,
0000
0000
0000
0000
,
0000
0000
0000
0000
,
0000
0000
0000
0000
,
0001
1000
0001
0100
0010
0100
0001
1000
,
0001
0100
0010
1000
0001
1000
0010
0100
,
0001
1000
0001
0100
0010
1000
0001
0100
,
0010
1000
0001
1000
,
0010
0000
0100
0000
0001
1000
0001
0000
,
0100
0000
0010
0000
1000
0001
1000
0000
,
0010
0000
0100
0000
0001
0100
0001
0000
,
1000
0000
0001
0000
1000
0010
1000
0000
,
0010
0000
0100
0000
0010
1000
0010
0000
,
0100
0000
0010
0000
0100
0001
0100
0000
,
0010
0000
0100
0000
0001
1000
0010
0000
,
0100
0000
0010
0000
0100
0001
0001
0000
,
1000
1000
0001
0001
0100
0100
0010
0000
,
1000
1000
0001
0001
0100
0100
0010
0000
,
1000
0001
0001
0010
0100
0100
1000
0000
,
0010
0000
0100
0000
0001
1000
0001
0000
,
0100
0000
0010
0000
1000
1000
0010
0000
,
0100
0000
0001
0000
0100
0100
0010
0000
,
1000
0000
0001
0000
0010
0010
0100
0000
,
1000
0001
1000
1001
,
0000
0100
0000
0001
,
0001
0100
0000
0010
,
1000
1000
0010
0100
,
0100
0001
1000
0010
,
1000
0000
0001
0000
0100
0010
0100
0000
,
0001
0000
1000
0000
0010
0100
0010
0000
,
0100
0000
0001
0000
0100
0010
1000
0000
,
0001
0000
0100
0000
0010
1000
0010
0000
,
1000
0000
0001
0000
0100
0010
1000
0000
,
0001
0000
0100
0000
0001
1000
0010
0000
,
1000
0000
0001
0000
1000
0010
0100
0000
,
0001
1000
0001
0100
,
0001
1000
0010
1000
,
0010
0100
0010
0101
,
0010
1000
0010
0100
,
0001
0100
0010
1010
,
0100
0000
0001
0000
1000
0010
1000
0000
,
0001
0100
0010
0110
,
1000
0001
1000
0001
,
0100
0000
0001
0000
0000
0010
0110
0000
,
1000
0010
1000
0000
0001
0100
0001
0000
,
1000
0010
0100
0000
0001
0100
0010
0000
,
1000
0001
1000
0000
0001
0100
0010
0000
,
1000
0000
0001
0000
0100
0001
0100
0000
,
0010
0100
0010
0100
,
1001
0000
0000
0000
;

//---------------dance-single - ----------------
#NOTES:
     dance-single:
     :
     Easy:
     4:
     0.218061,0.264221,0.124437,0.008296,0.000000,184.000000,169.000000,15.000000,1.000000,0.000000,0.000000,0.218061,0.264221,0.124437,0.008296,0.000000,184.000000,169.000000,15.000000,1.000000,0.000000,0.000000:
0000
0000
0000
0000
,
0000
0000
0000
0000
,
0000
0000
0000
0000
,
0000
0000
0000
0000
,
0100
0100
0010
0010
,
1000
1000
0001
0001
,
0200
0000
0000
0000
0000
0000
0000
0300
,
1001
0000
0000
0000
,
0010
0100
0010
0100
,
0001
1000
0001
1000
,
0100
0001
0100
0001
,
0010
0000
0100
0000
0010
1000
0010
0000
,
0001
0100
0001
0100
,
1000
0010
1000
0010
,
0001
0100
0001
0100
,
0000
0000
0010
0000
1000
0000
0100
0001
,
0000
0010
0100
0100
,
0001
0010
0010
1000
,
0001
0100
0100
1000
,
0001
1000
0001
1000
,
0100
0001
1000
1000
,
0100
0001
0100
0001
,
1000
0010
1000
1000
,
1001
0110
1001
0110
,
0000
1000
0000
0010
,
0010
0001
0000
0100
,
0100
0010
0000
1000
,
1000
0001
0000
0000
,
0110
0110
0001
0001
,
1000
0001
0100
0010
,
1001
0100
1000
1000
,
0001
0100
0001
0010
,
1010
0100
0100
0001
,
0100
0010
1000
1000
,
0101
0010
0010
0001
,
1000
0100
0001
1001
,
0000
0100
0000
0010
,
0000
0001
1000
0001
,
0100
0010
0100
0100
,
1000
0001
0001
0010
,
0100
0001
0010
0010
,
1000
1000
0100
0000
,
0001
0010
0100
1000
,
1001
0000
0110
0000
0000
0001
0001
0000
,
0100
0000
0010
0000
1000
1000
1000
0000
,
0010
0000
0100
0000
0001
0001
0001
0000
,
0010
0000
0100
0000
1000
1000
1000
0000
,
0100
0000
0010
0000
0001
0001
0001
0000
,
1000
0001
1000
0110
,
1001
0000
0000
0000
;

//---------------dance-single - Copied from----------------
#NOTES:
     dance-single:
     Copied from:
     Challenge:
     9:
     0.543967,0.609741,0.447973,0.016592,0.369163,459.000000,405.000000,54.000000,2.000000,0.000000,0.000000,0.543967,0.609741,0.447973,0.016592,0.369163,459.000000,405.000000,54.000000,2.000000,0.000000,0.000000:
0000
0000
0000
0000
,
0000
0000
0000
0000
,
0000
0000
0000
0000
,
0000
0000
0000
0000
,
1000
0010
1000
0010
1000
0000
0010
0100
0010
0100
0010
0000
0100
0010
0100
0010
,
0100
0001
0100
0001
0100
0000
0010
1000
0010
1000
0010
0000
1000
0001
1000
0001
,
1000
0001
0100
0010
0100
0000
0010
1000
0010
1000
0010
0000
0100
0001
0100
0001
,
0100
0010
1000
0010
1000
0000
0001
0100
0001
0100
0001
0010
0100
1000
0010
0100
,
0001
1000
0010
0100
0001
1000
1010
1000
,
0010
0100
0010
1000
0001
0100
0101
0001
,
0010
0100
1000
0010
0100
0010
1000
1001
,
0000
0000
0010
0000
0100
0000
0001
1000
0001
1000
0010
0100
0001
0000
1001
0000
,
0100
0010
0110
0001
0011
0001
1001
1000
,
1100
0100
0110
0001
0101
0100
1100
0000
,
0001
0101
0010
1010
0101
0010
1001
0000
,
0010
0100
0000
0100
0010
0000
1000
0000
0001
0000
1000
0000
1001
0000
0000
0000
,
0100
0010
0100
0010
0100
0001
1001
0000
,
0010
0100
1000
0010
0100
0001
0101
0000
,
1000
0100
0010
0001
0100
0010
1010
0000
,
0100
0001
0100
0000
0001
0100
0001
1000
0010
1000
0010
0000
1010
0000
0000
0000
,
0100
0001
0100
0010
0100
0001
0100
0010
0100
0001
0100
0010
0100
0000
0000
0000
,
0010
1000
0010
0100
0010
1000
0010
0100
0010
1000
0010
0100
0010
0000
0000
0000
,
1000
0010
1000
0100
1000
0010
1000
0100
1000
0010
1000
0100
1000
0000
0010
0000
,
0011
0001
0011
0100
1100
1000
1100
0000
,
0010
0000
0000
0000
0100
0000
0000
0000
0010
0000
0000
0000
0100
0000
0000
0000
0001
0000
0000
0000
1000
0000
0000
0000
0010
0000
0000
0100
0000
0000
0010
0000
,
0000
0100
0000
0000
0000
0000
0110
0000
0000
0000
0000
0000
0000
0000
0000
0000
0001
0000
0000
0000
1000
0000
0000
0000
1001
0000
0000
0000
0000
0000
0000
0000
,
0010
0000
0000
0000
0100
0000
0000
0000
0010
0000
0000
0000
0100
0000
0000
0000
0010
0000
0000
0000
1000
0000
0001
0000
1000
0000
0000
0001
0000
0000
0100
0000
,
0000
0001
0000
0000
0000
0000
0101
0000
0000
0000
0000
0000
1001
0000
0000
0000
0000
0000
0010
0000
0100
0000
0000
0000
0000
0000
0010
0000
0100
0000
0000
0000
,
0001
1000
0010
0100
0001
1000
1001
0000
,
0010
0100
0001
0100
0010
1000
1010
0000
,
0100
0001
1000
0001
0100
0001
0101
0000
,
0010
1000
0010
0100
0001
1000
0010
1010
,
0110
0100
0001
0010
0100
1000
1001
0000
,
0010
0100
0010
1000
0001
1000
1010
0000
,
0101
0100
0110
0001
1000
0001
1001
0000
,
0010
0100
0010
0110
1000
1100
0110
0011
,
2000
0000
0010
0000
0010
0000
0010
0001
,
3001
0100
0001
1010
,
0002
0000
0100
0000
0100
0000
0100
1000
,
1000
0103
1010
0110
,
0001
0100
0001
0100
0001
0000
1000
0010
1000
0010
1000
0000
0010
0100
0010
0100
,
0010
0100
0001
0100
0001
0000
1000
0010
1000
0010
1000
0000
0010
0100
0010
0000
,
0100
0010
0100
0010
0100
0000
0001
1000
0001
1000
0001
0000
0100
0000
0010
0000
,
1000
0010
0100
0001
1000
0010
0100
0001
1000
0010
0100
0000
1001
0000
0000
0000
,
0100
0101
0010
1010
0100
0101
1000
1001
,
0010
0100
0010
0100
0001
1000
1001
0010
,
0100
1000
0010
0100
0001
1000
0110
0001
,
0100
0001
1000
0010
1000
0001
0110
1000
,
0010
0100
0010
0100
0010
0000
1000
0001
1000
0001
1000
0010
0100
0010
0100
0000
,
1001
0000
0000
0000
;
