#TITLE:Bi-Zon Zon Zombi (More Zombies Ver.);
#SUBTITLE:;
#ARTIST:MC Natsack;
#TITLETRANSLIT:;
#SUBTITLETRANSLIT:;
#ARTISTTRANSLIT:;
#GENRE:;
#CREDIT:SupremeX;
#BANNER:Bi-Zon Zon Zombi (More Zombies Ver)-bn.png;
#BACKGROUND:Bi-Zon Zon Zombi (More Zombies Ver)-bg.png;
#LYRICSPATH:;
#CDTITLE:;
#MUSIC:Bi-Zon Zon Zombi (More Zombies Ver.).ogg;
#OFFSET:-0.121018;
#SAMPLESTART:19.320000;
#SAMPLELENGTH:12.000000;
#SELECTABLE:YES;
#BPMS:0.000000=100.000000
,185.500000=50.000000
,186.000000=40.000000
,186.500000=30.000000
,187.500000=20.000000
,187.750000=12.000000
;
#STOPS:
;
#BGCHANGES:;
#KEYSOUNDS:;
#ATTACKS:;

//---------------dance-single - ----------------
#NOTES:
     dance-single:
     :
     Hard:
     8:
     0.362855,0.393991,0.142507,0.108976,0.033531,303.000000,286.000000,17.000000,13.000000,0.000000,0.000000,0.362855,0.393991,0.142507,0.108976,0.033531,303.000000,286.000000,17.000000,13.000000,0.000000,0.000000:
0000
0000
0000
0000
,
0000
0000
0000
0000
,
0000
0000
0000
0000
,
0000
0000
0000
0000
,
1000
0100
0010
0001
0010
0100
0100
0000
,
1000
0100
0010
0001
0010
0100
0100
0000
,
1000
0001
0100
0010
1000
0001
0001
0000
,
2000
0000
3020
0000
0130
0010
0100
0000
,
0001
0010
0100
1000
0100
0010
0011
0000
,
0100
1000
0100
0010
0100
0010
0110
0000
,
0001
0010
0100
1000
0100
1000
1100
0000
,
0010
0100
0010
0100
0001
1000
0001
0000
,
1000
0100
1000
0010
0100
0010
0110
0000
,
0001
0100
0010
1000
0100
1000
1100
0000
,
0001
0100
0001
0100
0010
0100
0110
0000
,
1010
0000
0101
0000
1001
0000
0100
0100
,
2000
0000
3100
0000
1000
0100
0010
0000
,
0002
0000
1003
0000
0010
0100
0010
0000
,
2000
0000
3100
0000
0010
0001
0010
0000
,
0200
0000
1300
0000
0010
0001
0010
0000
,
0100
0010
0100
0010
1000
0100
0100
0000
,
0010
0001
0010
0100
1000
0010
0010
0000
,
1000
0100
0010
0001
1000
0001
1001
0000
,
0001
0010
0100
1000
0001
0100
0110
0010
,
1000
0001
0100
0001
1000
0100
0100
0000
,
0010
0001
0010
0100
1000
0010
0010
0000
,
0001
0010
0100
1000
0001
0100
0100
0000
,
0001
1000
0010
0100
0001
1000
0001
1001
,
0100
0000
0010
0000
0100
0000
0010
0000
0001
0000
0010
0002
0000
0000
0000
0000
,
0003
0010
0100
0010
0100
1000
0100
0000
,
0010
0000
0001
0000
0010
0000
0100
0000
1000
0000
0100
2000
0000
0000
0000
0000
,
3000
0100
0100
0010
0100
0010
0100
0000
,
0001
0000
0010
0000
0100
0000
1000
0000
0100
0000
0010
0002
0000
0000
0000
0000
,
0013
0001
0010
0100
0010
0001
0010
0000
,
0100
1000
0100
0010
0100
1000
0100
0010
,
1001
0000
0101
0000
0000
1010
1010
0000
,
0200
0000
0310
0000
0100
0001
0100
0000
,
0020
0000
0130
0000
0010
1000
0010
0000
,
2000
0000
3100
0000
1000
0100
0010
0001
,
0001
0000
0010
0100
1000
0100
0010
0000
,
0001
0010
0100
1000
0001
1000
0010
0000
,
0100
0100
0100
0100
0100
0100
0100
0100
,
0020
1000
0100
1030
,
1001
0010
0010
0010
0010
0010
0010
0010
,
1000
0100
0010
0001
0010
0100
0100
0000
,
1000
0100
0010
0001
1000
0001
0001
0000
,
1000
0000
0000
0000
0100
0000
0000
0000
0010
0000
0000
0000
0001
0000
0010
0000
0100
0000
0010
0000
0001
0000
1000
0000
0000
0100
0000
0000
0010
0000
0001
0000
,
1000
0000
0000
0000
;

//---------------dance-single - ----------------
#NOTES:
     dance-single:
     :
     Medium:
     5:
     0.252681,0.275794,0.050297,0.033531,0.008383,211.000000,205.000000,6.000000,4.000000,0.000000,0.000000,0.252681,0.275794,0.050297,0.033531,0.008383,211.000000,205.000000,6.000000,4.000000,0.000000,0.000000:
0000
0000
0000
0000
,
0000
0000
0000
0000
,
0000
0000
0000
0000
,
0000
0000
0000
0000
,
0010
0000
1000
0001
1000
0000
0110
0000
,
0001
0000
1000
0000
0001
1000
0001
0000
,
1000
0000
0010
0000
0100
0001
1001
0000
,
0010
0000
0100
0000
0010
0000
0100
0100
,
0001
0000
1000
0000
0001
0001
1000
0000
,
0010
0000
0100
0000
0001
1000
0001
0000
,
1000
0000
0010
0000
0100
0100
0001
0000
,
1000
0000
0010
0000
0100
0001
1000
0000
,
0010
1000
0010
0000
0100
0001
0100
0000
,
0010
1000
0010
0000
0100
0001
0100
0000
,
0001
1001
0110
1001
,
0100
0000
0010
0000
0100
0000
0010
0010
,
1000
0000
0001
0000
1000
0010
0100
0000
,
0001
0000
1000
0000
0001
0100
0010
0000
,
1000
0000
0001
0000
1000
0010
0100
0000
,
0001
0000
1000
0000
0001
0100
0010
0000
,
1000
0000
0010
0100
0001
0000
0001
0000
,
1000
0000
0001
0100
0010
0000
0010
0000
,
1000
0000
0001
0000
0100
0010
1000
0000
,
0001
0000
0100
0000
0010
1000
0001
0000
,
0100
0000
0001
1000
0010
0000
0100
0000
,
0001
0000
1000
0000
0010
0100
0001
0000
,
1000
0000
0010
0000
0100
0001
1000
0000
,
0010
0000
0100
0000
0001
0000
1000
1000
,
0020
0000
0100
0130
,
0001
1000
0001
1000
,
0200
0010
0310
0001
,
0010
0000
0100
0000
1000
0001
1000
0000
,
0002
0100
0010
0103
,
1000
0000
0010
0000
1000
0010
1000
0000
,
0001
0000
0100
0000
0010
1000
0001
1000
,
0010
0000
0100
0000
0000
0001
0001
0000
,
1000
0000
0010
0000
1000
0001
1000
0000
,
0010
0000
0100
0000
0010
0100
0010
0000
,
0100
0000
0100
0000
0001
1000
0001
0000
,
1000
0000
1000
0000
0010
0100
0010
0000
,
1000
0001
1000
0001
,
1000
0001
1000
0010
,
0100
0010
0100
0000
0010
0100
0010
0000
,
1001
0100
0100
0100
,
0020
0000
0030
0000
,
1000
0000
0001
0000
1000
1000
1000
0000
,
0010
0000
0000
0000
0100
0000
0000
0010
0000
0000
0000
0100
0000
0000
0000
0000
,
0010
0000
0000
0000
;

//---------------dance-single - ----------------
#NOTES:
     dance-single:
     :
     Easy:
     3:
     0.191607,0.236395,0.092211,0.033531,0.004191,160.000000,149.000000,11.000000,4.000000,0.000000,0.000000,0.191607,0.236395,0.092211,0.033531,0.004191,160.000000,149.000000,11.000000,4.000000,0.000000,0.000000:
0000
0000
0000
0000
,
0000
0000
0000
0000
,
0000
0000
0000
0000
,
0000
0000
0000
0000
,
0001
1000
0001
1000
,
0010
0100
0010
0100
,
0001
1000
0001
1000
,
0010
0000
0000
0000
,
1000
0001
1000
0001
,
0100
0010
0100
0010
,
1000
0001
1000
0001
,
0100
0010
0100
0000
,
0001
1000
0001
1000
,
0010
0100
0010
0100
,
0001
1000
0001
1000
,
0010
0100
0010
0100
,
0001
0001
0001
0001
,
1000
1000
1000
1000
,
0001
0001
0001
0001
,
1000
1000
1000
1000
,
0010
0100
0010
0110
,
0001
1000
0001
1001
,
0100
0010
0100
0110
,
1000
0001
1000
1001
,
0010
0100
0010
0110
,
0001
1000
0001
1001
,
0100
0010
0100
0110
,
1000
0001
1000
1001
,
0020
0000
0000
0030
,
0200
0000
0300
0000
,
0002
0000
0000
0003
,
2000
0000
0000
0000
0000
3000
0000
0000
,
0010
0100
0100
0010
,
1000
0001
0001
1000
,
0001
0100
0010
1000
,
0001
0001
0000
1001
,
0010
0010
0100
0100
,
0010
0010
0100
0100
,
1001
0010
0100
0010
,
0100
0001
1000
0001
,
1000
1000
1000
1000
,
0010
0010
0010
0010
,
0100
0100
0100
0100
,
1001
0000
0000
0000
,
0010
0000
0000
0000
,
1000
0001
1000
0001
,
0100
0000
0000
0000
0010
0000
0000
0000
0000
0000
0000
0010
0000
0000
0000
0000
,
0100
0000
0000
0000
;

//---------------dance-single - Copied from----------------
#NOTES:
     dance-single:
     Copied from:
     Beginner:
     2:
     0.050297,0.057841,0.000000,0.000000,0.000000,42.000000,42.000000,0.000000,0.000000,0.000000,0.000000,0.050297,0.057841,0.000000,0.000000,0.000000,42.000000,42.000000,0.000000,0.000000,0.000000,0.000000:
0000
0000
0000
0000
,
0000
0000
0000
0000
,
0000
0000
0000
0000
,
0000
0000
0000
0000
,
0010
0000
0000
0000
,
0100
0000
0000
0000
,
0010
0000
0000
0000
,
0100
0000
0000
0000
,
0001
0000
0000
0000
,
1000
0000
0000
0000
,
0001
0000
0000
0000
,
1000
0000
0000
0000
,
0010
0000
0000
0000
,
0010
0000
0000
0000
,
0100
0000
0000
0000
,
0100
0000
0000
0000
,
0001
0000
0000
0000
,
1000
0000
0000
0000
,
0001
0000
0000
0000
,
1000
0000
0000
0000
,
0001
0000
0000
0000
,
0001
0000
0000
0000
,
0100
0000
0000
0000
,
0100
0000
0000
0000
,
0010
0000
0000
0000
,
0010
0000
0000
0000
,
1000
0000
0000
0000
,
1000
0000
0000
0000
,
0001
0000
0000
0000
,
1000
0000
0000
0000
,
0001
0000
0000
0000
,
1000
0000
0000
0000
,
0010
0000
0000
0000
,
0100
0000
0000
0000
,
0010
0000
0000
0000
,
0100
0000
0000
0000
,
0001
0000
0000
0000
,
1000
0000
0000
0000
,
0001
0000
0000
0000
,
1000
0000
0000
0000
,
0010
0000
0000
0000
,
0000
0000
0000
0000
,
0100
0000
0000
0000
,
0100
0000
0000
0000
,
0001
0000
0000
0000
,
1000
0000
0000
0000
,
1000
0000
0000
0000
;
