#TITLE:Be My Baby;
#SUBTITLE:;
#ARTIST:Nagomu Tamaki;
#TITLETRANSLIT:;
#SUBTITLETRANSLIT:;
#ARTISTTRANSLIT:;
#GENRE:;
#CREDIT:SupremeX;
#BANNER:Be My Baby-bn.png;
#BACKGROUND:Be My Baby-bg.png;
#LYRICSPATH:;
#CDTITLE:;
#MUSIC:Be My Baby.ogg;
#OFFSET:-0.756597;
#SAMPLESTART:49.058998;
#SAMPLELENGTH:12.000000;
#SELECTABLE:YES;
#BPMS:0.000000=125.999992
;
#STOPS:
;
#BGCHANGES:;
#KEYSOUNDS:;
#ATTACKS:;

//---------------dance-single - ----------------
#NOTES:
     dance-single:
     :
     Hard:
     8:
     0.448568,0.541913,0.193700,0.224284,0.127434,308.000000,289.000000,19.000000,22.000000,0.000000,0.000000,0.448568,0.541913,0.193700,0.224284,0.127434,308.000000,289.000000,19.000000,22.000000,0.000000,0.000000:
0000
0000
0000
0000
,
0000
0000
0000
0000
,
0000
0000
0000
0000
,
0000
0000
0000
0000
,
0000
0000
0000
0000
,
0000
1000
0000
0100
0000
2000
0000
3100
,
0000
1000
0100
0010
0100
0010
0000
0001
,
0000
0200
0000
0310
0000
0100
0001
2000
,
0000
3001
0000
0000
1000
0010
0010
0010
,
1000
0001
0000
1000
0100
0020
0000
0031
,
1000
0001
0000
1000
0100
0100
0000
0010
,
0001
0002
0000
0013
0000
0001
1000
0100
,
1000
1000
0000
0100
0000
0010
0001
0010
,
0001
0000
0100
0000
0010
0000
0100
0010
0100
0000
0001
0000
0100
0000
0001
0100
,
0001
0000
1000
0000
0010
0000
1000
0010
1000
0000
0001
0000
0010
0000
0001
0010
,
0001
0010
0100
0010
0001
0010
0100
1000
,
0100
2000
0000
0000
0000
3100
0000
0011
,
0000
0100
0000
1010
0000
0100
0001
0010
,
0100
0000
1000
0000
0100
0000
0100
0000
0000
0000
1000
0000
0010
0000
1000
0010
,
0000
1000
0000
0000
0000
0000
0110
0000
0000
0000
0001
0000
0010
0000
0100
0000
,
0010
0001
0010
0100
0000
1000
0100
0010
,
0001
1100
0000
0110
0000
0001
1000
0001
,
0100
0001
0100
0000
0001
0000
0100
0000
0000
0000
0010
0000
1000
0000
0010
0100
,
0000
0100
0010
0000
0000
0000
0110
0000
0000
0000
0001
0000
0010
0000
0100
0000
,
1000
0200
0000
0320
0000
0032
0000
0013
,
0000
0110
0000
1100
0000
1000
0100
0010
,
0001
0000
1000
0000
0100
0000
1000
0000
0000
0000
0001
0000
0100
0000
0010
0100
,
0000
0100
0010
0000
0000
0000
0110
0000
0000
0000
0001
0000
0010
0000
0100
0000
,
1000
0000
0100
0000
0010
0000
0100
0000
0000
0000
1000
0000
0000
1000
0000
0000
,
0100
1100
0000
0010
0001
0010
0100
0010
,
0001
0010
0001
0000
0010
0000
0100
0000
0100
0000
1000
0000
1000
0000
0100
0010
,
0000
0010
0100
0000
0010
0000
0100
0000
0001
0000
1000
0000
0001
0000
1000
0000
,
0010
0100
0100
0001
0001
2000
0000
3100
,
0000
1000
0000
0100
1000
0100
0010
0001
,
0010
0100
0010
0001
0001
0001
1000
0100
,
0010
0000
0002
0000
0000
0000
0103
0000
0000
0000
0010
0000
1000
0000
0010
0100
,
0000
0100
0010
0000
0000
0000
1001
0000
0000
0000
0100
0000
0010
0000
1000
0000
,
0001
1000
0000
0110
0010
0200
0000
0310
,
0000
0100
0010
1000
0001
0100
0010
1000
,
0001
2000
0000
3001
0000
1000
0001
0002
,
0000
1003
0100
0010
0001
1000
0100
1000
,
0100
0000
1200
0000
0000
1000
0000
0000
1000
0000
0000
1000
0000
0000
1300
0000
,
0010
0000
0120
0000
0000
0100
0000
0000
0100
0000
0000
0100
0000
0000
0130
0000
,
0001
0000
2001
0000
0000
0001
0000
0000
0001
0000
0000
0001
0000
0000
3001
0000
,
1000
0000
1002
0000
0000
1000
0000
0000
1000
0000
0000
1000
0000
0000
1003
0000
,
0010
0100
0010
0100
0001
0010
0100
0010
,
0001
1000
0100
0010
0100
1000
0100
0010
,
0001
1000
0100
0010
0100
1000
0100
0010
,
0001
0220
0000
0330
0000
1001
0000
0220
,
0000
0000
0000
0000
,
0000
0000
0000
0000
0000
0330
0000
0000
;

//---------------dance-single - ----------------
#NOTES:
     dance-single:
     :
     Medium:
     5:
     0.273801,0.363059,0.132531,0.081558,0.000000,188.000000,175.000000,13.000000,8.000000,0.000000,0.000000,0.273801,0.363059,0.132531,0.081558,0.000000,188.000000,175.000000,13.000000,8.000000,0.000000,0.000000:
0000
0000
0000
0000
,
0000
0000
0000
0000
,
0000
0000
0000
0000
,
0000
0000
0000
0000
,
0000
0000
0000
0000
,
0000
1000
0000
0010
0000
0100
0000
0001
,
0000
1000
0000
0010
0000
0100
0000
0001
,
0000
1000
0000
0010
0000
0100
0000
0001
,
0000
0001
0000
0000
0000
1000
0000
1000
,
0000
0010
0000
0100
0000
0010
0000
1000
,
0001
1000
0000
0010
0000
0100
0000
0001
,
1000
0001
0000
0100
0000
0010
0000
1000
,
0010
0100
0000
0001
0000
0100
0000
0010
,
0000
1000
0000
1000
0000
0001
0000
0001
,
0000
1000
0010
1000
0000
0001
0100
0001
,
0000
2000
0000
0000
0000
0000
0000
3000
,
0000
0010
0000
0000
0000
0100
0000
0100
,
0000
0001
0000
1000
0000
0001
1000
0001
,
0000
0100
0000
0010
0000
0100
0010
0100
,
0000
0001
0000
1001
0000
1000
0010
1000
,
0000
0001
0100
0001
0000
1000
0000
0010
,
0000
0110
0000
0101
0000
0010
1000
0010
,
0000
0100
0010
0100
0000
0001
1000
0001
,
0000
0100
0000
0110
0000
0001
0000
0101
,
0000
1000
0000
0010
0000
1000
0000
0010
,
0000
0010
0000
0110
0000
1000
0000
0001
,
0000
0100
0010
0100
0000
0001
0000
1001
,
0000
0010
0000
0110
0000
1000
0000
0001
,
0000
1000
0001
1000
0000
0010
0000
0010
,
0000
0110
0000
0001
0000
1000
0000
0001
,
0100
0001
0000
1000
0000
0010
0000
0100
,
0010
0100
0000
0010
0000
1000
0000
1000
,
0000
0002
0000
0000
0000
0000
0000
0003
,
0000
1000
0000
0010
0000
1000
0000
0001
,
0000
0100
0000
0001
0000
1000
0010
1000
,
0010
0100
0000
0001
0000
0010
0000
0100
,
0000
1000
0000
0000
0000
0001
0000
0001
,
0000
1000
0000
0010
0000
0100
0000
0100
,
0000
0001
0000
1000
0000
0010
0100
0010
,
0000
0100
0000
0100
0000
0001
1000
0001
,
0000
1001
0000
0000
0000
0100
0000
0100
,
0000
0020
0000
0000
0000
0000
0000
0030
,
0000
0200
0000
0000
0000
0000
0000
0300
,
0000
0002
0000
0000
0000
0000
0000
0003
,
0000
2000
0000
0000
0000
0000
0000
3000
,
0000
0010
0000
0100
0000
0010
0100
0010
,
0000
1000
0000
1000
0000
0010
0100
0010
,
0000
1000
0000
0001
0000
1000
0000
0001
,
0000
0110
0000
0000
0000
1001
0000
0220
,
0000
0000
0000
0000
,
0000
0000
0000
0000
0000
0000
0000
0330
;

//---------------dance-single - ----------------
#NOTES:
     dance-single:
     :
     Easy:
     3:
     0.215546,0.225367,0.040779,0.020389,0.000000,148.000000,144.000000,4.000000,2.000000,0.000000,0.000000,0.215546,0.225367,0.040779,0.020389,0.000000,148.000000,144.000000,4.000000,2.000000,0.000000,0.000000:
0000
0000
0000
0000
,
0000
0000
0000
0000
,
0000
0000
0000
0000
,
0000
0000
0000
0000
,
0000
0000
0000
0000
,
0000
0100
0000
0000
0000
0010
0000
0000
,
0000
0100
0000
0000
0000
0010
0000
0000
,
0000
1000
0000
0000
0000
0001
0000
0000
,
0000
1000
0000
0000
0000
0000
0000
0000
,
0000
0010
0000
0100
0000
0010
0000
0100
,
0000
0010
0000
0100
0000
0010
0000
0000
,
0000
1000
0000
0001
0000
1000
0000
0001
,
0000
1000
0000
0000
0000
0000
0000
0000
,
0000
0010
0000
0010
0000
0010
0000
0010
,
0000
0000
0000
0100
0000
0100
0000
0000
,
0000
0001
0000
0001
0000
0001
0000
0001
,
0000
1000
0000
0000
0000
1000
0000
0000
,
0000
0010
0000
0100
0000
0001
0000
0001
,
0000
0100
0000
0000
0000
0010
0000
1000
,
0000
1000
0000
0010
0000
0100
0000
0001
,
0000
0001
0000
0100
0000
0010
0000
1000
,
0000
0010
0000
0100
0000
0100
0000
0100
,
0000
0001
0000
0001
0000
1000
0000
0010
,
0000
1000
0000
0001
0000
0001
0000
0100
,
0000
0100
0000
0000
0000
0010
0000
0010
,
0000
1000
0000
0001
0000
1000
0000
0010
,
0000
0100
0000
0100
0000
0001
0000
1000
,
0000
0001
0000
0001
0000
1000
0000
0010
,
0000
0100
0000
0100
0000
0001
0000
1000
,
0000
0010
0000
0100
0000
0001
0000
1000
,
0000
0010
0000
0010
0000
1000
0000
0010
,
0000
1000
0000
0001
0000
0100
0000
0100
,
0000
0001
0000
0000
0000
1001
0000
0000
,
0000
1000
0000
0010
0000
1000
0000
0001
,
0000
0100
0000
0001
0000
0001
0000
0000
,
0000
1000
0000
0010
0000
0100
0000
0001
,
0000
0001
0000
0000
0000
1000
0000
0000
,
0000
1000
0000
0010
0000
0100
0000
0001
,
0000
1000
0000
0010
0000
0010
0000
0000
,
0000
1000
0000
0001
0000
0100
0000
0010
,
0000
2000
0000
0000
0000
0000
0000
3000
,
0000
0010
0000
0100
0000
0010
0000
0100
,
0000
0010
0000
0010
0000
1000
0000
1000
,
0000
0001
0000
1000
0000
0001
0000
1000
,
0000
0001
0000
0001
0000
0100
0000
0100
,
0000
0010
0000
0010
0000
0010
0000
0010
,
0000
1000
0000
1000
0000
1000
0000
1000
,
0000
0002
0000
0000
0000
0000
0000
0000
,
0003
1001
0000
0000
0000
1001
0000
0000
,
0000
0110
0000
0000
0000
0000
0000
0000
;

//---------------dance-single - Copied from----------------
#NOTES:
     dance-single:
     Copied from:
     Beginner:
     1:
     0.059712,0.074740,0.000000,0.000000,0.000000,41.000000,41.000000,0.000000,0.000000,0.000000,0.000000,0.059712,0.074740,0.000000,0.000000,0.000000,41.000000,41.000000,0.000000,0.000000,0.000000,0.000000:
0000
0000
0000
0000
,
0000
0000
0000
0000
,
0000
0000
0000
0000
,
0000
0000
0000
0000
,
0000
0000
0000
0000
,
0000
0000
0000
0001
0000
0000
0000
0000
,
0000
0000
0000
0000
0000
1000
0000
0000
,
0000
0000
0000
0000
,
0000
0001
0000
0000
0000
0000
0000
0000
,
0000
0100
0000
0000
0000
0000
0000
0000
,
0000
0010
0000
0000
0000
0000
0000
0000
,
0000
0100
0000
0000
0000
0000
0000
0000
,
0000
0010
0000
0000
0000
0000
0000
0000
,
0000
0100
0000
0000
0000
0000
0000
0000
,
0000
0000
0000
0010
0000
0000
0000
0000
,
0000
0100
0000
0000
0000
0000
0000
0000
,
0000
0010
0000
0000
0000
0000
0000
0000
,
0000
1000
0000
0000
0000
0000
0000
0000
,
0000
0000
0000
0000
0000
1000
0000
0000
,
0000
0000
0000
0001
0000
0000
0000
0000
,
0000
0000
0000
0000
0000
0000
0000
0001
,
0000
0000
0000
1000
0000
0000
0000
0000
,
0000
0000
0000
0000
0000
1000
0000
0000
,
0000
0000
0000
0001
0000
0000
0000
0000
,
0000
0000
0000
0000
,
0000
0100
0000
0000
0000
0000
0000
0000
,
0000
0000
0000
0000
0000
0100
0000
0000
,
0000
0000
0000
0000
,
0000
0010
0000
0000
0000
0000
0000
0000
,
0000
0000
0000
0010
0000
0000
0000
0000
,
0000
0000
0000
0000
0000
0010
0000
0000
,
0000
0000
0000
0000
,
0000
0001
0000
0000
0000
0000
0000
0000
,
0000
1000
0000
0000
0000
0000
0000
0000
,
0000
0000
0000
0000
0000
0001
0000
0000
,
0000
1000
0000
0000
0000
0000
0000
0000
,
0000
0001
0000
0000
0000
0000
0000
0000
,
0000
0000
0000
1000
0000
0000
0000
0000
,
0000
0000
0000
0000
0000
0001
0000
0000
,
0000
1000
0000
0000
0000
0000
0000
0000
,
0000
0001
0000
0000
0000
0000
0000
0000
,
0000
0100
0000
0000
0000
0000
0000
0000
,
0000
0010
0000
0000
0000
0000
0000
0000
,
0000
0100
0000
0000
0000
0000
0000
0000
,
0000
0010
0000
0000
0000
0000
0000
0000
,
0000
0100
0000
0000
0000
0000
0000
0000
,
0000
0010
0000
0000
0000
0000
0000
0000
,
0000
0100
0000
0000
0000
0000
0000
0000
,
0000
0010
0000
0000
0000
0000
0000
1000
;
