#TITLE:As I go;
#SUBTITLE:;
#ARTIST:Akira Complex & Slyleaf;
#TITLETRANSLIT:;
#SUBTITLETRANSLIT:;
#ARTISTTRANSLIT:;
#CREDIT:SupremeX;
#BANNER:As I go-bn.png;
#BACKGROUND:As I go-bg.png;
#LYRICSPATH:;
#CDTITLE:;
#MUSIC:As I go.ogg;
#OFFSET:-3.047;
#SAMPLESTART:39.260;
#SAMPLELENGTH:12.000;
#SELECTABLE:YES;
#BPMS:0.000=106.010;
#STOPS:;
#BGCHANGES:;

//---------------dance-single - ----------------
#NOTES:
     dance-single:
     :
     Hard:
     7:
     0.370,0.349,0.241,0.098,0.120: // measure 1
0000
0000
0000
0000
,  // measure 2
0000
0000
0000
0000
,  // measure 3
1000
0010
1000
0001
,  // measure 4
1000
0100
1000
0200
0000
0300
1000
0000
,  // measure 5
0100
0000
0000
0000
0010
0000
0000
0000
0001
0000
0000
0001
0000
0000
0000
0000
,  // measure 6
0100
0000
0010
0000
0100
0010
0000
0220
0000
0000
0000
0000
0330
0000
0000
0000
,  // measure 7
1000
1000
0100
0010
,  // measure 8
0001
0000
0000
1000
0010
0000
1000
0000
0100
0000
0000
0000
0000
0000
0000
0000
,  // measure 9
1000
0000
0001
0100
0001
0000
1000
0001
,  // measure 10
0100
0000
0000
0000
0010
0000
0100
0010
0100
0000
0000
0010
1000
0000
0001
0000
,  // measure 11
0100
0000
0000
0100
0000
0000
0100
0000
0001
0000
0000
1000
0000
0000
1000
0000
,  // measure 12
0001
0000
0000
0010
0000
0000
0100
1000
0100
0000
0000
0010
0000
0001
0010
0001
,  // measure 13
0010
0100
1000
0100
1000
0100
0010
0001
,  // measure 14
0010
0001
0010
0100
0010
0100
0010
1000
,  // measure 15
0001
0100
0001
1000
0001
0100
0010
1000
,  // measure 16
2002
0000
0000
3003
,  // measure 17
0100
0000
0010
0100
0000
0001
1000
0000
,  // measure 18
0110
0000
0000
1100
0000
0000
0110
0000
0000
0000
0001
0000
0100
0000
0000
0000
,  // measure 19
0100
0000
0010
1000
0000
1000
0001
0000
,  // measure 20
0101
0000
0000
1010
0000
0000
0101
0000
0000
0000
1000
0000
0100
0000
1000
0000
,  // measure 21
0100
0000
1000
0100
0000
0100
1000
0000
,  // measure 22
0110
0000
0000
0101
0000
0000
1010
0000
0000
0000
0100
0000
0001
0000
1000
0000
,  // measure 23
0010
0000
0100
0010
0000
1000
0001
0000
,  // measure 24
1100
0000
0000
0110
0000
0000
0022
0000
0000
0000
0000
0000
0033
0000
0000
0000
,  // measure 25
1000
0010
0100
0010
1000
0010
0100
0010
,  // measure 26
1000
0001
1000
0010
0100
0010
1000
0001
,  // measure 27
0100
0000
0010
1000
0010
0100
0001
2002
,  // measure 28
0000
0000
0000
3003
,  // measure 29
1000
0000
0010
0100
0000
0010
0010
0000
,  // measure 30
1100
0000
0000
1001
0000
0000
0101
0000
0010
0000
1000
0000
0001
0000
0100
0000
,  // measure 31
0010
0000
1000
0001
0000
1000
1000
0000
,  // measure 32
0110
0000
0000
1001
0000
0000
0110
0000
0001
0000
1000
0000
0100
0000
1000
0000
,  // measure 33
0001
0000
1000
0010
0000
1000
1000
0000
,  // measure 34
0101
0000
0000
1010
0000
0000
0101
0000
0000
0000
1000
0000
0100
0000
0010
0000
,  // measure 35
0001
0000
0010
0010
0000
1000
0001
0000
,  // measure 36
1100
0000
0000
1001
0000
0000
0101
0000
0000
0000
0010
0000
0100
0000
0010
0000
,  // measure 37
1000
0000
1000
0000
0001
0000
0000
0100
0000
0000
0001
0000
0000
0000
0000
0000
,  // measure 38
1000
0100
0010
0010
0100
1000
0100
0000
,  // measure 39
0010
0001
0010
0000
0100
1000
0001
0000
,  // measure 40
1000
0100
0010
0002
0100
0100
0103
0000
,  // measure 41
0010
1000
0001
0000
1000
0100
1000
0000
,  // measure 42
0001
0010
0100
1000
0001
0100
0010
0000
,  // measure 43
1000
0100
0010
0000
0001
0010
0100
0000
,  // measure 44
1000
0000
0010
0000
0100
0010
0200
0000
0000
0000
0000
0000
0000
0000
0300
0000
,  // measure 45
0010
0000
0000
1000
0000
0000
0001
0000
1000
0000
0000
0010
0000
0000
0100
0000
,  // measure 46
0001
0000
0000
0001
0000
0000
1000
0000
0010
0000
0000
0100
0000
0000
0001
0000
,  // measure 47
1000
0000
0000
0000
;

//---------------dance-single - ----------------
#NOTES:
     dance-single:
     :
     Medium:
     5:
     0.263,0.246,0.089,0.018,0.000:
0000
0000
0000
0000
,
0000
0000
0000
0000
,
0100
0010
0100
0010
,
1000
0000
0001
0001
0000
0000
0000
0000
,
1000
0010
0100
0001
,
1000
0000
0010
0100
0010
0000
1000
0000
,
0001
1000
0010
0100
,
0001
0000
1000
1000
0000
0000
0010
0000
,
0100
0001
1000
0010
,
0100
0000
0001
0000
1000
0001
1000
0000
,
0010
0000
0100
0010
0100
0000
0001
1000
,
0001
1000
0100
1000
,
0001
0000
1000
0010
1000
0000
0001
0100
,
0010
1000
1000
0001
,
0100
0010
1000
0000
0001
0010
0100
0000
,
2002
0000
0000
0000
0000
3003
0000
0000
,
0001
0100
0010
1000
,
0001
0000
1000
0010
0000
0100
0001
0000
,
1000
0001
1000
0100
,
1000
0000
0001
0010
0000
0100
1000
0000
,
0010
0000
0100
0100
0000
0001
0001
0000
,
1000
0000
0010
0100
0000
0001
1000
0000
,
0010
0000
0100
0100
0000
0001
0001
0000
,
1000
0000
0010
0000
1000
1000
1000
0000
,
0001
0100
0010
0100
,
0001
1000
0010
1000
,
0001
0000
1000
0001
1000
0000
0010
0100
,
0010
0000
1000
0001
0100
0000
0000
0000
,
1001
0010
0100
0110
,
0001
0000
1000
0000
0100
0100
1000
0000
,
0001
0101
0010
1010
,
0100
0000
0100
0000
0001
1000
0010
0000
,
0100
0110
0001
1100
,
0010
0000
0001
0001
0000
1000
0001
0000
,
1000
0110
0001
1001
,
0100
0000
0010
1000
0000
0001
0100
0000
,
0010
0010
0010
0000
,
1000
0001
0100
0100
0000
0000
0001
0000
,
1000
0100
1000
0001
,
0100
0010
1000
0000
0001
0000
0010
0000
,
0100
0000
1000
0000
0001
0100
0001
0000
,
1000
0000
0010
0000
0100
0010
0010
0000
,
0100
0000
0001
0000
1000
0100
1000
0000
,
0001
1000
0001
0000
0000
0100
0010
0000
,
1000
0000
0001
0000
,
1000
0000
0001
0000
,
0110
0000
0000
0000
;

//---------------dance-single - ----------------
#NOTES:
     dance-single:
     :
     Easy:
     3:
     0.180,0.185,0.045,0.018,0.000:
0000
0000
0000
0000
,
0000
0000
0000
0000
,
0001
1000
0001
1000
,
0001
0001
0000
0000
,
1000
0001
1000
0000
,
0001
0100
0010
0000
,
1000
1000
0001
0001
,
0100
0010
0000
0000
,
1000
0000
1001
0000
,
0001
0000
1001
0000
,
1000
1000
0010
0010
,
0100
0100
0001
0001
,
1000
0000
0110
0000
,
0001
0000
0110
0000
,
1000
1000
0100
0100
,
0010
0010
0001
0001
,
1000
0000
0000
0001
0000
0000
0000
0000
,
1000
0000
0000
0010
0000
0000
0000
0000
,
0100
0000
0000
0001
0000
0000
0000
0000
,
0100
0010
1000
1000
,
0001
0000
0000
0100
0000
0000
0000
0000
,
0010
0000
0000
1000
0000
0000
0000
0000
,
0001
0000
0000
0100
0000
0000
0000
0000
,
0010
0010
1000
0000
,
0001
0100
0010
0010
,
1000
0001
0100
0100
,
0010
1000
0001
1000
,
0002
0000
0000
0003
,
1000
0010
1000
0010
,
0100
0100
0001
0001
,
1000
0010
1000
0010
,
0100
0100
0001
0001
,
1000
0010
0100
0001
,
1000
1000
0010
0010
,
1000
0010
0100
0001
,
1000
1000
0020
0000
,
1030
0000
0000
0000
,
0001
1000
0001
0001
,
1000
0010
1000
0010
,
0100
0100
0000
0000
,
0001
1000
0001
1000
,
0010
0010
0010
0000
,
0100
0001
1000
0010
,
0100
0100
0000
0000
,
0001
0000
1000
0000
,
0010
0000
0100
0000
,
1001
0000
0000
0000
;

//---------------dance-single - Copied from----------------
#NOTES:
     dance-single:
     Copied from:
     Beginner:
     1:
     0.057,0.082,0.000,0.000,0.000:
0000
0000
0000
0000
,
0000
0000
0000
0000
,
0000
0000
0000
0000
,
0000
0000
0000
0000
,
0001
0000
0000
0000
,
1000
0000
0000
0000
,
0010
0000
0000
0000
,
0100
0000
0000
0000
,
0001
0000
0000
0000
,
0001
0000
0000
0000
,
1000
0000
0000
0000
,
1000
0000
0000
0000
,
0001
0000
0000
0000
,
0001
0000
0000
0000
,
1000
0000
0000
0000
,
1000
0000
0000
0000
,
0010
0000
0000
0000
,
0100
0000
0000
0000
,
0010
0000
0000
0000
,
0100
0000
0000
0000
,
0001
0000
0000
0000
,
0001
0000
0000
0000
,
1000
0000
0000
0000
,
1000
0000
0000
0000
,
0010
0000
0000
0000
,
1000
0000
0000
0000
,
0010
0000
0000
0000
,
0100
0000
0000
0000
,
0001
0000
0000
0000
,
0001
0000
0000
0000
,
1000
0000
0000
0000
,
1000
0000
0000
0000
,
0010
0000
0000
0000
,
0010
0000
0000
0000
,
0100
0000
0000
0000
,
0100
0000
0000
0000
,
0001
0000
0000
0000
,
0001
0000
0000
0000
,
1000
0000
0000
0010
,
0000
1000
0000
0000
,
0001
0000
0000
0000
,
0100
0000
0000
0000
,
0001
0000
0100
0000
,
0001
0000
0000
0000
,
1000
0000
0000
0000
,
1000
0000
0000
0000
,
0010
0000
0000
0000
;
