#TITLE:Amateras;
#SUBTITLE:;
#ARTIST:Sakuzyo;
#TITLETRANSLIT:;
#SUBTITLETRANSLIT:;
#ARTISTTRANSLIT:;
#GENRE:;
#CREDIT:SupremeX;
#BANNER:Amateras.png;
#BACKGROUND:Amateras-bg.png;
#LYRICSPATH:;
#CDTITLE:CDTitle.png;
#MUSIC:Amateras.ogg;
#OFFSET:-1.566190;
#SAMPLESTART:37.480000;
#SAMPLELENGTH:12.000000;
#SELECTABLE:YES;
#BPMS:0.000000=155.000000
;
#STOPS:
;
#BGCHANGES:;
#KEYSOUNDS:;
#ATTACKS:;

//---------------dance-single - ----------------
#NOTES:
     dance-single:
     :
     Challenge:
     9:
     0.569343,0.787556,0.175826,0.368398,0.221876,476.000000,455.000000,21.000000,44.000000,0.000000,0.000000,0.569343,0.787556,0.175826,0.368398,0.221876,476.000000,455.000000,21.000000,44.000000,0.000000,0.000000:
0000
0000
0000
0000
,
0000
0000
0000
0000
,
0000
0000
0000
0000
,
0000
0000
0000
0000
,
1000
0100
0010
0001
0100
0010
1000
0001
,
0010
0100
1000
0010
0100
0001
1000
0010
,
0100
0010
1000
0001
0010
0100
1000
0010
,
0100
0001
0100
0010
1000
0001
1000
0000
,
0010
0100
0010
0001
0010
0100
0010
1000
,
0100
0010
0001
1000
0010
0100
0010
0000
,
1000
0100
1000
0010
0100
0001
0100
0010
,
0100
0001
1000
0010
0100
0010
1000
0000
,
0001
0100
0001
0010
1000
0010
0100
0001
,
1000
0010
0100
0010
1000
0001
0100
0010
,
0100
0001
0010
0100
1000
0001
0100
0001
,
0020
0000
0000
0000
0030
0000
0100
1000
0100
0000
0000
0010
0000
0000
0001
0000
,
1000
0100
1000
0100
0010
0100
0001
0010
,
0100
0000
0000
0000
1000
0000
0100
1000
0100
0000
0000
0010
0000
0000
0001
0000
,
0100
0010
1000
0010
0100
0001
1000
0001
,
0100
0000
0000
0000
0010
0000
0100
0001
0100
0000
0000
0010
0000
0000
1000
0000
,
0010
0000
0100
0000
0001
0000
0100
0010
2000
0000
0000
0000
3000
0000
0010
0100
,
0001
0010
0100
1000
0100
0010
0001
0100
,
0010
1000
0010
1000
0010
0100
0010
0100
0001
0010
0001
0010
0001
0100
0010
0000
,
0100
0010
1000
0000
1001
0000
0100
0010
,
0200
0000
0310
1000
0020
0000
0030
0100
,
0001
0000
0000
1000
0100
1000
0000
0000
0100
0000
0000
0000
0010
0000
0001
0000
,
0020
0000
0000
0000
0030
0000
0100
0000
1000
0000
0000
1000
0100
0000
0000
0100
,
0010
0001
0100
0001
1000
0000
0101
0000
,
1010
0000
0000
0000
0100
0000
0000
0100
0010
0000
0000
0000
0001
0000
0000
0001
,
0010
0000
0000
0000
0100
0000
0000
0100
1000
0000
0000
0000
0001
0000
0010
0000
,
0002
0000
0103
0010
0200
0000
0301
1000
,
0001
0010
0100
1000
1010
0000
0110
0000
,
0002
0000
0013
0100
2000
0000
3000
0100
,
0010
0000
0000
0001
0010
0000
0000
0010
0200
0000
0000
0000
1300
0000
0010
0000
,
2000
0000
0000
0000
3000
0000
0100
0000
0010
0000
0000
0001
0010
0000
0100
0000
,
0010
0001
0010
0100
1000
0000
0110
0000
,
0101
0000
0000
0000
0010
0000
0000
0000
0100
1000
0000
0000
1000
0000
0000
0100
,
0010
0000
0000
0000
0010
0000
0000
0001
0100
0000
0000
0000
0100
0000
0000
0010
,
1000
0000
0000
0000
1000
0000
0000
0100
0010
0000
0000
0000
0001
0000
0000
0001
,
0010
0000
0000
0010
0200
0000
0000
0000
0301
0000
0000
0000
1010
0000
0000
0000
,
1001
0000
0000
0010
0100
0000
0000
0001
,
0010
0000
0000
0010
0000
0000
0100
0000
1000
0000
0000
0100
1000
0000
0010
0000
,
0110
0000
0000
0001
0010
0100
1000
0010
,
0100
0000
0000
0010
1000
0000
0000
1000
0002
0000
0000
0000
0203
0000
0000
0000
,
0320
2030
3002
0203
,
0320
0000
2030
0000
3100
0010
0001
0100
,
0010
0000
1010
0000
1000
0001
0100
0010
,
1000
0010
0100
0001
0100
0000
1001
0000
,
0100
0001
0010
0001
1000
0000
0100
0001
,
0020
0130
2200
3300
,
1000
0010
0100
0010
2000
0000
3001
0100
,
0020
0130
0202
0303
,
0000
1000
0100
0010
0002
0000
0103
0010
,
2000
3010
2020
3030
,
0100
0010
0001
1000
0200
0000
0310
0001
,
2000
3010
0011
0100
,
1000
0000
1000
0000
0010
0100
0001
0100
0001
0000
0000
0000
0010
0000
0010
0000
,
0100
1000
0010
1000
0010
0000
0000
0000
0100
0000
0100
0000
0000
0000
0000
0000
,
0001
0001
0000
0000
1000
1000
0010
0000
,
0010
0000
0100
0001
0200
0000
0310
1000
,
0002
0000
0000
0000
0003
0000
0010
0000
0100
0000
0000
1000
0010
0000
0000
0100
,
0010
0000
0000
0000
0010
0000
1000
0000
0200
0000
0000
0000
0300
0000
0000
0010
,
0001
0000
0000
0001
0100
0000
0010
0000
1000
0000
0010
0000
0001
0000
0100
0000
,
0020
0000
0000
0000
2030
0000
0000
0000
3100
0000
0000
0000
0001
0000
0000
0001
,
0010
0000
0000
0000
0100
0000
0000
0100
1000
0000
0000
0000
0010
0000
0000
0010
,
0100
0000
0000
0000
0001
0000
0000
0001
1000
0000
0100
0000
0010
0000
0001
0000
,
0010
0000
0100
0000
0010
0000
1000
0000
0100
0000
0000
1000
0020
0000
0000
0000
,
0130
0000
0101
0000
1010
0000
0000
0100
,
0100
0000
0000
0000
0000
0000
0001
0000
0010
0000
0000
0100
0000
0000
0100
0000
,
1000
0000
0000
1000
0000
0000
0010
0000
0110
0000
0000
0000
0000
0000
0100
0000
,
0001
0000
0100
0000
0010
0000
1000
0000
0100
0000
0000
0100
0010
0000
0000
0010
,
0001
0101
0020
2030
,
3200
0320
0032
1003
,
0100
0010
0100
0001
0010
0000
0100
0000
,
1000
0100
1000
0010
0100
0001
0100
0010
,
1000
1001
0000
0000
;

//---------------dance-single - ----------------
#NOTES:
     dance-single:
     :
     Hard:
     9:
     0.535852,0.756054,0.092100,0.066981,0.230249,448.000000,437.000000,11.000000,8.000000,0.000000,0.000000,0.535852,0.756054,0.092100,0.066981,0.230249,448.000000,437.000000,11.000000,8.000000,0.000000,0.000000:
0000
0000
0000
0000
,
0000
0000
0000
0000
,
0000
0000
0000
0000
,
0000
0000
0000
0000
,
1000
0010
1000
0000
1000
0010
1000
0000
,
0001
0100
0001
0000
0001
0100
0001
0000
,
0100
0001
0100
0000
0100
0001
0100
0000
,
0010
1000
0010
0000
0010
1000
0010
0000
,
0100
0001
0100
0000
0010
1000
0010
0000
,
0100
0001
0100
0000
0010
1000
0010
0000
,
1000
0100
0010
0000
0001
0100
0010
0000
,
1000
0100
0010
0000
0001
0100
0010
0000
,
0100
0001
0100
0010
0100
0001
0100
0010
,
1000
0001
1000
0010
1000
0001
1000
0010
,
0100
0001
0010
0100
1000
0010
0100
0010
,
2000
0000
0000
0000
3000
0000
0001
1000
0001
0000
0000
0100
0000
0000
0010
0000
,
1000
0001
1000
0001
0100
0010
1000
0001
,
0100
0000
0000
0000
0010
0000
1000
0010
1000
0000
0000
0001
0000
0000
0001
0000
,
1000
0010
1000
0010
0100
0001
0100
0001
,
1000
0000
0000
0000
0001
0000
0100
0001
0100
0000
0000
0010
0000
0000
1000
0000
,
0001
0000
0100
0000
0001
0000
0100
0001
0200
0000
0000
0000
0300
0000
0010
0100
,
0020
0000
0030
1000
0100
0010
0001
0100
,
0010
1000
0010
1000
0010
1000
0010
1000
0010
1000
0010
1000
0010
1000
0010
0000
,
0100
0010
0100
0000
1001
0000
1000
0010
,
1000
0000
0010
0100
0002
0000
0003
0010
,
0100
0000
0000
1000
0010
1000
0000
0000
0010
0000
0000
0000
0100
0000
0010
0000
,
0100
0000
0000
0000
0000
0000
0001
0000
0010
0000
0000
0100
1000
0000
0000
0010
,
1000
0010
0100
0001
1000
0000
0101
0000
,
1000
0000
0000
0000
0010
0000
0000
0010
0100
0000
0000
0000
0001
0000
0000
0001
,
0100
0000
0000
0000
0010
0000
0000
0010
1000
0000
0000
0000
0001
0000
0100
0000
,
0001
0000
1000
0010
0100
0000
0001
0100
,
0001
0010
0100
0010
1000
0000
0100
0000
,
0010
0000
0001
0010
0200
0000
0300
1000
,
0001
0000
0000
0100
0010
0000
0000
0010
0100
0000
0000
0000
0001
0000
1000
0000
,
0200
0000
0000
0000
0300
0000
1000
0000
0001
0000
0000
0100
0010
0000
0100
0000
,
0001
1000
0010
1000
0001
0000
0100
0000
,
1000
0000
0000
0000
0001
0000
0000
0000
1000
0010
0000
0000
0100
0000
0000
0100
,
0001
0000
0000
0000
1000
0000
0000
1000
0100
0000
0000
0000
0010
0000
0000
0010
,
0001
0000
0000
0000
0100
0000
0000
0100
0010
0000
0000
0000
1000
0000
0000
1000
,
0010
0000
0000
0010
0100
0000
0000
0000
0001
0000
0000
0000
1000
0000
0000
0000
,
1001
0000
0000
0010
0100
0000
0000
0001
,
0010
0000
0000
0010
0000
0000
0100
0000
1000
0000
0000
0010
1000
0000
0010
0000
,
0110
0000
0000
0001
0010
0100
1000
0010
,
0100
0000
0000
0010
1000
0000
0000
1000
0001
0000
0000
0000
0100
0000
0000
0000
,
0010
0001
1000
0001
,
0100
0000
0010
0000
1000
0100
0010
0001
,
1000
0000
0010
0000
1000
0001
0010
0100
,
1000
0010
0100
0001
1000
0000
1001
0000
,
0100
0001
0010
0100
1000
0000
0010
1000
,
0010
0100
0110
0000
,
1000
0001
0100
0010
1000
0000
0001
0100
,
0010
1000
1010
0000
,
0000
0100
0010
1000
0001
0000
0100
0010
,
1000
0001
0110
0000
,
0001
1000
0001
0100
0010
0000
1000
0001
,
0100
0010
1001
0000
,
0010
0000
0010
0000
0100
0001
0100
0001
0100
0000
0000
0000
0001
0000
0001
0000
,
1000
0010
1000
0010
1000
0000
0000
0000
0100
0000
0100
0000
0000
0000
0000
0000
,
0010
0010
0000
0000
0001
0001
0100
0000
,
0100
0000
0010
1000
0010
0000
0100
1000
,
0002
0000
0000
0000
0003
0000
0010
0000
0100
0000
0000
1000
0010
0000
0000
1000
,
0010
0000
0000
0000
0100
0000
0010
0000
0200
0000
0000
0000
0300
0000
0000
0010
,
1000
0000
0000
0010
0100
0000
0001
0000
1000
0000
0001
0000
0010
0000
0100
0000
,
1000
0000
0000
0000
0010
0000
0000
0000
0100
0000
0000
0000
0001
0000
0000
0001
,
0100
0000
0000
0000
0010
0000
0000
0100
0010
0000
0000
0000
1000
0000
0000
1000
,
0010
0000
0000
0000
0100
0000
0000
0100
0001
0000
0000
0000
0010
0000
0000
0100
,
1000
0000
0000
0000
0010
0000
0000
0010
0100
0000
0000
0100
0001
0000
0000
0000
,
0010
0000
0100
0000
1001
0000
0000
0100
,
0100
0000
0000
0000
0000
0000
0001
0000
0010
0000
0000
0100
0000
0000
0100
0000
,
1000
0000
0000
1000
0000
0000
0010
0000
0100
0000
0000
0000
0000
0000
0001
0000
,
1000
0000
0100
0000
0010
0000
0001
0000
0100
0000
0000
0100
0010
0000
0000
0010
,
0100
0001
0100
0001
,
1000
0010
1000
0001
,
1000
0100
0010
0001
0100
0000
0001
0000
,
0100
0010
1000
0001
1000
0010
0100
0001
,
1000
1001
0000
0000
;

//---------------dance-single - ----------------
#NOTES:
     dance-single:
     :
     Medium:
     7:
     0.395908,0.504036,0.000000,0.050236,0.138149,331.000000,331.000000,0.000000,6.000000,0.000000,0.000000,0.395908,0.504036,0.000000,0.050236,0.138149,331.000000,331.000000,0.000000,6.000000,0.000000,0.000000:
0000
0000
0000
0000
,
0000
0000
0000
0000
,
0000
0000
0000
0000
,
0000
0000
0000
0000
,
1000
0010
1000
0010
,
0100
0001
0100
0001
,
1000
0010
1000
0010
,
0100
0001
0100
0001
,
1000
0100
0001
0000
0001
0000
0100
0000
,
0010
0100
0001
0000
0001
0000
0100
0000
,
0010
0100
0001
0000
0001
0000
0010
0000
,
1000
0100
0010
0000
0001
0000
1000
0000
,
0001
0010
0100
0000
1000
0000
0001
0000
,
0010
0100
1000
0000
0010
0000
1000
0000
,
0001
0100
0001
0000
1000
0010
1000
0000
,
0200
0000
0000
0300
0020
0000
0000
0030
,
1000
0001
1000
0001
,
0100
0000
0001
0000
0020
0000
0000
0030
,
0001
1000
0001
0001
,
0100
0000
0100
0000
0002
0000
0000
0003
,
1000
0000
0000
0000
0000
0000
0010
0100
0010
0000
0000
0000
0000
0000
1000
0100
,
1000
0000
0000
0001
0100
0001
0100
0001
,
1000
1000
1000
0100
0100
0100
0100
0100
,
0010
0000
0001
0000
1000
0000
1000
0010
,
0100
0001
0002
0003
,
0010
0000
0100
0000
1000
0000
0010
0100
,
0010
0000
0000
0100
0010
0000
1000
0000
,
0010
0100
0001
0100
0001
0000
1000
0000
,
1000
0000
0000
0000
0001
0000
0000
0001
0010
0000
0000
0000
0100
0000
0000
0100
,
1000
0000
0000
0000
0100
0000
0000
0100
0010
0000
0000
0000
0001
0000
0000
0000
,
1000
0000
1000
0000
0001
0000
0100
0001
,
0100
0001
1000
0001
1000
0000
0100
0000
,
0001
1000
0002
0003
,
1000
0000
0000
0010
0100
0000
0000
0010
0100
0000
0000
0000
0001
0000
0000
0000
,
1000
0000
0000
0000
0000
0000
0000
0000
0001
0000
0000
0100
0010
0000
0000
0000
,
1000
0010
1000
0001
,
0100
0000
0000
0000
0001
0000
0000
0000
1000
0010
0000
0000
0010
0000
0000
0010
,
0100
0000
0000
0000
0100
0000
0000
0100
0001
0000
0000
0000
1000
0000
0000
1000
,
0010
0000
0000
0000
0010
0000
0000
0100
0001
0000
0000
0000
0100
0000
0000
0010
,
1000
0000
0000
0010
1000
0000
0000
0000
0001
0000
0000
0000
0100
0000
0000
0000
,
0001
0000
0000
1000
1000
0000
0000
0001
,
0001
0000
0000
0000
0000
0000
0000
0000
1000
0000
0000
1000
0010
0000
1000
0000
,
0010
0000
0000
0100
0100
0000
0000
0001
,
0001
0000
0000
0010
0100
0000
0000
0100
1000
0000
0000
0000
0001
0000
0000
0000
,
1000
0001
0100
0001
,
1000
0010
1000
0001
,
1000
0001
0100
0100
,
0001
1000
0010
1000
0001
0000
0100
0000
,
0010
1000
0010
0100
,
0001
1000
0010
0000
,
0100
0010
1000
0001
,
0100
0001
1000
0000
,
0000
0010
1000
0001
,
0100
0010
1000
0000
,
0001
1000
0001
1000
,
0010
0100
0010
0000
,
0100
0100
0000
0000
0000
0000
0010
0010
,
0000
0000
0000
0000
1000
1000
0000
0000
,
0001
0001
0000
0000
0100
0100
0000
0000
,
0000
0000
0000
0000
0001
0000
1000
0010
,
1000
0000
0000
0000
0000
0000
0010
0000
0100
0000
0000
0100
0010
0000
0000
0100
,
0010
0000
0000
0000
1000
0000
0010
0000
1000
0000
0000
0000
0000
0000
0000
0010
,
1000
0000
0000
0010
1000
0000
0000
0000
0001
0000
0000
0000
0100
0000
0000
0000
,
0001
0000
0000
0000
1000
0000
0000
0000
0001
0000
0000
0000
0100
0000
0000
0100
,
0010
0000
0000
0000
1000
0000
0000
1000
0001
0000
0000
0000
0001
0000
0000
0010
,
0100
0000
0000
0000
1000
0000
0000
1000
0100
0000
0000
0000
0010
0000
0000
0010
,
0001
0000
0000
0000
0001
0000
0000
1000
0010
0000
0000
1000
0010
0000
0000
0000
,
0100
0000
0001
0000
0100
0000
0000
0010
,
0010
0000
0000
0000
0000
0000
1000
0000
1000
0000
0000
1000
0000
0000
0100
0000
,
0010
0000
0000
0010
0000
0000
0001
0000
0001
0000
0000
0000
0000
0000
1000
0000
,
1000
0000
0000
0000
0000
0000
0010
0000
0010
0000
0000
0100
0001
0000
0000
0001
,
0100
0010
1000
0001
,
1000
0001
0100
0100
,
0001
0010
0100
1000
0010
0000
0100
0000
,
0010
0000
1000
0000
0001
0100
0010
0100
,
0010
1000
0000
0000
;

//---------------dance-single - ----------------
#NOTES:
     dance-single:
     :
     Easy:
     4:
     0.288260,0.346525,0.000000,0.033491,0.000000,241.000000,241.000000,0.000000,4.000000,0.000000,0.000000,0.288260,0.346525,0.000000,0.033491,0.000000,241.000000,241.000000,0.000000,4.000000,0.000000,0.000000:
0000
0000
0000
0000
,
0000
0000
0000
0000
,
0000
0000
0000
0000
,
0000
0000
0000
0000
,
1000
1000
0001
0001
,
0100
0100
0010
0010
,
1000
1000
0001
0001
,
0100
0100
0010
0010
,
1000
0001
0001
0001
,
0010
0010
0010
0010
,
0100
0100
0100
0100
,
1000
1000
1000
1000
,
0001
0010
0100
1000
,
0001
0010
0100
1000
,
0001
0100
0010
1000
,
0002
0000
0000
0003
,
1000
1000
0100
0010
,
0001
0001
0010
0100
,
1000
1000
0100
0010
,
0001
0001
0010
0100
,
1000
1000
0001
1000
,
0001
1000
0010
0100
,
0001
0100
0010
1000
,
0200
0000
0000
0300
,
0001
0010
0100
1000
,
0010
0100
0001
1000
,
0010
0000
0100
0100
,
0001
0010
1000
0001
,
0100
1000
0001
0100
,
0010
1000
0010
0100
,
0001
1000
0010
0100
,
0001
0001
0010
0100
,
0001
1000
0100
0000
,
0010
0010
0100
0001
,
0010
0100
0010
0100
,
1000
1000
0001
0100
,
0010
0100
0010
1000
,
0001
0100
0001
1000
,
0001
0100
1000
0001
,
0010
0000
1000
0000
,
0010
0000
0000
0100
0100
0000
0000
0001
,
0001
0000
0000
0000
,
1000
0000
0000
0010
0010
0000
0000
0100
,
0100
0000
0001
0000
,
2000
0000
0000
0000
0000
3000
0000
0000
,
0020
0000
0000
0000
0000
0030
0000
0000
,
0100
0001
0010
0100
,
1000
0010
1000
0010
1000
0000
0000
0000
,
0001
0000
0010
0000
,
0100
0000
1000
0000
,
0100
0000
0010
0000
,
0001
0000
1000
0000
,
0001
0000
0010
0000
,
0100
0000
1000
0000
,
0100
0000
0010
0000
,
0001
0000
1000
0000
,
0010
0010
0000
0000
0000
0000
0100
0100
,
0000
0000
0000
0000
0010
0010
0000
0000
,
0100
0100
0000
0000
0010
0010
0000
0000
,
0000
0000
1000
1000
,
0001
0000
0010
0100
,
1000
0001
0010
0100
,
0100
1000
0001
0100
,
0001
1000
0010
1000
,
0100
0010
0001
1000
,
0100
0001
0010
0001
,
0010
1000
0100
0100
,
0010
0000
0100
0000
0001
0000
0000
1000
,
1000
0000
0010
0000
,
0100
0000
0000
0000
0001
0000
0000
0010
,
0010
0000
0100
0000
,
1000
0000
0001
0010
,
0100
1000
0010
0100
,
0001
1000
0010
0100
,
1000
0000
0010
0000
0001
0100
0001
0100
,
0001
1000
0000
0000
;

//---------------dance-single - Copied from----------------
#NOTES:
     dance-single:
     Copied from:
     Beginner:
     2:
     0.119610,0.156988,0.000000,0.075354,0.000000,100.000000,100.000000,0.000000,9.000000,0.000000,0.000000,0.119610,0.156988,0.000000,0.075354,0.000000,100.000000,100.000000,0.000000,9.000000,0.000000,0.000000:
0000
0000
0000
0000
,
0000
0000
0000
0000
,
0000
0000
0000
0000
,
0000
0000
0000
0000
,
0200
0000
0000
0000
,
0000
0000
0300
0000
,
0020
0000
0000
0000
,
0030
0000
0000
0000
,
0002
0000
0000
0000
,
0000
0000
0000
0000
0000
0003
0000
0000
,
2000
0000
0000
0000
,
0000
0000
0000
3000
,
0020
0000
0000
0000
,
0000
0000
0000
0000
0000
0030
0000
0000
,
0200
0000
0000
0000
0000
0000
0000
0300
,
0001
0000
0000
0000
,
1000
0000
0001
0000
,
1000
0000
0001
0000
,
0100
0000
0010
0000
,
0100
0000
0010
0000
,
1000
0000
0001
0000
,
1000
0000
0001
0000
,
0100
0000
0010
0000
,
0100
0000
0000
0000
,
0010
0000
0000
0000
,
0010
0000
0000
0000
,
0100
0000
0000
0000
,
0100
0000
0000
0000
,
0001
0000
0000
0000
,
0001
0000
0000
0000
,
1000
0000
0000
0000
,
1000
0000
0000
0000
,
0010
0000
0100
0000
,
0010
0000
0100
0000
,
0001
0000
0100
0000
,
0001
0000
0100
0000
,
1000
0000
0001
0000
,
1000
0000
0010
0000
,
1000
0000
0001
0000
,
1000
0000
0000
0000
,
0010
0000
0100
0000
,
0010
0000
0100
0000
,
0001
0000
0001
0000
,
1000
0000
1000
0000
,
0020
0000
0000
0000
,
0000
0000
0000
0030
0000
0000
0000
0000
,
0100
0000
0000
0000
,
0100
0000
0000
1000
,
0000
0000
0000
0000
,
0001
0000
0001
0000
,
0000
0000
0000
0000
,
0100
0000
0100
0000
,
0000
0000
0000
0000
,
1000
0000
1000
0000
,
0000
0000
0000
0000
,
0010
0000
0010
0000
,
0001
0000
0000
0100
,
0000
0000
1000
0000
,
0001
0000
0100
0000
,
0000
0000
1000
0000
,
1000
0000
0010
0000
,
0010
0000
0100
0000
,
0100
0000
0001
0000
,
0001
0000
1000
0000
,
1000
0000
0010
0000
,
0010
0000
0100
0000
,
0100
0000
0001
0000
,
0001
0000
1000
0000
,
0010
0000
0100
0000
,
0001
0000
1000
0000
,
0010
0000
0100
0000
,
0001
0000
2000
0000
,
0000
3000
0000
0000
0200
0000
0000
0000
,
0000
0300
0000
0000
0001
0000
0000
0000
,
0001
0000
0010
0000
,
0010
0000
0000
0000
;
