#TITLE:All You Gotta Do;
#SUBTITLE:;
#ARTIST:Katrina;
#TITLETRANSLIT:;
#SUBTITLETRANSLIT:;
#ARTISTTRANSLIT:;
#CREDIT:SupremeX;
#BANNER:All You Gotta Do-bn.png;
#BACKGROUND:All You Gotta Do-bg.png;
#LYRICSPATH:;
#CDTITLE:;
#MUSIC:All You Gotta Do.ogg;
#OFFSET:-1.816;
#SAMPLESTART:14.280;
#SAMPLELENGTH:12.000;
#SELECTABLE:YES;
#BPMS:0.000=153.420;
#STOPS:;
#BGCHANGES:;

//---------------dance-single - ----------------
#NOTES:
     dance-single:
     :
     Hard:
     8:
     0.496,0.445,0.165,0.114,0.051:
1000
0100
1000
1000
0001
0100
0000
0001
,
0001
1000
0100
0010
0100
0010
0001
0000
,
1000
0100
1000
1000
0001
0100
0000
0001
,
0001
1000
0100
0010
0100
0010
0001
0000
,
1000
0100
1000
0001
0100
0001
0000
1000
,
1000
0001
0100
0010
1000
0001
0100
0000
,
0001
0100
0001
1000
0100
1000
0000
0001
,
0001
1000
0010
0100
0001
1000
0010
0000
,
0100
0000
0000
0100
0000
0000
0100
0000
0000
0000
0000
0000
0001
0000
0001
0000
,
0000
0000
1000
0000
0100
0000
0000
0000
0000
0001
0000
0000
0001
0000
0000
0000
,
1000
0000
0000
1000
0000
0000
1000
0000
0000
0000
0000
0000
0001
0000
0001
0000
,
0000
0000
0010
0000
0100
0000
0000
0000
1000
0000
0000
1000
0000
0000
0000
0000
,
0010
0000
0000
0010
0000
0000
0010
0000
0000
0000
0000
0000
1000
0000
1000
0000
,
0000
0000
0100
0000
0010
0000
0000
0000
0001
0000
0000
0001
0000
0000
0000
0000
,
0100
0000
0000
0100
0000
0000
0100
0000
0000
0000
0000
0000
0010
0000
0010
0000
,
0000
0000
0100
0000
0010
0000
0000
0000
1000
0000
0000
1000
0000
0000
0001
0000
,
0100
0001
0000
1000
0000
1000
0000
0100
,
0010
0100
0010
0000
0001
0100
0001
0000
,
1000
0100
0000
0100
0000
1000
0100
0000
,
1100
0110
0011
1100
,
0010
0100
0000
0100
0000
0010
0100
0001
,
1000
0010
0100
0001
0000
1000
1000
0000
,
0001
0000
1000
0000
0010
0100
0000
0100
,
0000
0001
0002
0000
0000
0000
0000
0003
,
2002
0000
0000
3003
,
0100
0100
0000
0010
0000
0100
0010
0100
,
0010
0000
1000
1000
0000
0001
0100
0001
,
0100
0000
1010
0000
0001
0100
0000
0100
,
0000
0010
1000
0010
1000
0000
0100
0000
,
1000
0200
0000
1300
0000
0100
0010
0100
,
0010
0020
0000
0031
0000
0010
0100
0010
,
0100
0000
1001
0000
0010
0010
0000
0100
,
0000
0100
0010
0100
0010
0000
1001
0000
,
0100
0100
0000
0110
0000
0010
0100
0010
,
0100
0100
0000
1001
0000
0010
0010
0100
,
0010
0000
0010
0000
1000
0100
0000
0100
,
0000
1000
0001
1000
0001
0000
0110
0000
,
1000
0200
0000
1300
0000
0100
0010
0100
,
0010
0002
0000
0013
0000
0100
1000
0100
,
1000
0000
0001
0000
1000
1000
0000
0010
,
0000
0100
0010
0100
0010
0000
1001
0000
,
1000
0100
1000
0001
0100
0001
1000
1000
,
0001
0010
0100
1000
0100
0010
0001
0000
,
1000
0100
1000
0001
0100
0001
0000
1000
,
1000
0100
0010
0001
0010
0100
1000
0000
,
2002
0000
0000
0000
,
0000
0000
0000
3003
;

//---------------dance-single - ----------------
#NOTES:
     dance-single:
     :
     Medium:
     5:
     0.376,0.347,0.038,0.025,0.000:
0000
0000
0000
0000
,
0000
0000
0000
0000
,
0000
0000
0000
0000
,
0000
0000
0000
0000
,
1000
0100
1000
0100
1000
0000
0000
0000
,
0001
0000
0001
0000
1000
0001
1000
0000
,
0001
0010
0001
0010
0001
0000
0000
0000
,
1000
0001
1000
0000
0010
0000
0100
0000
,
0001
1000
0001
1000
0000
0000
0010
0000
,
0010
0010
0100
0100
,
0001
1000
0001
1000
0000
0000
0100
0000
,
0100
0100
0010
0010
,
0001
0100
0001
0100
0001
0000
0100
0000
,
0100
0100
0010
0010
,
1000
0010
1000
0010
1000
0000
0001
0000
,
0001
0001
1000
1000
,
0010
0100
0000
0100
0000
0010
0000
0100
,
0001
1000
0001
0000
1000
0000
1000
0000
,
0001
0001
0000
1000
0000
1000
0100
0000
,
1001
0001
1001
1000
,
0001
0001
0000
0100
0000
0100
0000
0010
,
1000
0010
1000
0010
0000
0000
1000
0000
,
0001
0000
1000
0000
0100
0100
0000
1000
,
0000
1000
0010
0000
0010
0000
0100
0000
,
2002
0000
0000
3003
,
0100
0100
0000
0010
0000
0100
0001
0100
,
0001
0000
0000
1000
0000
0010
1000
0010
,
1000
0000
0100
0000
0100
1000
0000
1000
,
0000
0001
0100
0001
,
1000
1000
0000
0010
0000
0000
1000
0000
,
0001
0001
0000
1000
0000
0010
0100
0010
,
1000
0000
1000
0000
0010
0100
0000
0100
,
0000
0001
1000
0001
1000
0000
0010
0000
,
0100
0100
0000
0001
0000
1000
0100
1000
,
0100
0100
0000
1000
0000
0010
0100
0010
,
0100
0000
0100
0000
0001
1000
0000
1000
,
0000
0010
0100
0001
0100
0000
0010
0000
,
1000
1000
0000
0001
0000
0100
0010
0100
,
0010
0100
0000
0001
0000
0000
1000
0100
,
1000
0000
1000
0000
0010
0100
0000
0100
,
0000
0010
1000
0010
0100
0000
0001
0000
,
1000
0001
1000
0001
1000
0000
0000
0000
,
0010
0100
0010
0100
,
0001
1000
0001
1000
0001
0000
0000
0000
,
0100
0010
0100
0010
,
1000
0001
1000
0001
1000
0000
0000
0000
;

//---------------dance-single - ----------------
#NOTES:
     dance-single:
     :
     Easy:
     2:
     0.221,0.238,0.000,0.013,0.000:
0000
0000
0000
0000
,
0000
0000
0000
0000
,
0000
0000
0000
0000
,
0000
0000
0000
0000
,
1000
0000
0000
0001
0000
0000
0000
0000
,
1000
0001
0100
0010
,
1000
0000
0000
0001
0000
0000
0000
0000
,
1000
0001
0100
0010
,
1000
1000
1000
0000
,
0001
0000
0100
0010
,
1000
1000
1000
0000
,
0001
0000
0100
0010
,
1000
0000
1000
0000
1000
0000
0000
0001
,
0000
0000
0100
0100
,
0001
0000
0001
0000
0001
0000
0000
1000
,
0000
0010
1000
1000
,
0001
0000
0000
0100
0000
0000
0000
0000
,
0010
0010
0000
0000
,
1000
0000
0000
0001
0000
0000
0000
0000
,
0100
0010
0100
0010
,
1000
0000
0000
0001
0000
0000
0000
0000
,
0100
0100
0100
0000
,
0001
0000
0000
0000
1000
0000
0000
0010
,
0000
0100
0000
0000
,
0002
0000
0000
0003
,
1000
0000
0000
0010
0000
0000
0000
0000
,
1000
0000
0000
1000
0000
0000
0001
0000
,
0100
0000
0010
0000
0100
0000
0000
0001
,
0000
0000
1000
1000
,
0010
0000
0000
0100
0000
0000
0000
0000
,
0010
0000
0000
0100
0000
0000
0000
0000
,
0001
0001
0001
0000
,
1000
0010
0100
0001
,
1000
0000
0000
0010
0000
0000
0000
0000
,
1000
0000
0000
1000
0000
0000
0000
0000
,
0001
0001
0001
0000
,
0100
0010
0100
0000
,
0001
0000
0000
0001
0000
0000
0000
0000
,
1000
0000
0000
1000
0000
0000
0000
0000
,
0010
0100
0010
0000
,
0100
0100
0001
0001
,
1000
1000
1000
0000
,
0001
0001
0001
0001
,
0100
0100
0100
0000
,
0010
0010
0010
0010
,
1000
1000
1000
0000
,
0001
0001
0001
0001
;

//---------------dance-single - Copied from ----------------
#NOTES:
     dance-single:
     Copied from:
     Beginner:
     1:
     0.071,0.117,0.000,0.013,0.000: // measure 1
0000
0000
0000
0000
,  // measure 2
0000
0000
0000
0000
,  // measure 3
0000
0000
0000
0000
,  // measure 4
0000
0000
0000
0000
,  // measure 5
0100
0000
0000
0000
,  // measure 6
0010
0000
0000
0000
,  // measure 7
0100
0000
0000
0000
,  // measure 8
0010
0000
0000
0000
,  // measure 9
1000
0000
0000
0000
,  // measure 10
0000
0000
1000
0000
,  // measure 11
1000
0000
0000
0000
,  // measure 12
0000
0000
1000
0000
,  // measure 13
1000
0000
0000
0000
,  // measure 14
0000
0000
0000
0000
,  // measure 15
1000
0000
0000
0000
0000
0000
0000
1000
,  // measure 16
0000
0000
0000
0000
,  // measure 17
0001
0000
0000
0000
,  // measure 18
0001
0000
0000
0000
,  // measure 19
0001
0000
0000
0000
,  // measure 20
0100
0000
0100
0000
,  // measure 21
0100
0000
0000
0000
,  // measure 22
0010
0000
0000
0000
,  // measure 23
0100
0000
0000
0000
,  // measure 24
0000
0000
0000
0000
,  // measure 25
0020
0000
0000
0030
,  // measure 26
1000
0000
0000
0000
,  // measure 27
1000
0000
0000
0000
,  // measure 28
1000
0000
0000
0000
,  // measure 29
0000
0000
0000
0000
,  // measure 30
0001
0000
0000
0000
,  // measure 31
0001
0000
0000
0000
,  // measure 32
0001
0000
0000
0000
,  // measure 33
0000
0000
0000
0000
,  // measure 34
0100
0000
0000
0000
,  // measure 35
0100
0000
0000
0000
,  // measure 36
0100
0000
0000
0000
,  // measure 37
0000
0000
0000
0000
,  // measure 38
0010
0000
0000
0000
,  // measure 39
0010
0000
0000
0000
,  // measure 40
0010
0000
0000
0000
,  // measure 41
0000
0000
0000
0000
,  // measure 42
1000
0000
0000
0000
,  // measure 43
0001
0000
0000
0000
,  // measure 44
1000
0000
0000
0000
,  // measure 45
0001
0000
0000
0000
,  // measure 46
1000
0000
0000
0000
,  // measure 47
0001
0000
0000
0000
;
