#TITLE:AKATSUKI;
#SUBTITLE:;
#ARTIST:NAOKI Underground;
#TITLETRANSLIT:;
#SUBTITLETRANSLIT:;
#ARTISTTRANSLIT:;
#GENRE:;
#CREDIT:SupremeX;
#BANNER:AKATSUKI.png;
#BACKGROUND:AKATSUKI-bg.png;
#LYRICSPATH:;
#CDTITLE:;
#MUSIC:AKATSUKI.ogg;
#OFFSET:-0.053584;
#SAMPLESTART:13.700000;
#SAMPLELENGTH:12.000000;
#SELECTABLE:YES;
#BPMS:0.000000=140.000000
;
#STOPS:
;
#BGCHANGES:;
#KEYSOUNDS:;
#ATTACKS:;

//---------------dance-single - ----------------
#NOTES:
     dance-single:
     :
     Beginner:
     1:
     0.093919,0.142920,0.000000,0.000000,0.000000,69.000000,69.000000,0.000000,0.000000,0.000000,0.000000,0.093919,0.142920,0.000000,0.000000,0.000000,69.000000,69.000000,0.000000,0.000000,0.000000,0.000000:
0000
0000
0000
0000
,
0000
0000
0000
0000
,
0000
0000
0000
0000
,
0000
0000
0000
0000
,
1000
0000
0000
0000
,
0001
0000
0000
0000
,
1000
0000
0000
0000
,
0001
0000
0000
0000
,
0100
0000
0000
0000
,
0100
0000
0000
0000
,
0010
0000
0000
0000
,
0010
0000
0000
0000
,
1000
0000
0000
0000
,
1000
0000
0000
0000
,
0001
0000
0000
0000
,
0001
0000
0000
0000
,
1000
0000
0010
0000
,
1000
0000
0010
0000
,
1000
0000
0010
0000
,
1000
0000
0000
0000
,
0001
0000
0100
0000
,
0001
0000
0100
0000
,
0001
0000
0100
0000
,
0001
0000
0000
0000
,
1000
0000
0100
0000
,
1000
0000
0100
0000
,
0001
0000
0010
0000
,
0001
0000
0010
0000
,
0100
0000
0001
0000
,
0000
0100
0000
0000
,
0001
0000
1000
0000
,
0000
0000
0000
0000
,
0010
0000
0000
0000
,
0100
0000
0000
0000
,
0010
0000
0000
0000
,
0000
0100
0000
0000
,
0001
0000
0000
0000
,
1000
0000
0000
0000
,
0001
0000
0000
0000
,
0001
0000
0000
0000
,
1000
0000
0000
0000
,
0100
0000
0000
0000
,
0100
0000
0000
0000
,
0100
0000
0000
0000
,
0010
0000
0000
0000
,
0000
0000
0000
0000
,
1000
0000
0000
0000
,
0000
0000
0000
0000
,
0001
0000
0000
0000
,
0000
0000
0000
0000
,
0010
0000
0000
0000
,
0000
0000
0000
0000
,
1000
0000
0001
0000
,
1000
0000
0000
0000
,
0001
0000
1000
0000
,
0001
0000
0000
0000
,
0100
0000
0010
0000
,
0100
0000
0000
0000
,
0010
0000
0100
0000
,
0010
0000
1000
0000
,
0001
0000
0000
0000
;

//---------------dance-single - ----------------
#NOTES:
     dance-single:
     :
     Easy:
     3:
     0.212338,0.257256,0.047640,0.066696,0.023820,156.000000,151.000000,5.000000,7.000000,0.000000,0.000000,0.212338,0.257256,0.047640,0.066696,0.023820,156.000000,151.000000,5.000000,7.000000,0.000000,0.000000:
0000
0000
0000
0000
,
0000
0000
0000
0000
,
0000
0000
0000
0000
,
0000
0000
0000
0000
,
0010
0000
1000
0000
,
0001
0000
0100
0000
,
0010
0000
1000
0000
,
0001
0000
0000
0000
,
1000
1000
1000
1000
,
0001
0001
0001
0001
,
0000
0010
0010
0010
,
0000
0100
0100
0100
,
0000
0001
1000
0001
,
0000
1000
0001
1000
,
0000
0010
0100
0010
,
0000
0100
0010
0100
,
0001
1000
0001
1000
,
0001
1000
0010
1000
,
0010
1000
0001
1000
,
0001
0000
0000
0000
,
0100
0010
0100
0010
,
0100
1000
0100
1000
,
0100
0001
0100
0001
,
0100
0001
0001
0001
,
1000
0000
0110
0000
,
1000
0000
0011
0000
,
0100
0000
1100
0000
,
0010
0000
0011
0000
,
1000
1000
1000
1000
,
1000
0100
0100
0100
,
0100
0010
0010
0010
,
0010
0001
0001
0001
,
1000
0001
1000
1000
,
0001
1000
0001
0001
,
1000
0001
1000
1000
,
0001
1000
0001
0001
,
0200
0000
0300
0000
,
0020
0000
0000
0000
0000
0030
0000
0000
,
0002
0000
0000
0003
,
2000
0000
0000
0000
0000
3000
0000
0000
,
0002
0000
0000
0000
0000
0003
0000
0000
,
0200
0000
0000
0000
0000
0300
0000
0000
,
0020
0000
0000
0000
0000
0030
0000
0000
,
1000
0001
1000
0001
,
0100
0100
0100
0000
,
0001
0000
0001
0000
,
0010
0010
0010
0000
,
1000
0000
1000
0000
,
0100
0010
0100
0000
,
0001
0000
0001
0000
,
0010
0100
0010
0000
,
1000
1000
1000
0000
,
0001
0000
0001
0000
,
0100
0000
0100
0000
,
0010
0000
0000
1000
,
0000
1000
0000
1000
,
0000
0000
0000
0100
0000
0000
0000
0000
0000
0000
0000
0000
0010
0000
0000
0000
,
0000
0010
0000
0000
,
0001
0000
0000
0001
0000
0000
0000
0000
0000
0000
0000
0100
0000
0000
0000
0000
,
0000
0000
0000
0010
0000
0000
0000
0000
0000
0000
0000
0100
0000
0000
0000
0000
,
1001
0000
0000
0000
;

//---------------dance-single - Copied from----------------
#NOTES:
     dance-single:
     Copied from:
     Medium:
     5:
     0.322590,0.428759,0.047640,0.000000,0.100044,237.000000,232.000000,5.000000,0.000000,0.000000,0.000000,0.322590,0.428759,0.047640,0.000000,0.100044,237.000000,232.000000,5.000000,0.000000,0.000000,0.000000:
0000
0000
0000
0000
,
0000
0000
0000
0000
,
0000
0000
0000
0000
,
0000
0000
0000
0000
,
1000
0000
1000
0000
0010
1000
0010
0000
,
0100
0000
0100
0000
0001
0100
0001
0000
,
0100
0000
0001
0000
1000
0010
1000
0000
,
0010
0000
0100
0000
0001
0100
0001
0000
,
1000
0000
0001
0000
1000
1000
1000
0000
,
0001
0000
1000
0000
0001
0001
0001
0000
,
0100
0000
0010
0000
0100
0100
0100
0000
,
0010
0000
0100
0000
0010
0010
0010
0000
,
1000
0000
0001
0000
1000
1000
1000
0000
,
0001
0000
1000
0000
0001
0001
0001
0000
,
0100
0000
0010
0000
0100
0100
0100
0000
,
0010
0000
0100
0000
0010
0010
0010
0000
,
1000
0001
1000
0010
,
1000
0001
1000
0010
,
1000
0001
0100
0001
,
1000
0001
0100
0000
,
0010
0100
0001
0100
0010
0100
0001
0000
,
0010
1000
0100
1000
0010
1000
0100
0000
,
0001
0100
0010
0100
0001
0100
0010
0000
,
1000
0000
0001
0000
1000
1000
1000
0000
,
0001
0000
0000
0000
0010
0000
0000
0000
0100
0000
0000
0100
0000
0000
0100
0000
,
0000
0000
0000
0000
0100
0000
0000
0000
0010
0000
0000
0010
0000
0000
0010
0000
,
0000
0000
0000
0000
0010
0000
0000
0000
0001
0000
0000
0001
0000
0000
0001
0000
,
0000
0000
0000
0000
0001
0000
0000
0000
1000
0000
0000
1000
0000
0000
1000
0000
,
0000
0000
0000
0000
1000
0000
0000
0000
0010
0000
0000
0100
0000
0000
0010
0000
,
0000
0000
0000
0000
0100
0000
0000
0000
0001
0000
0000
0100
0000
0000
0001
0000
,
0000
0000
0000
0000
0010
0000
0000
0000
0100
0000
0000
0010
0000
0000
0100
0000
,
0001
0000
0000
1000
0000
0000
0001
0000
0000
1000
0000
0000
0010
0000
0010
0000
,
0100
0000
0001
0000
1000
0010
1000
0000
,
0001
0000
0100
0000
0001
0100
0001
0000
,
1000
0000
0010
0000
0100
0001
0100
0000
,
0010
0000
1000
0000
0001
0100
0001
0000
,
1000
1000
1000
1000
,
0001
0001
0001
0001
,
0100
0100
0100
0100
,
0010
0010
0010
0010
,
1000
0100
0010
0001
,
1000
0100
0010
0001
,
1000
0100
0010
0001
,
0100
0001
0100
0001
,
1000
0000
0100
0001
0100
0000
0000
0000
,
0010
0000
0100
0000
,
0001
0000
1000
0010
1000
0000
0000
0000
,
0010
0000
0100
0000
,
0001
0100
0010
0100
0001
0000
0000
0000
,
1000
0000
0010
0000
,
1000
0001
0100
0001
1000
0000
0000
0000
,
0100
0000
0010
0000
,
1001
0000
0000
0000
0000
0000
0000
0000
0000
0000
0000
0001
0000
0000
0000
0000
,
0000
0000
0000
1000
0000
0000
0000
0000
0000
0000
0000
0001
0000
0000
0000
0000
,
1001
0000
0000
0000
0000
0000
0000
0000
0000
0000
0000
1000
0000
0000
0000
0000
,
0000
0000
0000
0001
0000
0000
0000
0000
0000
0000
0000
1000
0000
0000
0000
0000
,
1001
0000
0000
0000
0000
0000
0000
0000
0000
0000
0000
0100
0000
0000
0000
0000
,
0000
0000
0000
0010
0000
0000
0000
0000
0000
0000
0000
0100
0000
0000
0000
0000
,
0110
0000
0000
0000
0000
0000
0000
0000
0000
0000
0000
0010
0000
0000
0000
0000
,
0000
0000
0000
0100
0000
0000
0000
0000
0000
0000
0000
0010
0000
0000
0010
0000
,
0110
0000
0000
0000
;

//---------------dance-single - Copied from----------------
#NOTES:
     dance-single:
     Copied from:
     Hard:
     7:
     0.413787,0.485927,0.076224,0.104808,0.181032,304.000000,296.000000,8.000000,11.000000,0.000000,0.000000,0.413787,0.485927,0.076224,0.104808,0.181032,304.000000,296.000000,8.000000,11.000000,0.000000,0.000000:
0000
0000
0000
0000
,
0000
0000
0000
0000
,
0000
0000
0000
0000
,
0000
0000
0000
0000
,
1000
1000
1000
0000
0010
1000
0010
0000
,
0100
0100
0100
0000
0001
1000
0001
0000
,
0010
0010
0010
0000
1000
0010
0100
0000
,
0001
0001
0001
0000
1000
0010
1000
0000
,
0001
1000
0001
1000
0010
0100
0010
0000
,
1000
0100
0010
0001
0100
0001
1000
0000
,
0001
0100
0001
1000
0001
0100
0010
0000
,
1000
0010
1000
0001
1000
0010
0100
0000
,
0001
0010
0100
1000
0010
1000
0001
0000
,
1000
0100
0010
0001
0100
0001
1000
0000
,
0001
1000
0010
0100
0001
1000
0010
0100
,
0000
0001
1000
0010
0100
0001
1000
0000
,
0001
0100
0010
1000
,
0001
0100
0001
1000
,
0010
1000
0001
0100
,
0010
1000
0001
1000
,
0010
0100
0000
0000
0100
0001
0000
0000
0001
0100
0000
0000
0100
0010
0000
0000
,
0010
1000
0000
0000
1000
0010
0000
0000
0010
0100
0000
0000
0100
0001
0000
0000
,
0001
1000
0000
0000
1000
0010
0000
0000
0010
0100
0000
0000
0100
0001
0000
0000
,
0001
1000
0000
0000
0010
0000
1000
0000
0010
0000
1000
0000
0001
0000
0100
0000
,
0001
0000
0000
0000
0100
0000
0000
0000
0020
0000
0000
0100
0000
0000
0130
0000
,
0000
0000
0000
0000
0001
0000
0000
0000
0200
0000
0000
0010
0000
0000
0310
0000
,
0000
0000
0000
0000
1000
0000
0000
0000
0002
0000
0000
0100
0000
0000
0103
0000
,
0000
0000
0000
0000
0001
0000
0000
0000
2000
0000
0000
0010
0000
0000
3010
0000
,
0000
0000
0000
0000
1000
0000
0000
0000
0001
0000
0000
0100
0000
0000
0001
0000
,
0000
0000
0000
0000
1000
0000
0000
0000
0010
0000
0000
1000
0000
0000
0010
0000
,
0000
0000
0000
0000
0100
0000
0000
0000
0001
0000
0000
0100
0000
0000
0001
0000
,
1000
0000
0000
0010
0000
0000
1000
0000
0000
0001
0000
0000
0100
0000
0100
0000
,
0010
0000
0100
0000
0001
0010
0100
1000
,
0010
0000
0100
0000
0001
0100
0010
1000
,
0001
0000
0100
0000
0001
0010
0100
1000
,
0010
0000
0100
0000
0001
0100
0010
1000
,
0001
0100
0001
0100
0010
1000
0010
0000
,
1000
0010
1000
0010
0100
0001
0100
0000
,
0001
0010
0100
1000
0010
0100
0001
0000
,
1000
1010
0001
1001
,
0020
0100
0130
0000
,
2000
0010
3010
0000
,
0200
0000
0301
0000
0001
0000
1000
0100
,
0010
0001
0100
0010
0100
0010
1000
0000
,
0001
0010
0100
1000
0020
0000
0100
0000
,
0100
0100
0100
0130
,
0001
1000
0001
1000
0001
0000
0100
0010
,
0200
0010
0010
0310
,
1000
0001
0100
0001
0020
0000
0001
0000
,
0001
0000
0001
0000
0031
0000
1000
0001
,
0100
0010
1000
0001
0100
0010
1000
0001
,
2000
0100
0100
3100
,
0001
0000
0000
1001
0000
0000
0000
0000
0000
0000
0000
0010
0000
0000
0000
0000
,
0000
0000
0000
0101
0000
0000
0000
0000
0000
0000
0000
1000
0000
0000
0000
0000
,
0001
0000
0000
0110
0000
0000
0000
0000
0000
0000
0000
1000
0000
0000
0000
0000
,
0000
0000
0000
1001
0000
0000
0000
0000
0000
0000
0000
1000
0000
0000
0000
0000
,
0001
0000
0000
1001
0000
0000
0000
0000
0000
0000
0000
0100
0000
0000
0000
0000
,
0000
0000
0000
0010
0000
0000
0000
0000
0000
0000
0000
0001
0000
0000
0000
0000
,
0110
0000
0000
1000
0000
0000
0000
0000
0000
0000
0000
0001
0000
0000
0000
0000
,
0000
0000
0000
0100
0000
0000
0000
0000
0000
0000
0000
0001
0000
0000
1000
0000
,
0001
0000
0000
0000
;
