#TITLE:ZOMBIE;
#SUBTITLE:;
#ARTIST:A.D.A.M. Feat. Amy;
#TITLETRANSLIT:;
#SUBTITLETRANSLIT:;
#ARTISTTRANSLIT:;
#GENRE:;
#CREDIT:SupremeX;
#BANNER:Zombie.png;
#BACKGROUND:Zombie-bg.png;
#LYRICSPATH:;
#CDTITLE:CDTitle.png;
#MUSIC:Zombie.ogg;
#OFFSET:0.058881;
#SAMPLESTART:67.110001;
#SAMPLELENGTH:12.000000;
#SELECTABLE:YES;
#BPMS:0.000000=135.000000
;
#STOPS:
;
#BGCHANGES:8.000=ZOMBIE.avi=1.000=0=0=1=====,
232.000=Zombie-bg.png=1.000=0=0=1=====,
99999=-nosongbg-=1.000=0=0=0 // don't automatically add -songbackground-
;
#KEYSOUNDS:;
#ATTACKS:;

//---------------dance-single - ----------------
#NOTES:
     dance-single:
     :
     Hard:
     7:
     0.354882,0.450257,0.155261,0.109596,0.031966,272.000000,255.000000,17.000000,12.000000,0.000000,0.000000,0.354882,0.450257,0.155261,0.109596,0.031966,272.000000,255.000000,17.000000,12.000000,0.000000,0.000000:
0000
0000
0000
0000
,
0000
0000
0000
0000
,
0001
0000
0000
0000
0100
0000
0000
0000
0010
0000
0000
0010
0000
0000
0000
0000
,
1000
0000
0000
0000
0010
0000
0000
0000
0100
0000
0000
0100
0000
0000
0000
0000
,
0001
0010
0100
1000
0010
0000
0100
0010
,
0000
1000
0010
0000
0101
0000
1001
0000
,
0100
0000
0000
0000
0010
0000
0000
0000
1000
0000
0000
1000
0000
0000
0000
0000
,
0100
0000
0010
0000
0100
0000
0000
0000
0001
0000
0000
0001
0000
0000
0000
0000
,
1000
0100
0010
0001
0100
0000
0010
1000
,
0000
0001
0100
0010
1000
0000
0101
0000
,
1000
0000
0001
0100
0000
0000
0010
1000
,
0010
0000
0100
0001
0000
1000
0000
1001
,
0000
0001
0000
0101
0000
0010
0000
1010
,
0000
0101
0000
1010
0000
0001
0010
0100
,
2000
0000
0000
3001
0000
0000
1000
0010
,
0200
0000
0000
0301
0000
1000
0001
1000
,
0000
0010
0100
0010
0000
1000
0010
0100
,
0000
0001
0000
0100
0000
0010
0000
1000
,
0000
0001
0000
0100
0000
0010
0000
1000
,
0000
0001
0000
0100
0000
0001
1000
0020
,
0000
0000
0000
0000
0000
0030
0000
0000
,
0200
0000
0000
0300
,
0001
0100
0001
1000
,
0100
0000
1000
0000
0001
0000
0000
0100
,
0000
0010
0000
0100
0000
0000
0000
0001
,
0001
0000
0000
0000
,
0000
0000
1000
0100
0000
0010
0000
0001
,
0000
0100
0000
0001
0000
1000
0000
0100
,
0000
1000
0000
0010
0000
0000
0100
0001
,
0010
0000
0000
0000
0000
0100
1000
0100
,
0000
0001
0100
0001
0000
1000
1000
1000
,
0000
0001
0001
0001
0000
1000
0010
0100
,
0000
0001
0010
0100
0000
1000
0010
1000
,
0200
0000
0300
0000
0000
0010
0001
0010
,
0000
1000
0010
1000
0000
0001
0100
0010
,
0000
1000
0100
0010
0000
0001
0001
0001
,
0000
0100
0100
0100
0000
0001
1000
0010
,
0200
0000
0000
0000
0000
0300
0001
0000
,
2000
0000
0000
3001
0000
0000
0010
0100
,
0020
0000
0000
1030
0000
0100
0010
0001
,
0000
1000
0010
0100
0000
0001
0010
0100
,
0000
1000
0000
1001
0000
0010
0100
0001
,
2000
0000
0000
3010
0000
0000
0001
0010
,
0200
0000
0000
1300
0000
0001
0000
0101
,
0000
0001
0000
1001
0000
1000
0000
1100
,
0000
0110
0000
0011
0000
1010
0000
0001
,
0100
0001
1000
0010
1000
0001
0100
0001
,
1000
0010
1000
0001
0100
0001
1000
0020
,
0000
0000
0000
0030
,
2000
0000
0000
0000
0000
3000
0000
0000
,
0010
0000
0000
0000
1000
0000
0000
0000
0001
0000
0000
0100
0000
0000
0000
0000
,
0001
0000
0010
0000
0001
0000
0000
0000
1000
0000
0000
1000
0000
0000
0000
0000
,
0001
0010
0100
1000
0010
0000
0100
0010
,
0000
1000
0100
0010
0001
0000
1000
0000
,
0010
0000
0000
0000
0100
0000
0000
0000
0001
0000
0000
0001
0000
0000
0000
0000
,
1000
0010
0100
0000
0001
0100
0010
0000
,
1000
0100
1000
0010
0100
0000
0001
1000
,
0000
0001
0010
0100
1000
0000
1100
0000
,
1001
0000
0000
0000
;

//---------------dance-single - ----------------
#NOTES:
     dance-single:
     :
     Medium:
     5:
     0.250505,0.317829,0.009133,0.082197,0.013700,192.000000,191.000000,1.000000,9.000000,0.000000,0.000000,0.250505,0.317829,0.009133,0.082197,0.013700,192.000000,191.000000,1.000000,9.000000,0.000000,0.000000:
0000
0000
0000
0000
,
0000
0000
0000
0000
,
0001
0100
0010
0000
,
1000
0010
0100
0000
,
0001
0100
0010
1000
,
0000
0010
1000
0001
,
0100
0010
1000
0000
,
0100
0010
0001
0000
,
1000
0010
0100
0001
,
0000
0100
1000
0010
,
1000
0000
0001
0100
0000
0000
0010
0000
,
1000
0000
0001
0100
0000
0010
0000
1000
,
0000
0001
0000
0100
0000
0010
0000
1000
,
0000
0001
0000
1000
0000
0000
0010
0000
,
0200
0000
0000
0301
0000
0000
0000
0100
,
0020
0000
0000
1030
0000
0010
0000
1000
,
0000
0001
0000
0100
0000
0010
0000
1000
,
0000
0100
0000
0010
0000
0001
0000
0100
,
0000
0001
0000
1000
0000
0010
0000
1000
,
0000
0001
0000
0100
0000
0001
0000
0200
,
0000
0000
0000
0000
0000
0300
0000
0000
,
0001
0000
0000
0000
,
0010
0100
0001
1000
,
0010
0000
0100
0000
0001
0000
0000
1000
,
0000
0010
0000
1000
0000
0000
0010
0000
,
0100
0000
0000
0000
,
0000
0000
0001
0100
0000
0010
0000
1000
,
0000
0001
0000
0100
0000
0010
0000
1000
,
0000
0001
0000
0100
0000
0000
0010
1000
,
0010
0000
0000
0000
0000
1000
0000
1000
,
0000
0010
0000
0010
0000
0100
0000
0100
,
0000
0001
0000
0001
0000
0100
0000
0010
,
0000
0100
0000
0010
0000
1000
0000
0001
,
0000
0000
0000
0000
0000
1000
0000
1000
,
0000
0010
0000
0010
0000
0100
0000
0100
,
0000
0001
0000
0001
0000
1000
0000
0010
,
0000
0100
0000
0001
0000
1000
0000
0001
,
0000
0000
0000
0000
,
2000
0000
0000
3010
0000
0000
0000
0000
,
0200
0000
0000
0301
0000
0100
0000
0001
,
0000
1000
0000
0010
0000
0100
0000
0001
,
0000
1000
0000
1000
0000
0010
0000
0100
,
0020
0000
0000
1030
0000
0000
0000
0000
,
0200
0000
0000
0301
0000
0100
0000
0001
,
0000
1000
0000
0010
0000
0100
0000
0001
,
0000
0001
0000
1000
0000
1000
0000
0010
,
0000
0010
0000
0010
0000
0010
0000
0100
,
0000
0100
0000
0100
0000
0100
0000
0002
,
0000
0000
0000
0003
,
2000
0000
0000
0000
0000
3000
0000
0000
,
0010
0000
0000
0000
0100
0000
0000
0000
0001
0000
0000
0001
0000
0000
0000
0000
,
0100
0000
0000
0000
0010
0000
0000
0000
1000
0000
0000
1000
0000
0000
0000
0000
,
0001
0000
0100
0000
0010
0000
1000
0010
,
0000
0100
0001
0100
,
0010
0000
0000
0000
1000
0000
0000
0000
0001
0000
0000
0001
0000
0000
0000
0000
,
1000
0010
0001
0100
,
0010
0000
0010
1000
0100
0000
0010
0100
,
0000
0001
0000
0100
0010
0000
1000
0000
,
1001
0000
0000
0000
;

//---------------dance-single - ----------------
#NOTES:
     dance-single:
     :
     Easy:
     3:
     0.194403,0.238371,0.000000,0.100463,0.000000,149.000000,149.000000,0.000000,11.000000,0.000000,0.000000,0.194403,0.238371,0.000000,0.100463,0.000000,149.000000,149.000000,0.000000,11.000000,0.000000,0.000000:
0000
0000
0000
0000
,
0000
0000
0000
0000
,
0010
0000
0100
0100
,
0001
0000
1000
1000
,
0010
0000
0100
0000
0010
0000
0000
1000
,
0000
0001
0100
0001
,
1000
0000
0010
0010
,
0100
0000
0001
0001
,
1000
0010
0100
0001
,
0000
0010
0100
0001
,
2000
0000
3000
0010
,
0200
0000
0000
0300
0000
0001
0000
0001
,
0000
1000
0000
1000
0000
0010
0000
0100
,
0000
0010
0000
0100
0000
0000
0001
0000
,
0200
0000
0000
0300
0000
0000
0010
0000
,
0002
0000
0000
0003
0000
1000
0000
0010
,
0000
1000
0000
0010
0000
0100
0000
0001
,
0000
0001
0000
0001
0000
0001
0000
0100
,
0000
0100
0000
0100
0000
0100
0000
0100
,
0000
0100
0000
0100
0000
0010
0000
0020
,
0000
0000
0000
0000
,
0000
0000
0000
0030
,
1000
0100
0010
0001
,
1000
0100
0010
0001
,
1000
0000
0100
0000
0000
0000
0000
0001
,
0000
0000
0000
0000
,
0001
0010
0100
1000
,
0001
0010
0100
1000
,
0001
0000
0010
0000
0000
0000
0000
1000
,
0000
0000
0000
0100
,
0000
0000
0010
0000
0000
0000
0000
0100
,
0000
0000
0000
0001
0000
0000
0000
1000
,
0000
0000
0000
0010
0000
0100
0000
0010
,
0000
0000
0000
0000
0000
0000
0000
0001
,
0000
0000
0000
1000
0000
0000
0000
0010
,
0000
0000
0000
0100
0000
0001
0000
1000
,
0000
0001
0000
1000
0000
0010
0000
0100
,
0000
0000
0000
0000
,
0002
0000
0003
0000
,
2000
0000
0000
3000
0000
0000
0000
0010
,
0000
0000
0000
0100
0000
0000
0000
0010
,
0000
0100
0000
0010
0000
0000
0000
0000
,
2000
0000
0000
3000
0000
0000
0000
0000
,
0002
0000
0000
0003
0000
0000
0000
0100
,
0000
0000
0000
0010
0000
0000
0000
0100
,
0000
0010
0000
0100
0000
0010
0000
1000
,
0000
0001
0000
1000
0000
0001
0000
1000
,
0000
0001
0000
1000
0000
0000
0000
0020
,
0000
0000
0000
0000
0000
0030
0000
0000
,
0200
0000
0000
0000
0000
0300
0000
0000
,
0010
0000
1000
0010
,
0100
0001
1000
1000
,
0001
0010
0100
1000
,
0000
0010
0100
0001
,
1000
0000
0010
0000
,
0100
0000
0001
0000
,
0100
0010
1000
0001
,
0000
0100
0010
1000
,
0001
0000
0000
0000
;

//---------------dance-single - Copied from----------------
#NOTES:
     dance-single:
     Copied from:
     Beginner:
     1:
     0.039141,0.079457,0.000000,0.000000,0.000000,30.000000,30.000000,0.000000,0.000000,0.000000,0.000000,0.039141,0.079457,0.000000,0.000000,0.000000,30.000000,30.000000,0.000000,0.000000,0.000000,0.000000:
0000
0000
0000
0000
,
0000
0000
0000
0000
,
0001
0000
0000
0000
,
0100
0000
0000
0000
,
0001
0000
0000
0000
,
0000
0000
0000
0000
,
1000
0000
0000
0000
,
0010
0000
0000
0000
,
1000
0000
0000
0000
,
0000
0000
0000
0000
,
0001
0000
0000
0000
,
0100
0000
0000
0000
,
0000
0000
0000
0000
,
0000
0000
0000
0000
,
1000
0000
0000
0000
,
0010
0000
0000
0000
,
0000
0000
0000
0000
,
0000
0000
0000
0000
,
0001
0000
0000
0000
,
0000
0000
0000
0000
,
0000
0000
0000
0000
,
0000
0000
0000
0000
,
0100
0000
0000
0000
,
0000
0000
0000
0000
,
0010
0000
0000
0000
,
0000
0000
0000
0000
,
0001
0000
0000
0000
,
0000
0000
0000
0000
,
0000
0000
0000
0000
,
1000
0000
0000
0000
,
0000
0000
0000
0000
,
0000
0000
0000
0000
0000
0001
0000
0000
,
0000
0001
0000
0000
0000
0000
0000
0000
,
0000
0000
0000
0000
,
0000
0000
0000
0000
,
0000
0000
0000
0000
0000
0100
0000
0000
,
0000
0100
0000
0000
0000
0000
0000
0000
,
0000
0000
0000
0000
,
0010
0000
0000
0000
,
0010
0000
0000
0000
,
0000
0000
0000
0000
,
0000
0000
0000
0000
,
1000
0000
0000
0000
,
1000
0000
0000
0000
,
0000
0000
0000
0000
,
0000
0000
0000
0000
,
0001
0000
0000
0000
,
0000
0000
0000
0000
,
0000
0000
0000
0000
,
0100
0000
0000
0000
,
0010
0000
0000
0000
,
0000
0000
0000
0000
,
1000
0000
0000
0000
,
0000
0000
0000
0000
,
0010
0000
0000
0000
,
0000
0000
0000
0000
,
0001
0000
0000
0000
,
0000
0000
0000
0000
,
0100
0000
0000
0000
;
