#TITLE:YUME;
#SUBTITLE:;
#ARTIST:徒然なる操り霧幻庵;
#TITLETRANSLIT:;
#SUBTITLETRANSLIT:;
#ARTISTTRANSLIT:Tsurezurenaru Ayatsuri Mugenan;
#GENRE:;
#CREDIT:SupremeX;
#BANNER:YUME.png;
#BACKGROUND:YUME-bg.png;
#LYRICSPATH:;
#CDTITLE:CDTitle.png;
#MUSIC:YUME.ogg;
#OFFSET:-2.406319;
#SAMPLESTART:58.840000;
#SAMPLELENGTH:12.000000;
#SELECTABLE:YES;
#BPMS:0.000000=155.000000
;
#STOPS:
;
#BGCHANGES:14.000=smoke.avi=1.000=0=0=1=====,
21.000=blizzard3.avi=1.000=0=0=1=====,
30.000=ninja4.avi=1.000=0=0=1=====,
38.000=ninja5.avi=1.000=0=0=1=====,
46.000=YU2.avi=1.000=0=0=1=====,
78.000=smoke.avi=1.000=0=0=1=====,
92.000=sphere4.avi=1.000=0=0=1=====,
108.000=blizzard3.avi=1.000=0=0=1=====,
126.000=smoke.avi=1.000=0=0=1=====,
141.000=YUME-bg.png=1.000=0=0=1=====,
146.000=YU.avi=1.000=0=0=1=====,
194.000=sphere4.avi=1.000=0=0=1=====,
210.000=ninja4.avi=1.000=0=0=1=====,
217.500=ninja5.avi=1.000=0=0=1=====,
226.000=smoke.avi=1.000=0=0=1=====,
239.500=YUME-bg.png=1.000=0=0=1=====,
99999=-nosongbg-=1.000=0=0=0 // don't automatically add -songbackground-
;
#KEYSOUNDS:;
#ATTACKS:;

//---------------dance-single - ----------------
#NOTES:
     dance-single:
     :
     Beginner:
     2:
     0.117429,0.149114,0.000000,0.060147,0.000000,82.000000,82.000000,0.000000,6.000000,0.000000,0.000000,0.117429,0.149114,0.000000,0.060147,0.000000,82.000000,82.000000,0.000000,6.000000,0.000000,0.000000:
0000
0000
0000
0000
,
0000
0000
0000
0000
,
0001
0000
0000
0000
,
0000
0000
1000
0000
,
0000
0000
0010
0000
,
0001
0000
0100
0000
,
1000
0000
0001
0000
,
0100
0000
0001
0000
,
0001
0000
1000
0000
,
1000
0000
0001
0000
,
0001
0000
0100
0000
,
0000
0000
0010
0000
,
0010
0000
0100
0000
,
1000
0000
0000
0000
,
0010
0000
0000
0000
,
0000
0000
0010
0000
,
0000
0000
1000
0000
,
0000
0000
0001
0000
,
0100
0000
0010
0000
,
1000
0000
0001
0000
,
0100
0000
0010
0000
,
1000
0000
0001
0000
,
0001
0000
0000
0000
,
0100
0000
0010
0000
,
0100
0000
1000
0000
,
0100
0000
0001
0000
,
0100
0000
0010
0000
,
0000
0000
1000
0000
,
1000
0000
0100
0000
,
0100
0000
0010
0000
,
0010
0000
0001
0000
,
0001
0000
0100
0000
,
0100
0000
0010
0000
,
0010
0000
2000
0000
,
0000
3000
0000
0000
0020
0000
0000
0000
,
0000
0000
0030
0000
,
0000
0000
0000
0000
,
0100
0000
0100
0000
,
0000
0000
0001
0000
,
0001
0000
0000
0000
,
0000
0000
1000
0000
,
1000
0000
0100
0000
,
0000
0000
0000
0020
0000
0000
0000
0000
,
0000
0000
0000
0000
0000
0030
0000
0000
,
0000
0000
0001
0000
,
0001
0000
0100
0000
,
0010
0000
2000
0000
,
0000
3000
0000
0000
0000
0000
0000
0000
,
0000
0000
0100
0000
,
0010
0000
0100
0000
,
1000
0000
0002
0000
,
0000
0000
0003
0000
,
0000
0000
1000
0000
,
0100
0000
0010
0000
,
0000
0000
0000
2000
0000
0000
0000
0000
,
0000
0000
0000
0000
0000
0000
0000
3000
,
0000
0000
0000
0001
,
0000
0001
0000
0100
,
0000
0000
1000
0000
,
1000
0000
0010
0000
;

//---------------dance-single - ----------------
#NOTES:
     dance-single:
     :
     Easy:
     3:
     0.148935,0.210075,0.010024,0.220538,0.005012,104.000000,103.000000,1.000000,22.000000,0.000000,0.000000,0.148935,0.210075,0.010024,0.220538,0.005012,104.000000,103.000000,1.000000,22.000000,0.000000,0.000000:
0000
0000
0000
0000
,
0000
0000
0002
0000
,
0000
0000
0000
0003
0000
0000
0000
0000
,
0000
0000
1000
0000
,
0000
0000
0100
0000
,
0001
0000
0000
0000
0000
0020
0000
0000
,
0000
0000
0000
0030
,
0000
0000
1000
1000
,
1000
0000
0100
0100
,
0100
0000
0001
0001
,
0001
0000
0000
0000
0020
0000
0000
0030
,
0000
0000
1000
0000
,
0001
0000
1000
0000
,
0010
0000
0000
0000
0100
0000
0000
0002
,
0000
0000
0000
0000
0000
0003
0000
0000
,
1000
1000
0010
0000
,
0100
0100
0001
0000
,
0010
0000
0002
0000
,
0000
0000
0003
0000
,
0000
0010
0200
0000
,
0000
0000
0300
0000
,
0001
0000
0000
0000
1000
0000
0000
0020
,
0000
0000
0000
0030
,
0100
0100
1000
0000
,
0010
0010
0001
0000
,
0100
0000
0000
0000
0010
0000
0000
0000
0100
0000
0000
0000
0000
0000
0000
0100
,
0000
0000
0000
0000
,
1000
0001
2000
0000
,
3000
0001
0100
0000
,
0001
1000
0020
0000
,
0030
0100
0001
0000
,
0100
0000
1000
0000
0020
0000
0000
0030
,
0200
0000
0000
0300
0002
0000
0000
0003
,
2000
0000
0000
3000
0200
0000
0000
0000
,
0300
0000
0000
0002
0000
0000
0000
0000
,
0000
0000
0000
0003
0000
0000
0000
0000
,
0000
0000
2000
0000
,
3000
0000
0010
0000
,
0001
0000
0200
0000
,
0000
0000
0000
0300
0000
0000
0000
0000
,
0001
0000
0000
0000
0100
0000
0000
0100
,
0000
0000
1000
0000
0000
1000
0000
0000
,
0010
0000
0000
0200
0000
0000
0000
0000
,
0000
0000
0000
0300
,
0000
0000
0020
0000
,
0000
0000
0030
0001
0000
0000
0000
0000
,
0100
0000
2000
0000
,
0000
0000
0000
0000
0000
0000
0000
3000
0000
0000
0000
0000
0000
0000
0000
0000
,
0001
0000
0000
0000
0010
0000
0000
0010
,
0000
0000
0100
0000
0000
0100
0000
0000
,
1000
0000
0000
0002
0000
0000
0000
0000
,
0000
0000
0003
0000
,
0100
0000
0010
0000
0100
0000
0000
1000
,
0000
0000
0001
0000
0000
0100
0000
0000
,
0010
0000
0000
2000
0000
0000
0000
0000
,
0000
0000
0000
0000
,
0000
3000
0001
0001
,
0001
0000
0010
0010
,
0010
0000
0100
0100
,
0100
0000
0000
0000
1000
0000
0000
1001
;

//---------------dance-single - Copied from----------------
#NOTES:
     dance-single:
     Copied from:
     Medium:
     5:
     0.224834,0.390139,0.040098,0.200489,0.005012,157.000000,153.000000,4.000000,20.000000,0.000000,0.000000,0.224834,0.390139,0.040098,0.200489,0.005012,157.000000,153.000000,4.000000,20.000000,0.000000,0.000000:
0000
0000
0000
0000
,
0000
0000
0020
0000
,
0000
0000
0000
0030
0000
0000
0000
0000
,
0000
0000
1000
0000
,
0000
0000
0000
0100
0010
0000
0000
1000
,
0001
0000
0000
0000
0000
0200
0000
0000
,
0000
0000
0001
0301
,
0001
0001
1000
0010
,
1000
0000
0001
0100
,
0001
0000
1000
0010
,
1000
0000
0000
0000
0010
0010
0010
0010
,
0000
0000
0100
0001
,
0100
0001
1000
0010
,
1000
0010
0100
0002
,
0000
0000
0000
0000
0000
0003
0000
0000
,
1000
0010
0100
0000
,
0001
0100
0010
0000
,
1000
0000
0000
0000
0001
0000
0010
0000
0000
0000
0000
0200
0000
0000
0000
0000
,
0000
0000
0000
0300
,
0000
1000
0020
0000
,
0000
0000
0030
0000
,
0100
0000
0001
0000
1000
0000
0000
0200
,
0000
0000
0000
0300
,
1000
0010
0001
0000
,
0010
0000
0100
0000
1000
0000
0000
0010
,
1000
0001
0100
0000
0010
0000
0200
0000
,
0000
0000
0000
0000
0000
0300
0000
0000
,
0010
0001
1000
0100
2000
0000
0000
0000
,
3000
0000
0001
0000
0100
0000
0001
0100
,
0001
1000
0020
0000
,
0030
0100
0001
1000
,
0010
0100
0001
1000
,
0101
0001
1010
0001
,
1000
0100
1000
0010
0200
0000
0000
0000
,
0300
0001
0010
0002
0000
0000
0000
0000
,
0000
0003
0000
0000
,
0000
0000
2000
0000
,
3000
0000
0010
0010
0100
0000
0001
1000
,
0001
0100
2000
0000
,
0000
0000
0000
3000
0000
0000
0000
0000
,
0001
0000
0100
0000
0001
0000
1000
1000
,
0000
0000
0010
0000
0100
0100
0000
0000
,
0010
0000
0000
0002
0000
0000
0000
0000
,
0000
0000
0000
0003
,
0000
0000
2000
0000
,
0000
3010
0100
0001
,
1000
0010
0200
0000
,
0001
0000
0301
0000
,
0010
0000
0000
0000
1000
0000
0100
0100
,
0000
0000
0100
0000
0001
0001
0000
0000
,
1000
0000
0000
2002
0000
0000
0000
0000
,
0000
0000
3003
0000
,
0100
0000
0001
0000
0100
0000
0010
0010
,
0000
0000
1000
0000
0100
0100
0000
0000
,
0001
0000
0000
0220
0000
0000
0000
0000
,
0000
0000
0000
0000
,
0000
0330
0000
0000
0001
0000
0100
0000
,
0001
0000
1000
0010
,
1000
0000
0001
0100
,
0001
0000
0000
0000
1000
0100
0010
0001
;

//---------------dance-single - Copied from----------------
#NOTES:
     dance-single:
     Copied from:
     Hard:
     7:
     0.310758,0.390139,0.140342,0.240587,0.005012,217.000000,203.000000,14.000000,24.000000,0.000000,0.000000,0.310758,0.390139,0.140342,0.240587,0.005012,217.000000,203.000000,14.000000,24.000000,0.000000,0.000000:
0000
0000
0000
0000
,
0000
0000
2000
0000
,
0020
0000
0000
0000
,
0000
3030
0100
0000
,
0001
1000
0000
0010
0100
0000
0000
1000
,
0001
2000
0100
0100
,
0100
3002
0010
0010
,
0010
0000
0013
0000
1000
0100
0010
0001
,
0100
0000
0000
0000
0001
0010
0100
1000
,
0010
0000
0000
0000
1000
0100
0010
0001
,
0100
0000
0000
0000
0010
0010
0010
0010
,
0000
0000
0000
0000
0100
0001
0010
0001
,
0100
0001
1000
0010
,
0100
0001
0010
0001
0100
0000
0002
0000
,
1000
1000
1003
0000
,
0010
1010
0101
0000
,
0010
0101
1010
0000
,
0100
0000
0000
0000
0001
0000
1000
0000
0000
0000
0000
0220
0000
0000
0000
0000
,
0000
0000
0000
0330
,
0000
1000
0020
0100
,
0100
0100
0130
0000
,
0001
1000
0001
0200
,
0010
0010
0010
0310
,
1000
0010
0100
0010
1000
0000
0000
0000
,
0001
0100
0010
0100
0001
0000
0000
1000
,
0001
0100
0001
0000
1000
0000
0220
0000
,
0000
0000
0000
0000
0000
0330
0000
0000
,
1000
0010
0100
0001
2000
0000
0000
0000
,
3000
0000
0010
0000
1000
0000
0001
0100
,
0010
1000
0002
0000
,
0003
0000
0100
0100
0100
0000
0001
0000
,
1000
0010
1000
0000
0001
0000
1000
0000
,
0001
0100
1001
0010
,
1000
0001
1000
0010
0200
0000
0000
0000
,
0300
0001
1000
0020
0000
0000
0000
0000
,
0000
0030
0000
0000
,
0000
0000
2002
0000
,
3003
0000
0010
0100
0000
0000
0001
1000
,
0001
0000
0100
0000
0001
0010
0100
1000
,
0010
0100
0001
1000
0000
0000
0000
0000
,
0001
0000
0100
0000
0010
0000
1000
1000
,
0000
0000
0100
0000
0001
0001
0000
0000
,
1100
0000
0000
0022
0000
0000
0000
0000
,
0000
0000
0000
0033
,
0000
0000
2000
0000
,
0000
3000
0010
0010
0100
0000
0001
0000
,
1000
0000
0010
0000
1000
0100
0010
0001
,
0100
0010
0100
0001
1000
0000
0000
0000
,
0010
0000
0000
0000
1000
0000
0001
0001
,
0000
0000
0100
0000
0010
0010
0000
0000
,
1000
0000
0000
2002
0000
0000
0000
0000
,
0000
0000
3003
0000
,
0010
0000
1000
0000
0001
0000
0100
0100
,
0000
0000
0010
0000
1000
1000
0000
0000
,
0001
0000
0000
0220
0000
0000
0000
0000
,
0000
0000
0000
0000
,
0000
0330
0000
0000
1000
0000
0001
0000
,
1010
0000
0001
1000
,
0101
0000
0000
0000
1000
0100
0010
0001
,
0100
0000
0010
0000
1000
0100
1000
0001
;
