#TITLE:YESTERDAY;
#SUBTITLE:;
#ARTIST:CHERRY;
#TITLETRANSLIT:;
#SUBTITLETRANSLIT:;
#ARTISTTRANSLIT:;
#CREDIT:SupremeX;
#BANNER:YESTERDAY.png;
#BACKGROUND:YESTERDAY-bg.png;
#LYRICSPATH:;
#CDTITLE:CDTitle.png;
#MUSIC:YESTERDAY.ogg;
#OFFSET:-0.386;
#SAMPLESTART:68.600;
#SAMPLELENGTH:12.000;
#SELECTABLE:YES;
#BPMS:0.000=158.100;
#STOPS:;
#BGCHANGES:8.000=YESTERDAY.avi=1.000=0=0=1,
99999=-nosongbg-=1.000=0=0=0 // don't automatically add -songbackground-
;

//---------------dance-single - ----------------
#NOTES:
     dance-single:
     :
     Hard:
     8:
     0.375,0.382,0.384,0.273,0.000:
0000
0000
0000
0000
,
0000
0000
0000
0000
,
0000
0000
0000
0000
,
0000
0000
0000
0000
,
2000
0000
0000
0000
3020
0000
0000
0032
,
0000
0000
0000
0003
0000
0000
1000
0000
,
0010
0000
0001
0100
0000
0101
0000
1010
,
0000
0100
0001
0010
,
2000
0000
0000
0000
3020
0000
0000
0032
,
0000
0000
0000
0003
0000
0000
1000
0000
,
0010
0000
0001
0100
0000
1000
0000
2200
,
0000
3300
1100
0000
,
0001
0100
0001
1000
,
0000
0010
0000
0100
0000
0001
0000
1000
,
0001
1010
0101
1010
,
0000
0001
0000
0100
0000
0001
0000
1000
,
0001
1100
0011
1100
,
0000
0001
0000
1000
0000
0010
0000
0001
,
1000
0101
1010
0101
,
0000
0011
0000
1100
0000
0011
0000
0000
,
0000
0000
1000
0100
0010
0001
0100
0010
,
0000
1000
0000
0010
0000
0200
0000
0300
,
0000
0000
0001
0010
0100
1000
0010
0100
,
0000
0001
0000
0100
0000
0020
0000
0030
,
0000
0000
1000
0010
1000
0001
0100
0010
,
0000
0100
0000
0001
0000
1000
0000
0100
,
0000
0002
2000
0000
0000
0000
3003
0000
,
1001
0000
0000
0000
,
0000
0000
0100
0010
1000
0010
0100
0001
,
0000
0100
0000
0001
0000
0010
0000
1100
,
0000
0000
0001
0100
0010
0100
0001
1000
,
0000
0010
0000
0100
0000
0001
0000
1010
,
0000
0000
0001
0010
0100
1000
0010
0100
,
0000
0010
0000
1000
0000
0001
0000
1000
,
0000
0020
0200
0000
0000
0000
0330
0000
,
0110
0000
0000
0000
0000
0000
1000
1000
,
1000
0000
0001
0000
0100
0000
0010
1000
,
0000
0001
0000
0110
0000
0000
0001
0001
,
0001
0000
1000
0000
0010
0000
0100
0001
,
0000
1000
0000
0110
0000
0000
1000
0010
,
1000
0000
0001
0000
0100
0000
1000
0010
,
0000
0001
0000
0101
0000
0000
0010
0100
,
2000
0000
0000
3000
0020
0000
0000
0030
,
0200
0000
0000
0300
0002
0000
0000
0003
,
0000
1000
1000
1000
,
0020
0000
0000
0000
0230
0000
0000
0302
,
0000
0000
0000
0003
0000
0000
1000
0000
,
0010
0000
0100
0001
0000
1000
0000
0001
,
0000
1010
0101
1010
,
0002
0000
0000
0000
0203
0000
0000
0320
,
0000
0000
0000
0030
0000
0000
1000
0000
,
1000
0000
0010
0100
0000
0001
0000
1000
,
0000
0101
1010
0101
,
2000
0000
0000
0000
3020
0000
0000
0230
,
0000
0000
0000
0300
0000
0000
0001
0000
,
0001
0000
1000
0010
0000
0001
0000
1000
,
0000
1100
0011
1100
,
0002
0000
0000
0000
0203
0000
0000
0320
,
0000
0000
0000
0030
0000
0000
1000
0000
,
0010
0000
0100
0001
0000
0010
0000
2000
,
0000
0000
0002
3003
,
1000
0010
1000
0010
,
0000
0100
0000
0001
0000
0100
0000
0001
,
1000
0101
1010
0101
,
0000
0010
0000
1000
0000
0010
0000
0100
,
0001
0011
1100
0011
,
0000
1000
0000
0001
0000
0100
0000
0001
,
1000
0101
1010
0101
,
0000
0011
0000
1100
0000
0011
0000
0000
,
1001
0000
0000
0000
;

//---------------dance-single - ----------------
#NOTES:
     dance-single:
     :
     Medium:
     6:
     0.303,0.324,0.162,0.094,0.000: // measure 1
0000
0000
0000
0000
,  // measure 2
0000
0000
0000
0000
,  // measure 3
0000
0000
0000
0000
,  // measure 4
0000
0000
0000
0000
,  // measure 5
1000
0000
0000
0000
0110
0000
0000
0001
,  // measure 6
0000
0000
0000
1000
,  // measure 7
0010
0000
0001
0100
0000
0001
0000
1000
,  // measure 8
0000
0100
0001
0010
,  // measure 9
1000
0000
0000
0000
0110
0000
0000
0001
,  // measure 10
0000
0000
0000
1000
,  // measure 11
0010
0000
0001
0100
0000
1000
0000
0200
,  // measure 12
0000
0300
1000
0000
,  // measure 13
0001
1000
1001
1001
,  // measure 14
0000
0100
0000
0001
0000
0100
0000
0010
,  // measure 15
0100
1000
0010
0110
,  // measure 16
0000
0001
0000
1000
0000
0001
0000
1000
,  // measure 17
0001
0100
0010
0110
,  // measure 18
0000
0001
0000
1000
0000
0001
0000
1000
,  // measure 19
0001
1000
0001
1001
,  // measure 20
0000
0010
0000
0100
0000
0110
0000
0000
,  // measure 21
0000
0000
1000
0000
0010
0000
0010
1000
,  // measure 22
0000
0001
0000
0100
0000
0101
0000
0000
,  // measure 23
0000
0000
0001
0000
0100
0000
0100
0010
,  // measure 24
0000
1000
0000
0010
0000
1010
0000
0000
,  // measure 25
0000
0000
0001
0000
0001
0000
0010
0100
,  // measure 26
0000
1000
0000
0001
0000
1000
0000
0100
,  // measure 27
0000
0002
2000
0000
0000
0000
3003
0000
,  // measure 28
1001
0000
0000
0000
,  // measure 29
0000
0000
1000
0000
1000
0000
0001
0100
,  // measure 30
0000
0001
0000
0010
0000
0100
0000
0110
,  // measure 31
0000
0000
0001
0000
0001
0000
1000
0100
,  // measure 32
0000
0100
0000
1000
0000
0100
0000
0110
,  // measure 33
0000
0000
0001
0000
0001
0000
0010
1000
,  // measure 34
0000
1000
0000
0001
0000
1000
0000
0001
,  // measure 35
0000
0200
0020
0000
0000
0000
0330
0000
,  // measure 36
0110
0000
0000
0000
0000
0000
1000
1000
,  // measure 37
1000
0000
0001
0000
0001
0000
0100
0100
,  // measure 38
0000
0010
0000
0010
0000
0000
0001
0001
,  // measure 39
0001
0000
1000
0000
1000
0000
0010
0010
,  // measure 40
0000
0100
0000
0100
0000
0000
1000
0010
,  // measure 41
1000
0000
0001
0000
0100
0000
0100
0010
,  // measure 42
0000
0001
0000
0001
0000
0000
0010
0100
,  // measure 43
2000
0000
0000
3000
0020
0000
0000
0030
,  // measure 44
0002
0000
0000
0003
0200
0000
0000
0300
,  // measure 45
0000
1000
1000
1000
,  // measure 46
0010
0000
0000
0000
0110
0000
0000
0001
,  // measure 47
0000
0000
0000
1000
,  // measure 48
0010
0000
0100
0001
0000
1000
0000
1000
,  // measure 49
0000
0010
0100
0010
,  // measure 50
0001
0000
0000
0000
0110
0000
0000
1000
,  // measure 51
0000
0000
0000
0001
,  // measure 52
0001
0000
0100
1000
0000
0010
0000
0010
,  // measure 53
0000
0001
0010
0001
,  // measure 54
1000
0000
0000
0000
0110
0000
0000
0001
,  // measure 55
0000
0000
0000
1000
,  // measure 56
1000
0000
0100
0010
0000
0100
0000
0010
,  // measure 57
0000
1000
0100
1000
,  // measure 58
0001
0000
0000
0000
0110
0000
0000
1000
,  // measure 59
0000
0000
0000
0001
,  // measure 60
0100
0000
0010
1000
0000
0001
0000
2000
,  // measure 61
0000
0000
0002
3003
,  // measure 62
1000
0001
1000
0001
,  // measure 63
0000
1000
0000
0001
0000
1000
0000
0001
,  // measure 64
0001
1000
0001
1000
,  // measure 65
0000
0100
0000
0010
0000
0100
0000
0010
,  // measure 66
0010
0001
1000
0001
,  // measure 67
0000
1000
0000
0001
0000
1000
0000
0001
,  // measure 68
0001
0100
0010
0100
,  // measure 69
0000
1000
0000
0001
0000
1000
0000
0000
,  // measure 70
1001
0000
0000
0000
;

//---------------dance-single - ----------------
#NOTES:
     dance-single:
     :
     Easy:
     3:
     0.234,0.265,0.009,0.034,0.000:
0000
0000
0000
0000
,
0000
0000
0000
0000
,
0000
0000
0000
0000
,
0000
0000
0000
0000
,
1000
0000
0000
0000
0001
0000
0000
1000
,
0000
0000
0000
0000
,
0100
0000
0000
0010
0000
0100
0000
0010
,
0000
1000
0001
1000
,
0010
0000
0000
0000
0100
0000
0000
0001
,
0000
0000
0000
1000
,
0010
0000
0000
1000
0000
0000
0000
0002
,
0000
0000
0000
0000
0000
0003
0000
0000
,
1000
1000
0010
0010
,
0000
0100
0000
0100
0000
0001
0000
0000
,
0001
0010
0100
1000
,
0000
0001
0000
0001
0000
1000
0000
0010
,
0100
0001
0001
0001
,
0000
1000
0000
1000
0000
0010
0000
0000
,
0100
0001
0100
0001
,
0000
1000
0000
1000
0000
1000
0000
0000
,
0000
0000
0100
0000
0010
0000
0000
0100
,
0000
0100
0000
0100
0000
0100
0000
0000
,
0000
0000
0001
0000
0010
0000
0000
0010
,
0000
0010
0000
0010
0000
0010
0000
0000
,
0000
0000
1000
0000
0100
0000
0000
0100
,
0000
0100
0000
0100
0000
0010
0000
0100
,
0000
0002
0000
0003
,
1000
0000
0000
0000
,
0000
1000
0010
0100
,
0001
0000
0000
0100
0000
0100
0000
0100
,
0000
0010
1000
0001
,
0100
0000
0000
0010
0000
0010
0000
0010
,
0000
1000
0001
0100
,
0000
0001
0000
1000
0000
0010
0000
0100
,
0000
0000
0002
0000
0000
0000
0000
0003
,
0010
0000
0000
0000
,
1000
0000
0100
0000
1000
0000
0000
0010
,
0000
0100
0000
0010
0000
0000
0000
0000
,
0001
0000
0010
0000
0001
0000
0000
1000
,
0000
0100
0000
1000
0000
0000
0000
0000
,
0010
0000
0100
0000
0010
0000
0000
0100
,
0000
0010
0000
0100
0000
0000
0000
0000
,
1000
0000
0001
0000
,
1000
0000
0001
0000
,
0100
0000
0000
0000
,
0010
0000
0000
0000
0010
0000
0000
0010
,
0000
0000
0000
1000
,
0001
0000
1000
0001
0000
0100
0000
0100
,
0000
0001
0001
0001
,
1000
0000
0000
0000
0001
0000
0000
1000
,
0000
0000
0000
0100
,
0010
0000
0100
0010
0000
0010
0000
0010
,
0000
1000
0001
1000
,
0001
0000
0000
0000
1000
0000
0000
0001
,
0000
0000
0000
0100
,
0010
0000
0100
0010
0000
0100
0000
0010
,
0000
1000
0001
1000
,
0001
0000
0000
0000
0010
0000
0000
0100
,
0000
0000
0000
1000
,
0100
0000
0010
0100
0000
0001
0000
0002
,
0000
0000
0000
0003
,
1000
1000
1000
1000
,
0000
0100
0000
0100
0000
0100
0000
0000
,
0001
0001
0001
0001
,
0000
0010
0000
0010
0000
0010
0000
0000
,
1000
1000
1000
1000
,
0000
0100
0000
0100
0000
0100
0000
0000
,
0001
0001
0001
0001
,
0000
0010
0000
0010
0000
0010
0000
0000
,
0110
0000
0000
0000
;

//---------------dance-single - Copied from----------------
#NOTES:
     dance-single:
     Copied from:
     Beginner:
     2:
     0.134,0.146,0.000,0.000,0.000:
0000
0000
0000
0000
,
0000
0000
0000
0000
,
0000
0000
0000
0000
,
0000
0000
0000
0000
,
1000
0000
0000
0000
0001
0000
0000
1000
,
0000
0000
0000
0000
,
0001
0000
0000
0000
0000
0000
0000
1000
,
0000
0000
0000
0000
,
0001
0000
0000
0000
1000
0000
0000
0001
,
0000
0000
0000
0000
,
0100
0000
0000
0000
0000
0000
0000
0100
,
0000
0000
0000
0000
,
1000
0000
1000
0000
,
0001
0000
0001
0000
,
0100
0000
0100
0000
,
0010
0000
0010
0000
,
1000
0000
1000
0000
,
0001
0000
0001
0000
,
0100
0000
0100
0000
,
0010
0000
0010
0000
,
0000
1000
0000
1000
,
0000
1000
0000
0000
,
0000
0001
0000
0001
,
0000
0001
0000
0000
,
0000
0100
0000
0100
,
0000
0100
0000
0010
,
0000
0010
0000
0000
,
0010
0000
0000
0000
,
0000
1000
0000
1000
,
0000
1000
0000
0001
,
0000
1000
0000
1000
,
0000
1000
0000
0001
,
0000
0100
0000
0100
,
0000
0100
0000
0010
,
0000
0100
0000
0000
,
0010
0000
0000
0000
,
1000
0000
0001
0000
,
0001
0000
0001
0000
,
1000
0000
0001
0000
,
0001
0000
0001
0000
,
1000
0000
0001
0000
,
0001
0000
0001
0000
,
0100
0000
0010
0000
,
0100
0000
0010
0000
,
0000
0000
1000
0000
,
0001
0000
0000
0000
0001
0000
0000
0001
,
0000
0000
0000
0000
,
0100
0000
0000
0000
0000
0000
0000
0100
,
0000
0000
0000
0000
,
0010
0000
0000
0000
0010
0000
0000
0010
,
0000
0000
0000
0000
,
1000
0000
0000
0000
0000
0000
0000
1000
,
0000
0000
0010
0000
,
0001
0000
0000
0000
0001
0000
0000
0001
,
0000
0000
0000
0000
,
0100
0000
0000
0100
0000
0000
0000
0100
,
0000
0000
0010
0000
,
1000
0000
0000
0000
1000
0000
0000
1000
,
0000
0000
0000
0000
,
0010
0000
0000
0010
0000
0000
0000
0010
,
0000
0000
0010
0000
,
0100
0000
0100
0000
,
1000
0000
1000
0000
,
0010
0000
0010
0000
,
0001
0000
0001
0000
,
0100
0000
0100
0000
,
1000
0000
1000
0000
,
0010
0000
0010
0000
,
0001
0000
0001
0000
;
