#TITLE:XenomaX;
#SUBTITLE:;
#ARTIST:DM Ashura feat. Ω & Mr. T;
#TITLETRANSLIT:;
#SUBTITLETRANSLIT:;
#ARTISTTRANSLIT:DM Ashura feat. Omega & Mr. T;
#CREDIT:SupremeX;
#BANNER:Xenomax.png;
#BACKGROUND:XenomaX-bg.png;
#LYRICSPATH:;
#CDTITLE:CDTitle.png;
#MUSIC:XenomaX.ogg;
#OFFSET:-5.553;
#SAMPLESTART:11.000;
#SAMPLELENGTH:12.000;
#SELECTABLE:YES;
#DISPLAYBPM:*;
#BPMS:0.000=350.000,224.000=175.001,256.000=350.000;
#STOPS:;
#BGCHANGES:0.000=n_nyevtunnel.avi=1.000=0=0=1,
32.000=wave145.avi=1.000=0=0=1,
64.000=timer1.avi=1.000=0=0=1,
96.000=n_nyevtunnel.avi=1.000=0=0=1,
120.000=tripbox.avi=1.000=0=0=1,
128.000=n_nyevtunnel.avi=1.000=0=0=1,
159.000=wave145.avi=1.000=0=0=1,
184.000=tripbox.avi=1.000=0=0=1,
192.000=wave145.avi=1.000=0=0=1,
224.000=14 Hexagonal.avi=1.000=0=0=1,
256.000=n_nyevtunnel.avi=1.000=0=0=1,
288.000=timer1.avi=1.000=0=0=1,
320.000=tripbox.avi=1.000=0=0=1,
336.000=14 Hexagonal.avi=1.000=0=0=1,
352.000=tripbox.avi=1.000=0=0=1,
368.000=14 Hexagonal.avi=1.000=0=0=1,
384.000=wave145.avi=1.000=0=0=1,
408.000=timer1.avi=1.000=0=0=1,
416.000=n_nyevtunnel.avi=1.000=0=0=1,
440.000=timer1.avi=1.000=0=0=1,
448.000=wave145.avi=1.000=0=0=1,
464.000=14 Hexagonal.avi=1.000=0=0=1,
479.000=wave145.avi=1.000=0=0=1,
496.000=n_nyevtunnel.avi=1.000=0=0=1,
516.000=XenomaX-bg.png=1.000=0=0=1,
99999=-nosongbg-=1.000=0=0=0 // don't automatically add -songbackground-
;

//---------------dance-single - ----------------
#NOTES:
     dance-single:
     :
     Challenge:
     13:
     1.000,1.000,0.282,0.078,0.063:
1001
0010
0100
1000
,
0010
0100
0001
1000
,
0001
0010
0100
1000
,
0010
0100
0001
1000
,
0010
0100
0001
1000
,
0100
0010
0001
0100
,
0010
1000
0001
0100
,
0010
1000
0001
0100
,
0010
1000
0010
0100
0001
0100
0010
1000
,
0001
0010
0100
1000
0010
0100
0010
1000
,
0100
0010
0001
0100
0010
1000
0001
1000
,
0010
0100
0001
1000
0001
0010
0100
1000
,
0010
0100
0001
1000
0010
0100
0001
1000
,
0010
0100
0001
0100
0010
1000
0010
0100
,
0001
1000
0001
0010
0100
1000
0001
1000
,
0010
0100
0001
1000
0010
0100
0010
0100
,
0001
1000
0010
1000
0001
0100
0010
0100
,
0001
1000
0010
1000
0001
0100
0010
1000
,
0010
0100
0001
1000
0010
0100
0001
1000
,
0010
0100
0010
1000
0001
0100
0001
0100
,
0010
0100
0001
1000
0010
0100
0001
1000
,
0010
0100
0010
1000
0001
1000
0010
0100
,
0001
1000
0010
0100
0001
0010
0100
1000
,
0001
0100
0001
0100
0010
0100
0010
1000
,
0010
0000
1000
0100
1000
0000
0101
0000
,
0001
0000
0100
0010
1000
0000
0101
0000
,
1000
0000
0010
0100
0001
0000
1010
0000
,
0100
0000
0001
1000
0001
0000
1001
0000
,
0100
0000
0001
1000
0010
0000
1100
0000
,
0001
0000
0100
0001
0100
0000
1010
0000
,
0001
0000
1000
0100
1000
0000
0010
0100
,
0010
1001
1100
0110
,
0001
0010
0001
0100
0010
1000
0100
1000
,
0001
0100
0001
1000
0010
1000
0001
0010
,
0001
0100
0010
1000
0100
0010
0001
0100
,
0010
1000
0001
0100
0010
1000
0001
1000
,
0010
0100
0010
1000
0010
0100
0001
1000
,
0001
0100
0010
0100
0001
0010
0001
1000
,
0100
1000
0010
0100
0001
1000
0010
0100
,
0001
0010
0001
1000
0100
0010
0001
0100
,
0010
0000
1000
0000
0001
0100
0010
0000
,
1010
0000
0100
0000
0001
1000
0010
0000
,
0110
0000
0100
0000
0001
1000
0001
0000
,
0101
0000
0010
0000
1000
0001
0100
0000
,
1010
0000
0100
0000
0010
1000
0001
0000
,
1001
0000
0100
0000
0010
0100
0010
0000
,
1100
0000
0001
1000
0010
0000
0100
0001
,
1000
0011
0110
1100
,
1000
0100
0010
0001
0100
0010
0100
0001
,
1000
0010
1000
0001
0100
0010
0100
0001
,
1000
0010
0100
0001
1000
0010
0100
0010
,
1000
0001
0100
0010
0100
0001
1000
0010
,
1000
0001
0100
0010
0100
0001
0010
0100
,
1000
0001
0100
0001
1000
0010
0100
0010
,
1000
0001
0100
0010
0100
0001
0010
0001
,
1000
0010
0100
0010
1000
0001
0100
0010
,
2000
0000
0001
3000
,
0100
0000
0000
0100
0010
0000
0000
0010
0001
0000
0000
0000
0000
0000
0000
0000
,
0200
0000
0010
0300
,
0001
0000
0000
0000
0000
0000
0000
0000
0000
0001
0000
0000
0010
0000
0000
0000
0000
0000
0000
0000
0000
0010
0000
0000
1000
0000
0000
0000
0000
0000
0000
0000
0010
0000
0000
0000
0100
0000
0000
0000
0010
0000
0000
0000
0100
0000
0000
0000
,
0002
0000
1000
0003
,
0100
0000
0000
0010
1000
0000
0000
1000
0100
0000
0000
0000
0000
0000
0000
0000
,
0020
0000
0001
0030
,
0001
0101
0010
1000
0010
0100
0110
0001
,
1000
0001
1000
0000
0100
0000
0010
0000
,
0001
0100
0010
0000
1000
0000
0001
0000
,
0100
0010
0100
0000
0001
0000
1000
0000
,
0010
0100
0010
0000
1000
0000
0010
0000
,
0100
0001
0100
0000
0010
0000
1000
0000
,
0001
0100
0001
0000
1000
0000
0010
0000
,
1000
0100
1000
0000
0001
0000
0001
0000
,
0100
0010
0100
0000
0001
0000
1000
0000
,
0010
0100
0010
0000
1000
0000
0010
0000
,
0100
0001
0100
0000
0010
0000
1000
0000
,
0010
1000
0010
0000
1000
0000
0001
0000
,
0100
0010
0100
0000
0001
0000
0100
0000
,
0010
1000
0010
0000
0100
0000
0010
0000
,
0100
0001
0100
0000
0010
0000
1000
0000
,
0001
0010
0001
0000
0100
0000
0010
0000
,
1000
0100
1000
0000
0001
0000
0100
0000
,
0010
0000
0100
0000
0000
0000
0000
0001
0000
0000
0000
0000
1000
0000
0000
0000
,
0010
0000
0100
0000
0000
0000
0000
0001
0000
0000
0000
0000
1000
0000
0000
0000
,
0100
1000
0010
0100
,
0010
1000
0001
1000
,
0010
0000
0100
0000
0000
0000
0000
0001
0000
0000
0000
0000
1000
0000
0000
0000
,
0010
0000
0100
0000
0000
0000
0000
0001
0000
0000
0000
0000
1000
0000
0000
0000
,
0001
0100
0010
1000
,
0001
0100
0010
1000
,
0001
0100
0010
0100
0001
0000
1000
0000
,
0010
0100
0001
0010
0001
0000
1000
0000
,
0100
1000
0001
0010
0001
0000
0100
0000
,
0010
1000
0001
0100
0010
0000
0100
0000
,
0010
1000
0001
1000
0010
0000
0100
0000
,
0001
1000
0001
0100
0010
0000
0100
0000
,
2002
0000
0000
0000
,
0000
0000
0000
3003
,
0010
0100
0001
1000
0010
0100
0001
0010
,
0001
1000
0010
1000
0001
0100
0001
1000
,
0100
1000
0001
0010
0100
1000
0010
1000
,
0001
0100
0001
1000
0010
0100
0001
1000
,
0001
0010
0100
1000
0001
0010
0001
0100
,
0010
1000
0100
0010
0001
1000
0010
0100
,
0001
0000
1000
0000
0000
0010
0000
0100
,
0010
1010
0101
1001
,
0010
0100
0010
1000
0001
0100
0010
1000
,
0001
0100
0010
0100
0001
0010
0001
0100
,
0010
1000
0001
0010
0100
1000
0010
0100
,
0001
1000
0001
0100
0010
0100
0001
1000
,
0010
0100
0001
1000
0010
0100
0010
1000
,
0100
0010
0001
0100
0001
1000
0010
1000
,
0001
0000
0100
0000
0000
0001
0000
1000
,
0010
1010
1001
0101
,
0010
1000
0010
0100
0001
1000
0100
1000
,
0010
0100
0001
0010
0100
1000
0010
0100
,
0001
1000
0010
0100
0001
1000
0010
0100
,
0010
1000
0001
0100
0010
0100
0001
1000
,
0010
0100
0001
0100
0010
1000
0100
0010
,
0001
1000
0100
1000
0010
0100
0010
1000
,
0001
0100
0010
1000
0001
0010
0100
1000
,
0010
0100
0001
1000
0001
0100
0010
1000
,
0001
0010
0001
1000
0100
1000
0010
0100
,
0010
0100
0001
0010
0100
1000
0010
0100
,
0010
1000
0100
0010
0001
1000
0010
1000
,
0001
0100
0010
0100
0001
1000
0010
1000
,
0001
0100
0010
1000
0100
0010
0001
1000
,
0100
1000
0001
0010
0001
1000
0010
0100
,
0010
1000
0001
0100
0001
1000
0010
0100
,
0010
1000
0001
0100
,
0010
1000
0001
1000
,
2002
0000
3003
0000
;

//---------------dance-single - ----------------
#NOTES:
     dance-single:
     :
     Hard:
     11:
     0.955,1.000,0.282,0.204,0.010: // measure 1
1000
0001
0100
0001
,  // measure 2
1000
0010
0100
0001
,  // measure 3
0100
0010
1000
0010
,  // measure 4
0100
0001
1000
0010
,  // measure 5
0100
0001
1000
0010
,  // measure 6
0100
0001
1000
0100
,  // measure 7
0010
0001
0100
0010
,  // measure 8
1000
0001
1000
0010
,  // measure 9
0100
0001
0100
0000
0010
1000
0010
0000
,  // measure 10
0100
0010
0100
0000
0001
0010
0001
0000
,  // measure 11
1000
0100
1000
0000
0001
0100
0001
0000
,  // measure 12
1000
0010
1000
0000
0001
0010
0001
0000
,  // measure 13
1000
0010
1000
0000
0010
0100
0010
0000
,  // measure 14
0100
0001
0100
0000
0001
0010
0001
0000
,  // measure 15
1000
0010
1000
0000
0001
0100
0010
0000
,  // measure 16
1000
0010
0100
0000
0001
0100
0010
0000
,  // measure 17
1000
0001
0100
0000
0010
1000
0001
0000
,  // measure 18
0100
0001
1000
0000
0010
0100
0010
0000
,  // measure 19
1000
0010
1000
0000
0001
0100
0001
0000
,  // measure 20
0100
0010
0100
0000
0001
1000
0001
0000
,  // measure 21
2000
0000
0000
0000
0000
0000
3010
0100
,  // measure 22
0002
0000
0000
0000
0000
0000
1003
0010
,  // measure 23
0100
0000
0001
0000
0000
1000
0000
0000
,  // measure 24
0000
0001
0100
0010
,  // measure 25
1000
0000
0010
0100
0000
0001
1000
0000
,  // measure 26
0010
0000
0100
0010
0000
1000
0001
0000
,  // measure 27
0100
0000
0001
1000
0000
1000
0001
0000
,  // measure 28
0100
0000
0010
1000
0000
1000
0010
0000
,  // measure 29
0100
0000
0001
0100
0000
0100
0001
0000
,  // measure 30
1000
0000
0010
0100
0000
0100
0010
0000
,  // measure 31
1000
0000
0001
0100
0001
0000
0100
0010
,  // measure 32
1000
1010
1001
0101
,  // measure 33
1000
0000
0010
0100
0000
0100
0001
0000
,  // measure 34
0010
0000
0100
1000
0000
1000
0010
0000
,  // measure 35
0100
0000
0001
0010
0000
0010
0001
0000
,  // measure 36
1000
0000
0010
0100
0000
0100
0010
0000
,  // measure 37
1000
0000
0001
0100
0000
0010
1000
0000
,  // measure 38
0001
0000
0100
0010
0000
1000
0001
0000
,  // measure 39
1001
0000
0100
0000
0010
0100
0010
0100
,  // measure 40
0001
0010
0001
0010
0100
1000
0010
0100
,  // measure 41
0010
0000
1000
0001
0000
0100
0010
0000
,  // measure 42
1000
0000
0001
0100
0000
0010
1000
0000
,  // measure 43
0001
0000
0100
0010
0000
0010
0100
0000
,  // measure 44
0001
0000
1000
0100
0000
0100
1000
0000
,  // measure 45
0010
0000
0100
0001
0000
0001
1000
0000
,  // measure 46
0010
0000
0100
0010
0000
0010
0100
0000
,  // measure 47
0001
0000
1000
0100
1000
0000
0010
0100
,  // measure 48
0010
0110
0101
1001
,  // measure 49
0010
0000
1000
0010
0000
0010
0100
0000
,  // measure 50
0001
0000
1000
0010
0000
0010
0100
0000
,  // measure 51
0001
0000
1000
0100
0000
0100
0010
0000
,  // measure 52
0001
0000
0010
0100
0000
0100
1000
0000
,  // measure 53
0100
0000
0010
0001
0000
0001
0100
0000
,  // measure 54
0010
0000
1000
0100
0000
0100
0010
0000
,  // measure 55
0011
0000
0001
0000
0100
0010
0100
0010
,  // measure 56
1000
0100
1000
0100
0010
0001
0010
0001
,  // measure 57
2000
0100
3100
0000
,  // measure 58
0020
0001
0031
0000
,  // measure 59
2000
0010
3010
0000
,  // measure 60
0002
0000
0000
0100
0000
0000
0103
0000
0000
0010
0100
0010
,  // measure 61
2000
0000
3001
0000
,  // measure 62
0200
0010
0310
0000
,  // measure 63
0020
1000
1030
0000
,  // measure 64
0001
0100
0001
1000
0010
1000
0001
0100
,  // measure 65
0010
1000
0010
1000
,  // measure 66
0001
0100
0001
1000
,  // measure 67
0001
0100
0010
1000
,  // measure 68
0010
0100
0001
1000
,  // measure 69
0010
0100
0010
0000
1000
0000
0001
0000
,  // measure 70
0100
0001
1000
0001
,  // measure 71
1000
0010
1000
0001
,  // measure 72
0100
0010
1000
0001
,  // measure 73
0100
0010
0100
0000
0001
0000
0010
0000
,  // measure 74
0001
1000
0100
1000
,  // measure 75
0010
0100
0001
0010
,  // measure 76
0100
1000
0010
0100
,  // measure 77
0001
0010
0001
0000
1000
0000
0010
0000
,  // measure 78
1000
0001
0100
0001
,  // measure 79
1000
0001
0100
0010
,  // measure 80
1000
0000
0001
0000
0100
0010
0100
0010
,  // measure 81
2000
0000
3020
0000
,  // measure 82
0230
0000
0302
0000
,  // measure 83
1003
1100
0100
0110
,  // measure 84
0010
0011
1000
1001
,  // measure 85
0002
0000
0023
0000
,  // measure 86
0230
0000
2300
0000
,  // measure 87
3010
1010
0100
0101
,  // measure 88
0001
1001
1000
1100
,  // measure 89
0001
0010
0001
0000
0010
0000
0100
0000
,  // measure 90
1000
0100
1000
0000
0100
0000
0010
0000
,  // measure 91
0001
0010
0001
0000
0010
0000
0010
0000
,  // measure 92
0100
1000
0100
0000
0010
0000
0010
0000
,  // measure 93
0001
0100
0001
0000
0010
0000
0100
0000
,  // measure 94
1000
0010
1000
0000
0001
0000
1000
0000
,  // measure 95
2002
0000
0000
0000
,  // measure 96
0000
0000
0000
3003
,  // measure 97
0010
0100
0010
0000
1000
0010
1000
0000
,  // measure 98
0001
0010
0001
0000
1000
0010
1000
0000
,  // measure 99
0010
0100
0010
0000
1000
0001
1000
0000
,  // measure 100
0001
0100
0001
0000
1000
0010
1000
0000
,  // measure 101
0010
0100
0010
0000
1000
0001
1000
0000
,  // measure 102
0001
0010
0001
0000
1000
0100
1000
0000
,  // measure 103
0101
0000
1001
0000
0000
0100
0000
0010
,  // measure 104
0110
0101
1010
1001
,  // measure 105
0001
0100
0001
0000
1000
0100
1000
0000
,  // measure 106
0010
0100
0010
0000
0100
0010
0100
0000
,  // measure 107
0001
0010
0001
0000
1000
0010
1000
0000
,  // measure 108
0001
0100
0001
0000
1000
0010
1000
0000
,  // measure 109
0001
0010
0001
0000
0100
0010
0100
0000
,  // measure 110
0010
0100
0010
0000
1000
0100
1000
0000
,  // measure 111
0101
0000
1001
0000
0000
0010
0000
0100
,  // measure 112
0110
1010
0101
1001
,  // measure 113
0100
0010
0100
0010
1000
0010
1000
0001
,  // measure 114
0100
0001
0100
0010
0100
0010
1000
0001
,  // measure 115
1000
0001
0100
0010
0100
0010
1000
0100
,  // measure 116
0010
0001
1000
0010
0100
0001
1000
0010
,  // measure 117
0100
0001
1000
0010
1000
0010
0100
0001
,  // measure 118
0100
0001
1000
0100
1000
0100
0010
0001
,  // measure 119
0010
0001
0100
0010
0100
0010
1000
0100
,  // measure 120
1000
0100
0010
0001
0100
0001
0100
0010
,  // measure 121
1000
0010
1000
0010
0100
0001
0100
0001
,  // measure 122
0010
1000
0010
1000
0010
0100
0010
0100
,  // measure 123
0001
0100
0001
1000
0100
1000
0100
0010
,  // measure 124
0001
1000
0010
0100
0010
1000
0001
0100
,  // measure 125
0020
0000
0000
0000
0000
0000
0130
0001
,  // measure 126
2000
0000
0000
0000
0000
0000
3010
0100
,  // measure 127
0001
0001
0000
1000
,  // measure 128
0000
0010
1000
0001
,  // measure 129
0100
0000
0100
0000
,  // measure 130
0100
0000
0000
0000
;

//---------------dance-single - ----------------
#NOTES:
     dance-single:
     :
     Medium:
     8:
     0.652,0.752,0.087,0.155,0.000:
1000
0000
0010
0000
,
1000
0000
0001
0000
,
0100
0000
0001
0000
,
0100
0000
0010
0000
,
0100
0000
0001
0000
,
1000
0000
0001
0000
,
0100
0000
0010
0000
,
0100
0000
0001
1000
,
0010
0010
0100
0100
,
0001
0001
1000
1000
,
0010
0010
0100
0001
,
0100
0010
1000
0010
,
0100
0001
1000
0100
,
0010
0001
1000
0010
,
0100
0001
1000
0100
,
1000
0010
0100
0010
,
1000
0001
1000
0010
,
0100
0010
1000
1000
,
0001
0001
0100
0100
,
0010
0010
1000
0001
,
0200
0000
0000
0300
,
0020
0000
0000
1030
,
0001
0100
0000
0010
,
0000
1000
0001
1000
,
0010
0100
0000
0001
,
0100
0001
0000
1000
,
0010
1000
0000
0100
,
0010
0001
0000
1000
,
0010
0100
0000
0001
,
1000
0010
0100
0001
,
0010
0100
1000
0001
,
0100
0110
1010
0101
,
1000
0010
0000
0100
,
0001
1000
0000
0010
,
1000
0001
0000
0100
,
0001
1000
0010
1000
,
1000
0001
0100
0001
,
1000
0010
1000
0001
,
1001
0100
0010
1000
,
0001
0001
0100
0010
,
1000
0001
0100
0010
,
1000
0001
0010
0100
,
1000
0010
0100
0001
,
1000
0010
0100
0001
,
1000
0100
0010
0001
,
0100
0010
0100
0001
,
1000
0001
0100
0010
,
1000
1010
0101
1001
,
0010
0100
0001
1000
,
0001
0100
0010
1000
,
0001
0100
0010
1000
,
1000
0001
0001
1000
,
1000
0010
0010
0100
,
0100
0001
0001
0100
,
0101
1000
0010
0100
,
0001
0010
0100
1000
,
0020
0000
0030
0100
,
0002
0000
0103
0000
,
2000
0000
3010
0000
,
0002
0000
0103
0000
,
2000
0000
3100
0000
,
0002
0000
0013
0000
,
0200
0000
0310
0000
,
0001
0000
0001
1000
0010
0100
0001
1000
,
0010
0100
0010
0100
,
0001
1000
0001
0100
,
0010
0100
0001
0010
,
0001
1000
0100
1000
,
0001
0100
0010
1000
,
0001
0100
0001
1000
,
0010
1000
0001
0010
,
0100
1000
0010
0100
,
0001
1000
0001
0100
,
0001
1000
0010
1000
,
0010
0100
0001
0100
,
0010
1000
0010
0100
,
0001
1000
0010
0100
,
0001
1000
0100
1000
,
0001
0010
0001
0100
,
0010
1000
0001
0100
,
0020
0000
0030
0000
,
0200
0000
0300
0000
,
0001
1000
0001
0100
,
0010
1000
0001
0100
,
0002
0000
0003
0000
,
2000
0000
3000
0000
,
0010
0010
0100
0101
,
0001
1000
1000
0010
,
0100
0001
0010
0100
,
1000
0010
0100
0010
,
1000
0001
0100
0100
,
0010
0010
1000
1000
,
0001
0001
0010
0100
,
1000
0001
1000
0001
,
2000
0000
0000
0000
,
0000
0000
0000
3000
,
0010
0010
0100
0100
,
0001
0001
1000
1000
,
0010
0010
0100
0100
,
0001
0001
1000
1000
,
0001
0100
0010
1000
,
0001
0010
0100
1000
,
0010
1000
0001
0100
,
0001
1000
0010
1000
,
0100
0010
0001
0100
,
0010
0010
1000
1000
,
0001
0001
0100
0100
,
0010
0010
1000
1000
,
0001
0001
0100
0100
,
0001
0001
1000
1000
,
0010
0010
0000
0000
,
1000
0010
0100
0001
,
1000
0010
1000
0001
,
0100
0010
1000
0001
,
0100
0010
0100
0001
,
0010
0001
1000
0100
,
1000
0010
0100
0010
,
1000
0100
0010
0001
,
0100
0010
0100
0001
,
0010
0100
1000
0010
,
0100
0001
1000
0010
,
0100
0001
1000
0010
,
0100
0001
1000
0100
,
1000
0001
0010
0001
,
0200
0000
0000
0300
,
0020
0000
0000
0030
,
1000
1000
0000
0001
,
0000
1000
0001
1000
,
0010
0000
0100
0000
,
0010
0000
0000
0000
;

//---------------dance-single - ----------------
#NOTES:
     dance-single:
     :
     Easy:
     5:
     0.346,0.501,0.000,0.078,0.000:
0010
0000
0100
0000
,
0010
0000
1000
0000
,
0001
0000
0100
0000
,
0010
0000
1000
0000
,
0001
0000
0100
0000
,
0010
0000
1000
0000
,
0001
0000
0100
0000
,
0010
0000
0000
0000
,
1000
0000
0001
0000
,
1000
0000
0010
0000
,
0000
0000
0100
0000
,
0001
0000
1000
0000
,
0000
0000
0010
0000
,
0100
0000
0001
0000
,
0000
0000
1000
0000
,
0010
0000
0100
0000
,
0001
0000
1000
0000
,
0001
0000
0100
0000
,
0010
0000
1000
0000
,
0001
0000
0100
0000
,
0001
0000
1000
0000
,
0100
0000
1000
0000
,
0010
0000
0000
0000
,
0100
0000
0000
0000
,
0001
0000
0100
0000
,
0010
0000
1000
0000
,
0010
0000
0100
0000
,
0001
0000
1000
0000
,
0010
0000
0100
0000
,
0001
0000
1000
0000
,
0001
0000
0100
0000
,
0010
1000
0001
0000
,
0100
0000
0010
0000
,
1000
0000
0001
0000
,
0100
0000
0001
0000
,
1000
0000
0010
0000
,
0100
0000
0010
0000
,
1000
0000
0001
0000
,
0100
0000
0100
0000
,
0010
0000
0010
0000
,
1000
0000
1000
0000
,
0001
0000
0100
0000
,
0010
0000
0010
0000
,
1000
0000
0001
0000
,
0100
0000
0010
0000
,
1000
0000
0001
0000
,
0100
0000
0010
0000
,
1000
0010
1000
0000
,
0001
0000
0100
0000
,
0010
0000
1000
0000
,
0001
0000
0100
0000
,
0010
0000
1000
0000
,
0001
0000
0010
0000
,
0001
0000
1000
0000
,
0100
0000
1000
0000
,
0010
0000
0100
0000
,
0001
0000
1000
0000
,
0010
0000
0100
0000
,
0001
0000
1000
0000
,
0010
0000
0100
0000
,
0001
0000
1000
0000
,
0010
0000
0100
0000
,
0001
0000
1000
0000
,
0010
0100
0001
1000
,
0010
0000
1000
0000
,
0001
0000
0100
0000
,
0010
0000
1000
0000
,
0001
0000
0100
0000
,
0020
0000
0000
0000
,
0030
0000
1000
0000
,
0002
0000
0000
0003
,
0010
0000
0000
0000
,
0200
0000
0000
0000
,
0300
0000
1000
0000
,
2000
0000
0000
3000
,
0020
0000
0000
0030
,
0200
0000
0000
0000
,
0300
0000
0001
0000
,
0002
0000
0000
0000
,
0000
0003
0000
0000
,
1000
0000
0000
0000
,
0001
0000
0000
0000
,
0100
0010
0100
0001
,
1000
0010
0100
0000
,
0001
0000
0000
0000
,
1000
0000
0000
0000
,
0010
0100
0010
1000
,
0001
0100
0010
0000
,
1000
0000
0000
0000
,
0001
0000
0000
0000
,
1000
0000
0010
0100
,
0010
0100
0010
0000
,
1000
0000
0000
0000
,
0001
0000
0000
0000
,
2000
0000
0000
0000
,
3010
0000
0000
0000
,
1000
0000
0001
0000
,
0100
0000
0010
0000
,
1000
0000
0001
0000
,
0100
0000
0010
0000
,
1000
0000
0001
0000
,
0100
0000
0010
0000
,
1000
0010
0000
0100
,
0001
0100
0001
0000
,
1000
0000
0010
0000
,
0100
0000
0001
0000
,
0010
0000
0100
0000
,
1000
0000
0010
0000
,
0100
0000
0001
0000
,
1000
0000
0010
0000
,
0100
0000
0001
0000
,
1000
0000
0010
0000
,
0100
0000
0001
0000
,
0001
0000
0001
0000
,
1000
0000
0010
0000
,
0100
0000
0100
0000
,
0001
0000
1000
0000
,
0010
0000
0010
0000
,
1000
0000
0001
0000
,
0100
0000
0100
0000
,
0001
0000
0010
0000
,
0100
0000
1000
0000
,
0001
0000
0100
0000
,
0010
0000
1000
0000
,
0001
0000
0000
0000
,
1000
0000
0000
0000
,
0010
0000
0000
0100
,
0000
0000
0001
0000
,
0100
0000
1000
0000
,
0010
0000
0000
0000
;

//---------------dance-single - Copied from----------------
#NOTES:
     dance-single:
     Copied from:
     Beginner:
     3:
     0.153,0.249,0.000,0.000,0.000:
0001
0000
0000
0000
,
0000
0000
0000
0000
,
1000
0000
0000
0000
,
0000
0000
0000
0000
,
0010
0000
0000
0000
,
0000
0000
0000
0000
,
0100
0000
0000
0000
,
0000
0000
0000
0000
,
0001
0000
0000
0000
,
0000
0000
0000
0000
,
1000
0000
0000
0000
,
0000
0000
0000
0000
,
0010
0000
0000
0000
,
0000
0000
0000
0000
,
0100
0000
0000
0000
,
0000
0000
0000
0000
,
0001
0000
0000
0000
,
0000
0000
0000
0000
,
1000
0000
0000
0000
,
0000
0000
0000
0000
,
0010
0000
0000
0000
,
0000
0000
0000
0000
,
0100
0000
0000
0000
,
0000
0000
0000
0000
,
0001
0000
0000
0000
,
0001
0000
0000
0000
,
0001
0000
0000
0000
,
0001
0000
0000
0000
,
0001
0000
0000
0000
,
0001
0000
0000
0000
,
0100
0000
0000
0000
,
0100
0000
0000
0000
,
0010
0000
0000
0000
,
0010
0000
0000
0000
,
0010
0000
0000
0000
,
0010
0000
0000
0000
,
0010
0000
0000
0000
,
0010
0000
0000
0000
,
0010
0000
0000
0000
,
0000
0000
0000
0000
,
1000
0000
0000
0000
,
1000
0000
0000
0000
,
1000
0000
0000
0000
,
1000
0000
0000
0000
,
1000
0000
0000
0000
,
1000
0000
0000
0000
,
0001
0000
0000
0000
,
0001
0000
0000
0000
,
0100
0000
0000
0000
,
0100
0000
0000
0000
,
0100
0000
0000
0000
,
0100
0000
0000
0000
,
0010
0000
0000
0000
,
0100
0000
0000
0000
,
0010
0000
0000
0000
,
0000
0000
0000
0000
,
1000
0000
0000
0000
,
0001
0000
0000
0000
,
0100
0000
0000
0000
,
0010
0000
0000
0000
,
1000
0000
0000
0000
,
0001
0000
0000
0000
,
0100
0000
0000
0000
,
0010
0000
1000
0000
,
0001
0000
0000
0000
,
1000
0000
0000
0000
,
0010
0000
0000
0000
,
0100
0000
0000
0000
,
0001
0000
0000
0000
,
0000
0000
0000
0000
,
1000
0000
0000
0000
,
0010
0000
0000
0000
,
0100
0000
0000
0000
,
0000
0000
0000
0000
,
0001
0000
0000
0000
,
0100
0000
0000
0000
,
0010
0000
0000
0000
,
0000
0000
0000
0000
,
1000
0000
0000
0000
,
0000
0000
0000
0000
,
0001
0000
0000
0000
,
0100
0000
0000
0000
,
0001
0000
0000
0000
,
0100
0000
0000
0000
,
0010
0000
0000
0000
,
1000
0000
0000
0000
,
0010
0000
0000
0000
,
1000
0000
0000
0000
,
0001
0000
0000
0000
,
0100
0000
0000
0000
,
0010
0000
0000
0000
,
1000
0000
0000
0000
,
0001
0000
0000
0000
,
0100
0000
0000
0000
,
0001
0000
0000
0000
,
0000
0000
0000
0000
,
1000
0000
0000
0000
,
1000
0000
0000
0000
,
1000
0000
0000
0000
,
0010
0000
0000
0000
,
0010
0000
0000
0000
,
0100
0000
0000
0000
,
0100
0000
0000
0000
,
0001
0000
0000
0000
,
0001
0000
0000
0000
,
1000
0000
0000
0000
,
0010
0000
0000
0000
,
1000
0000
0000
0000
,
0001
0000
0000
0000
,
0100
0000
0000
0000
,
0001
0000
0000
0000
,
0000
0000
0000
0000
,
1000
0000
0000
0000
,
1000
0000
0000
0000
,
0010
0000
0000
0000
,
0010
0000
0000
0000
,
0100
0000
0000
0000
,
0100
0000
0000
0000
,
0001
0000
0000
0000
,
0001
0000
0000
0000
,
1000
0000
0000
0000
,
0010
0000
0000
0000
,
1000
0000
0000
0000
,
0001
0000
0000
0000
,
0100
0000
0000
0000
,
0001
0000
0000
0000
,
1000
0000
0000
0000
,
0001
0000
0000
0000
,
1000
0000
0000
0000
;
