#TITLE:What Is Wrong With The World (Cross Edit);
#SUBTITLE:;
#ARTIST:SADA;
#TITLETRANSLIT:;
#SUBTITLETRANSLIT:;
#ARTISTTRANSLIT:;
#CREDIT:SupremeX;
#BANNER:What Is Wrong With The World (Cross Edit).png;
#BACKGROUND:What Is Wrong With The World (Cross Edit)-bg.png;
#LYRICSPATH:;
#CDTITLE:CDTitle.png;
#MUSIC:What Is Wrong With The World (Cross Edit).mp3;
#OFFSET:-0.067;
#SAMPLESTART:25.050;
#SAMPLELENGTH:12.000;
#SELECTABLE:YES;
#DISPLAYBPM:*;
#BPMS:0.000=172.000,63.000=343.999,77.000=172.000,142.000=86.000,178.000=172.300,210.000=172.000;
#STOPS:77.000=0.400
;
#BGCHANGES:16.500=sea1.avi=1.000=0=0=1,
32.000=room1.avi=1.000=0=0=1,
41.000=web1.avi=1.000=0=0=1,
52.000=text31.avi=1.000=0=0=1,
63.000=What Is Wrong With The World (Cross Edit)-bg.png=1.000=0=0=1,
78.000=thunder2.avi=1.000=0=0=1,
94.000=snow4.avi=1.000=0=0=1,
109.500=tunnel12.avi=1.000=0=0=1,
126.000=tunnel11r.avi=1.000=0=0=1,
142.000=water1.avi=1.000=0=0=1,
146.000=web1.avi=1.000=0=0=1,
154.000=star3.avi=1.000=0=0=1,
162.000=text31.avi=1.000=0=0=1,
170.000=snow4.avi=1.000=0=0=1,
178.000=sea1.avi=1.000=0=0=1,
194.000=thunder2.avi=1.000=0=0=1,
210.000=room1.avi=1.000=0=0=1,
226.000=tunnel12.avi=1.000=0=0=1,
242.000=text31.avi=1.000=0=0=1,
258.000=snow4.avi=1.000=0=0=1,
274.000=water1.avi=1.000=0=0=1,
280.500=What Is Wrong With The World (Cross Edit)-bg.png=1.000=0=0=1,
99999=-nosongbg-=1.000=0=0=0 // don't automatically add -songbackground-
;

//---------------dance-single - ----------------
#NOTES:
     dance-single:
     :
     Easy:
     5:
     0.383,0.541,0.263,0.109,0.000:
0000
0000
0000
0000
,
0000
0000
0000
0000
,
0000
0000
0000
0000
,
0000
0000
0000
0000
,
0000
1000
0100
0010
,
0001
0000
1000
0100
,
1000
0000
0001
0010
,
0001
0100
0010
0100
,
0001
0000
1000
0010
,
1000
0001
0100
0001
,
1000
0001
1000
0010
,
0100
0010
1000
0100
,
1000
0001
0100
0010
,
0010
1000
0100
1000
,
0001
0010
0001
1000
,
0010
1000
0001
0120
,
0000
0000
0000
0000
,
0000
0000
0000
0000
,
0000
0000
0000
0000
,
0000
1030
0100
1000
,
0010
0100
0010
1000
,
0001
0100
0100
0001
,
0010
0001
1000
0100
,
1000
0010
0010
0100
,
0001
0100
0010
1000
,
0010
0100
0100
0001
,
0010
0001
1000
0100
,
1000
0001
0100
0110
,
0001
1001
0010
0110
,
1000
1001
0010
1010
,
0001
0101
0010
1010
,
0001
1001
1000
1100
,
0001
0011
1000
1100
,
0001
0101
0001
1001
,
0010
0110
1000
1001
,
0001
0101
0020
0000
,
0000
0000
0000
0030
1000
0001
0100
0010
,
1000
0001
0100
0010
0100
0001
1000
0010
,
0100
0100
0100
0100
0001
0010
0100
1000
,
0010
0100
0100
0001
1000
0010
0100
0001
,
1000
0010
1000
0001
0100
0100
0010
0010
,
1000
1000
0001
0001
0100
0100
0010
0010
,
1000
0100
0010
0001
0100
0010
0100
0001
,
1000
0010
0100
0001
1000
0010
0100
0001
,
1000
1000
1000
1000
0010
0000
0100
0000
,
0010
1000
0100
1000
,
0001
0010
0001
0100
,
0010
0100
0001
1000
,
0001
0001
0100
0010
,
1000
0001
1010
0100
,
0001
1000
1001
0010
,
0100
0001
1001
0100
,
0001
1000
0102
0000
,
1000
0000
1003
0000
,
0010
0100
0001
0000
,
0120
0000
0130
0000
,
0001
0000
1000
0100
,
1020
0000
0130
0000
,
0001
1000
0001
0000
,
0102
0000
1003
0010
,
0100
0010
1000
0001
,
1000
0100
0021
0000
,
0031
0000
1000
0000
,
0010
1000
0120
0000
,
0130
0000
0001
1000
,
0001
1000
1200
0000
,
0310
0000
0001
1000
,
0010
1000
1020
0000
,
0130
0000
0001
1000
,
0010
0100
2002
0000
,
0000
3003
0000
0000
;

//---------------dance-single - Copied from----------------
#NOTES:
     dance-single:
     Copied from:
     Medium:
     8:
     0.490,0.540,0.190,0.172,0.154: // measure 1
0000
0000
0000
0000
,  // measure 2
0000
0000
0000
0000
,  // measure 3
0000
0000
0000
0000
,  // measure 4
0000
0000
0000
0000
,  // measure 5
1000
0100
0010
0001
0100
0010
1000
0001
,  // measure 6
0100
0000
0000
0000
0010
1000
0001
0100
,  // measure 7
0100
0000
0001
1000
0001
1000
0010
0010
,  // measure 8
0100
0001
0100
0010
1000
0010
0100
0001
,  // measure 9
1000
0000
0000
0000
0010
0100
0010
1000
,  // measure 10
0001
0000
0100
0000
0001
0000
1000
0001
,  // measure 11
0100
0000
0010
0000
1000
0100
0010
0001
,  // measure 12
0100
0010
1000
0010
0100
0001
1000
0010
,  // measure 13
0010
0000
0100
0000
0001
1000
0010
0100
,  // measure 14
0100
0000
0001
0000
1000
0100
0010
0001
,  // measure 15
0100
0000
0010
0000
1000
0010
0100
0000
,  // measure 16
1000
0000
0000
0010
0000
0000
0001
0000
1001
0000
0000
0000
0210
0000
0000
0000
,  // measure 17
0000
0000
0000
0000
,  // measure 18
0000
0000
0000
0000
,  // measure 19
0000
0000
0000
0000
,  // measure 20
0000
0000
0000
0000
0301
0000
0000
0000
0010
1000
0000
0000
0010
0000
0000
0000
,  // measure 21
0100
0001
0000
0000
0100
0000
0000
0000
0010
1000
0000
0000
0010
0000
0000
0000
,  // measure 22
0100
0001
0000
0000
0100
0000
0000
0000
0010
1000
0000
0000
0010
0000
0000
0000
,  // measure 23
0100
0001
0000
0000
0100
0000
0000
0000
0010
0100
0000
0000
0010
0000
0000
0000
,  // measure 24
1000
0000
0000
0000
0001
1000
0001
0000
1000
0000
0000
0000
0010
0000
0000
0010
,  // measure 25
0100
0000
0000
0000
0001
0000
0000
0001
0010
0000
0000
0000
0010
0000
0000
0000
,  // measure 26
0010
0100
0000
0000
0100
0000
0000
1000
0100
0000
0000
0000
0100
0000
0000
0100
,  // measure 27
0010
0000
0000
0000
0010
0000
0000
0000
0010
0001
0000
0000
0001
0000
0000
0000
,  // measure 28
1000
0000
0100
0000
0010
0000
0001
0000
0000
1000
0000
0000
0200
0000
0000
0000
,  // measure 29
0000
0310
0000
0000
0002
0000
0000
0000
0000
0103
0000
0000
2100
0000
0000
0000
,  // measure 30
0000
3010
0000
0000
0210
0000
0000
0000
0000
0310
0000
0000
0012
0000
0000
0000
,  // measure 31
0000
1003
0000
0000
2001
0000
0000
0000
0000
3010
0000
0000
0210
0000
0000
0000
,  // measure 32
0000
0310
0000
0000
1000
0001
1000
0001
0000
0110
0000
0000
0110
0000
0000
0000
,  // measure 33
0000
1010
0000
0000
1010
0000
0000
0000
0000
0101
0000
0000
0101
0000
0000
0000
,  // measure 34
0000
1100
0000
0000
1100
0000
0000
0000
0000
0110
0000
0000
0110
0000
0000
0000
,  // measure 35
0000
0011
0000
0000
0011
0000
0000
0000
0000
1001
0000
0000
1001
0000
0000
0000
,  // measure 36
0100
0000
0000
0001
0000
0000
0100
0010
0200
0000
0000
0000
0000
0000
0000
0000
,  // measure 37
0000
0000
0000
0300
0001
0010
0100
1000
,  // measure 38
0010
0100
0001
1000
0010
0100
0001
1000
,  // measure 39
0010
0010
0010
0010
0100
0001
1000
0010
,  // measure 40
0100
0001
0001
1000
0010
0100
0010
0100
,  // measure 41
0001
1000
0001
1000
0010
0010
0100
0100
,  // measure 42
0001
0001
1000
1000
0010
0010
0100
0100
,  // measure 43
0001
1000
0001
1000
0010
0100
0001
1000
,  // measure 44
0010
0100
0001
1000
0010
0100
0001
1000
,  // measure 45
0010
0010
0010
0010
0100
0000
0001
1000
,  // measure 46
0010
0100
0001
1000
0010
0000
0100
0010
,  // measure 47
0100
0001
1000
0100
1000
0000
0010
0100
,  // measure 48
0001
0100
0010
1000
0001
0000
0100
0000
,  // measure 49
0001
0000
1000
0000
0010
0000
1000
0010
,  // measure 50
0100
0001
0100
0010
1000
0000
0001
1000
,  // measure 51
0100
1000
0010
0100
0010
0000
1000
0100
,  // measure 52
0010
0001
0100
0010
1000
0001
0100
0010
,  // measure 53
0100
0010
0010
0000
2000
0000
0000
0000
,  // measure 54
0000
0001
3001
0020
,  // measure 55
0100
0100
0130
1000
,  // measure 56
0001
0200
0001
0001
,  // measure 57
0301
1000
0010
1000
,  // measure 58
0100
0010
0002
1000
,  // measure 59
1000
0000
1000
0003
0010
0000
0100
0000
,  // measure 60
0001
0200
0010
0010
,  // measure 61
0010
0300
0000
0000
1000
0000
0010
0000
,  // measure 62
0100
0001
0000
2000
0000
0000
0000
0000
,  // measure 63
0000
0000
0000
3000
0010
0000
0100
0000
,  // measure 64
0001
1000
0000
0020
0000
0000
0100
0000
,  // measure 65
0100
1000
1030
0001
,  // measure 66
0100
0100
0002
1000
,  // measure 67
1000
0100
0103
0001
,  // measure 68
1000
0010
0100
0001
,  // measure 69
1000
0010
2000
0000
,  // measure 70
0000
0000
0000
0002
0000
0000
0000
0000
,  // measure 71
0000
3003
0000
0000
0000
0000
0000
0000
;

//---------------dance-single - Copied from----------------
#NOTES:
     dance-single:
     Copied from:
     Hard:
     10:
     0.809,1.000,0.489,0.235,0.811:
0000
0000
0000
0000
,
0000
0000
0000
0000
,
0000
0000
0000
0000
,
0000
0000
0000
0000
,
1000
0001
0010
0100
1000
0010
0100
0001
,
0101
0000
0010
1000
0001
0100
0001
1000
,
1010
0000
0001
0100
0001
1000
0010
0100
,
0110
0001
0010
0100
1000
0001
0100
0001
,
1001
0000
0000
0000
0001
0100
0010
1000
,
0001
1000
0010
0100
0010
1000
0001
1000
,
1010
0000
0001
0000
0100
0010
0100
0001
,
1000
0010
1000
0001
0010
0100
1000
0001
,
0101
0000
0010
0000
1000
0001
1000
0010
,
0110
0000
1000
0000
0001
0010
0100
1000
,
1010
0000
0001
0000
1000
0001
0100
0000
,
1010
0000
0000
0101
0000
0000
0010
0000
1010
0000
0000
0000
0201
0000
0000
0000
,
0000
0000
0000
0000
,
0000
0000
0000
0000
,
0000
0000
0000
0000
,
0000
0000
0000
0000
0301
0000
0000
0000
1000
0010
0000
1000
0010
0000
0000
0000
,
0100
0001
0000
0100
0001
0000
0000
0000
1000
0010
0000
0100
0001
0000
0000
0000
,
1000
0010
0000
0100
0001
0100
0001
0000
1000
0010
0000
1000
0010
0000
0000
0000
,
0100
0001
0000
0100
0001
0000
0000
0000
1000
0010
0000
0100
0001
0000
0000
0000
,
1000
0000
0010
0100
0001
1000
0010
0100
0001
0000
1000
0010
0000
0000
0000
0100
,
0001
0000
0001
0100
0000
0000
0000
0010
1000
0000
1000
0010
0000
0000
0000
0001
,
0100
0000
0100
0001
0000
0000
0000
1000
0100
0000
1000
0100
0000
0000
0000
0010
,
0001
0000
0010
0001
0000
0000
0000
0100
0010
0000
1000
0001
0100
0010
1000
0001
,
0100
0010
1000
0100
0010
0001
0100
0000
0000
0110
0000
0000
1020
0000
0000
0030
,
0000
1010
0000
0000
0102
0000
0000
0003
0000
0101
0000
0000
2100
0000
0000
3000
,
0000
1100
0000
0000
0012
0000
0000
0003
0000
0011
0000
0000
2010
0000
0000
3000
,
0000
1010
0000
0000
1002
0000
0000
0003
0000
1001
0000
0000
0210
0000
0000
0000
,
0000
0310
0000
0000
1000
0001
1000
0001
0000
0101
0000
0000
0202
0000
0303
0000
,
0000
1010
0000
0000
2020
0000
3030
0000
0000
0110
0000
0000
0220
0000
0330
0000
,
0000
1100
0000
0000
2200
0000
3300
0000
0000
0110
0000
0000
0220
0000
0330
0000
,
0000
0011
0000
0000
0022
0000
0033
0000
0000
0001
0100
0000
0001
1000
0010
0100
,
0001
1000
0010
0100
0001
0000
1000
0010
0200
0000
0000
0000
0000
0000
0000
0000
,
0000
0000
0000
0000
0000
0000
0000
0000
0000
0000
0000
0000
0300
0000
0000
0000
1001
0000
0000
0000
0110
0000
0000
0000
0010
0100
0010
0100
0010
0100
0010
0100
,
0010
0100
0010
0100
0010
0100
0010
0100
0000
0000
0000
0000
0001
0000
0000
0000
0001
0000
0000
0000
0100
0000
0100
0000
0010
0000
0010
0000
1000
0000
1000
0000
,
0001
0100
0001
0100
0001
0100
0001
0100
0001
0100
0001
0100
0001
0000
0000
0000
0100
0000
0000
0000
0010
0000
0000
0000
1000
0001
1000
0001
1000
0001
1000
0001
,
1000
0001
1000
0001
1000
0001
1000
0001
1000
0000
0000
0000
0010
0000
0000
0000
0100
0000
0000
0000
0010
0000
0010
0000
1000
0000
1000
0000
0001
0000
0001
0000
,
1000
0010
1000
0010
1000
0010
1000
0010
1000
0010
1000
0010
1000
0000
0000
0000
0001
0000
0000
0000
1000
0000
0000
0000
0010
0100
0010
0100
0010
0100
0010
0100
,
0010
0100
0010
0100
0010
0100
0010
0100
0000
0000
0000
0000
0000
0000
0000
0000
1000
0000
1000
0000
0100
0000
0100
0000
0010
0000
0010
0000
0001
0000
0000
0000
,
0100
0001
0100
0001
0100
0001
0100
0001
0100
0001
0100
0001
0100
0000
0000
0000
0010
0000
0000
0000
0110
0000
0000
1000
0100
1000
0100
1000
0100
1000
0100
1000
,
0100
1000
0100
1000
0100
1000
0100
1000
0100
0000
0000
0000
0010
0000
0000
0000
0110
0000
0000
0000
0001
0000
0001
0000
1000
0000
1000
0000
0100
0000
0100
0000
,
0010
0001
0010
0001
0010
0001
0010
0001
0010
0001
0010
0001
0010
0000
0000
0000
0001
0000
0000
0000
0000
0000
0000
0000
1000
0000
0000
0000
0100
0000
0000
0000
,
0010
0001
0100
0010
1010
0100
0001
1000
,
0010
0100
0001
1000
1001
0000
0010
0100
,
0001
0000
1000
0000
0010
0000
0100
0000
0001
0010
0001
0010
0001
0010
0001
0010
,
0001
0010
0001
0010
0001
0000
0000
0000
1000
0000
0000
0000
0100
0000
0010
0000
,
0001
1000
0010
1000
1010
0000
0100
0001
,
1000
0010
0100
0001
1001
0000
0100
0010
,
1000
0000
0001
0000
0100
0000
0010
0000
1000
0100
1000
0100
1000
0100
1000
0100
,
1000
0100
1000
0100
1000
0000
0000
0000
0011
0000
0000
0000
1000
0000
0010
0000
,
0100
0001
1000
0010
0110
0000
0001
1000
,
0001
0100
0010
1000
1001
0000
0010
1000
,
0001
0000
0100
0000
0010
0000
1000
0000
0001
0100
0010
1000
0010
0100
0001
0100
,
0010
1000
0010
0000
0100
0000
0001
0000
0101
0000
0000
0000
0010
0000
1000
0000
,
0010
0100
0001
1000
1001
0000
0010
0100
,
0001
1000
0010
0100
0110
0000
0001
1000
,
0010
0000
1000
0000
0001
0000
0100
0010
0100
0010
0100
0000
0001
1000
0001
1000
,
0001
0100
0001
0100
0001
0000
1000
0000
1010
0000
0000
0000
0001
0000
1000
0000
,
0010
0100
0000
0002
1000
0000
1000
0000
,
1000
0000
1000
0000
1003
0000
0010
0100
,
0010
1000
0001
2000
0010
0000
0010
0000
,
0010
0000
0010
0000
3010
0000
0100
0001
,
1000
0010
0100
0002
0100
0000
0100
0000
,
0100
0000
0100
0000
0103
0000
0010
1000
,
0010
0100
0001
1000
0000
0100
0000
0010
,
0001
0000
0100
0000
0001
0000
1000
1000
,
0010
0100
0000
2002
0000
0000
0000
0000
,
0000
3003
0000
0000
0000
0000
0000
0000
;

//---------------dance-single - Copied from----------------
#NOTES:
     dance-single:
     Copied from:
     Beginner:
     2:
     0.164,0.289,0.000,0.082,0.000:
0000
0000
0000
0000
,
0000
0000
0000
0000
,
0000
0000
0000
0000
,
0000
0000
0000
0000
,
0000
0000
1000
0000
,
0010
0000
0100
0000
,
0001
0000
1000
0000
,
0010
0000
0100
0000
,
0001
0000
0010
0000
,
0010
0000
0100
0000
,
0100
0000
1000
0000
,
0010
0000
0100
0000
,
0001
0000
1000
0000
,
1000
0000
0001
0000
,
0001
0000
0100
0000
,
0010
0000
0010
2000
,
0000
0000
0000
0000
,
0000
0000
0000
0000
,
0000
0000
0000
0000
,
0000
3000
0000
0010
,
0000
0100
0000
0010
,
0000
1000
0000
0001
,
0000
1000
0000
0001
,
0000
0010
0000
0001
,
0000
0100
0000
0010
,
0000
1000
0000
0100
,
0000
1000
0000
0001
,
0000
0010
0000
0001
,
0000
0100
0000
0010
,
0000
0100
0000
0010
,
0000
1000
0000
0010
,
0000
0100
0000
0001
,
0000
0100
0000
0001
,
0000
0010
0000
0100
,
0000
1000
0000
0001
,
0000
0000
0100
0002
0000
0000
0000
0000
,
0000
0000
0000
0003
0000
0000
2000
0000
,
0000
3000
0010
0000
,
0100
0100
0001
0000
,
0020
0000
0000
0030
0100
0000
1000
0000
,
0001
0001
0100
0000
,
0010
0010
1000
0010
,
0200
0000
0000
0300
0010
0000
1000
0000
,
0001
0001
1000
0010
,
2000
0000
0000
3000
0000
0000
0000
0000
,
0100
0000
0010
0000
,
0001
0000
1000
0000
,
0100
0000
0020
0000
,
0000
0030
0000
0000
,
0001
0000
1000
0000
,
0100
0000
0010
0000
,
0001
0000
0200
0000
,
0000
0300
0000
0000
,
0010
0000
1000
0000
,
0000
0000
0000
0000
,
0001
0000
0010
0000
,
0001
0000
1000
0000
,
0100
0000
1000
0000
,
0000
0000
0000
0000
,
0010
0000
0100
0000
,
0010
0000
1000
0000
,
0001
0000
1000
0000
,
0000
0000
0000
0000
,
0001
0000
0100
0000
,
0010
0000
1000
0000
,
0001
0000
0100
0000
,
0000
0000
0000
0000
,
0010
0000
1000
0000
,
0100
0000
0010
0000
,
0001
0200
0000
0000
,
0000
0000
0000
0000
0000
0000
0000
0300
;

//---------------dance-single - Copied from----------------
#NOTES:
     dance-single:
     Copied from:
     Challenge:
     12:
     0.908,1.000,1.000,0.281,0.865:
0000
0000
0000
0000
,
0000
0000
0000
0000
,
0000
0000
0000
0000
,
0000
0000
0000
0000
,
1001
0001
0100
0010
0110
1000
1010
0110
,
0101
0000
0100
0110
0001
1000
1100
0101
,
1001
0000
1000
0010
0110
0001
0100
0101
,
1000
0100
0010
1001
0100
0110
0010
1000
,
1001
0000
0000
0000
0001
0110
0001
1010
,
0001
1010
0100
0010
0100
1001
0001
0100
,
1001
0000
0001
0000
0100
0010
1000
0001
,
0100
0000
0001
0100
0010
0100
0010
0000
1000
0010
1000
0010
0100
0000
0101
0000
,
1001
0000
0001
0000
0100
0101
0010
1010
,
0110
0000
0001
0000
1000
0010
0100
0101
,
1001
0000
0010
0000
1000
0001
0101
0000
,
1010
0000
0000
0101
0000
0000
0010
0000
1010
0000
0000
0000
0202
0000
0000
0000
,
0000
0000
0000
0000
,
0000
0000
0000
0000
,
0000
0000
0000
0000
,
0003
0000
0000
0000
0301
0000
0000
0000
1000
0010
0000
1000
0010
0000
0000
0000
,
0100
0001
0000
0100
0001
0000
0000
0000
1000
0010
0000
0010
1000
0000
0000
0000
,
0100
0001
0000
0001
0010
0100
1000
0000
0100
0010
0000
0010
0100
0000
0000
0000
,
0001
0100
0000
0100
0001
0000
0000
0000
1000
0010
0000
0010
1000
0000
0000
0000
,
0010
0000
0001
0100
0001
1000
0010
0100
0001
0000
1000
0001
0000
0000
0000
0010
,
0100
0000
0010
0100
0000
0000
0000
0001
1000
0000
0001
1000
0000
0000
0000
0010
,
0100
0000
0010
0100
0000
0000
0000
0010
1000
0000
0010
1000
0000
0000
0000
0001
,
0100
0000
0001
0100
0000
0000
0000
0010
0100
0000
0010
0100
1000
0001
0100
0010
,
0001
0100
0010
1000
0100
0010
0001
0000
0000
1100
0000
0000
0021
0030
0000
0000
,
0000
1010
0000
0000
0012
0003
0000
0000
0000
1100
0000
0000
2020
3030
0000
0000
,
0000
0101
0000
0000
2001
3000
0000
0000
0000
1010
0000
0000
2200
3300
0000
0000
,
0000
0110
0000
0000
2002
3003
0000
0000
0000
0011
0000
0000
0012
0000
0003
0000
,
0000
1000
0000
0000
0010
0100
0010
0100
0000
0101
0000
0000
2002
0000
3003
0000
,
0000
1010
0000
0000
2002
0000
3003
0000
0000
0110
0000
0000
0220
0000
0330
0000
,
0000
1100
0000
0000
2200
0000
3300
0000
0000
0110
0000
0000
0220
0000
0330
0000
,
0000
0011
0000
0000
0022
0000
0033
0000
0000
1001
0010
0000
0100
0010
1000
0001
,
0100
0010
1000
0001
0100
0000
0010
0100
0220
0000
0000
0000
0000
0000
0330
0000
,
1000
0000
0000
0001
0000
0000
0001
0000
1000
0010
0000
0100
0001
1000
0010
0000
0110
0000
0000
0000
0110
0000
0000
0000
0010
1000
0100
1000
0010
1000
0100
1000
,
0010
1000
0100
1000
0010
1000
0100
1000
0000
0000
0000
0000
0001
0000
0000
0000
0001
0000
0000
0000
0100
0000
0100
0000
0010
0000
0010
0000
1000
0000
1000
0000
,
0010
0100
0001
1000
0010
0100
0001
1000
0010
0100
0001
1000
0010
0000
0000
0000
0100
0000
0000
0000
0001
0000
0000
0000
1000
0001
0100
0010
1000
0001
0100
0010
,
1000
0001
0100
0010
1000
0001
0100
0010
1000
0000
0000
0000
0100
0000
0000
0000
0010
0000
0000
0000
1000
0000
1000
0000
0001
0000
0001
0000
0100
0000
0100
0000
,
0001
1000
0010
1000
0100
1000
0010
1000
0100
1000
0010
1000
0100
0000
0000
0000
0101
0000
0000
0000
1010
0000
0000
0000
1000
0001
0100
0001
1000
0001
0010
0001
,
1000
0001
0100
0001
1000
0001
0010
0001
0000
0000
0000
0000
0000
0000
0000
0000
1000
0000
1000
0000
0001
0000
0001
0000
0100
0000
0100
0000
0001
0000
0000
0000
,
0001
1000
0010
0100
0001
1000
0010
0100
0001
1000
0010
0100
0001
0000
0000
0000
0110
0000
0000
0000
1000
0000
0000
0001
0100
0010
1000
0001
0100
0010
1000
0001
,
0100
0010
1000
0001
0100
0010
1000
0001
0100
0000
0000
0000
1001
0000
0000
0000
0110
0000
0000
0000
0001
0000
0010
0000
0100
0000
1000
0000
0010
0000
0100
0000
,
1000
0100
1000
0010
1000
0100
1000
0010
1000
0100
1000
0010
1000
0000
0000
0000
1001
0000
0000
0000
0000
0000
0000
0000
1000
0000
0000
0000
0001
0000
0000
0000
,
0100
0010
1001
1001
1010
0100
0001
1000
,
0010
0100
1001
1100
1001
0000
1000
0010
,
0100
0000
0011
0000
1010
0000
0001
0000
0100
0010
0100
0001
0100
0010
0100
0001
,
0100
0010
0100
0001
0100
0000
0000
0000
0010
0000
0000
0000
1000
0000
0010
0000
,
1010
0001
0110
0010
0101
0000
1000
0001
,
0100
0010
1100
0110
1001
0000
0001
1000
,
0010
0000
0100
0000
0101
0000
0001
0000
1000
0100
1000
0001
1000
0100
1000
0001
,
1000
0100
1000
0001
1000
0000
0000
0000
0110
0000
0000
0000
1000
0000
0010
0000
,
0100
0001
1001
1010
0110
0000
0001
1000
,
0010
0100
0101
1010
1001
0000
0010
1000
,
0001
0000
0100
0000
0010
0000
1000
0000
0001
0100
0010
1000
0001
0100
0010
1000
,
0001
0100
0010
0000
1001
0000
0110
0000
0101
0000
0000
0000
0010
0000
1000
0000
,
0010
0100
0101
1001
1010
0000
0100
0001
,
1000
0001
1010
1001
1010
0000
0001
1000
,
0010
0000
1000
0000
0001
0000
0100
0010
0100
0001
0100
0010
0001
1000
0001
0100
,
0001
1000
0001
0100
0001
0010
1000
0000
1001
0000
0000
0000
0100
0000
0010
0000
,
1000
0110
0000
0002
1000
0000
0100
0000
,
1000
0000
0100
0003
1000
0000
0101
0001
,
0101
1000
0001
2000
0010
0000
0001
0000
,
0010
0000
0001
0000
0010
3000
0100
0001
,
0010
1010
0100
0002
1000
0000
0100
0000
,
1000
0000
0100
0000
1003
0000
0010
1000
,
0010
0100
0001
1001
0000
0110
0000
0101
,
0100
0000
1010
0000
1001
0000
0100
0110
,
1000
1001
0000
2002
0000
0000
0000
0000
,
0000
3003
0000
0000
0000
0000
0000
0000
;
