#TITLE:UP & DOWN (hott 22 vocal mix);
#SUBTITLE:;
#ARTIST:SCENT;
#TITLETRANSLIT:;
#SUBTITLETRANSLIT:;
#ARTISTTRANSLIT:;
#GENRE:;
#CREDIT:SupremeX;
#BANNER:UP & DOWN.png;
#BACKGROUND:UP & DOWN-bg.png;
#LYRICSPATH:;
#CDTITLE:CDTitle.png;
#MUSIC:UP & DOWN (hott 22 vocal mix).ogg;
#OFFSET:-0.028301;
#SAMPLESTART:15.260000;
#SAMPLELENGTH:12.000000;
#SELECTABLE:YES;
#BPMS:0.000000=128.000000
;
#STOPS:
;
#BGCHANGES:32.500=12 Night.avi=1.000=0=0=1=====,
40.000=text16.avi=1.000=0=0=1=====,
48.000=8 Moon.avi=1.000=0=0=1=====,
64.500=12 Night.avi=1.000=0=0=1=====,
72.000=text16.avi=1.000=0=0=1=====,
82.000=disco3.avi=1.000=0=0=1=====,
96.250=hana160.avi=1.000=0=0=1=====,
128.500=6 JumpBack.avi=1.000=0=0=1=====,
142.500=highway2.avi=1.000=0=0=1=====,
160.500=8 Moon.avi=1.000=0=0=1=====,
174.500=nyc1.avi=1.000=0=0=1=====,
185.000=UP & DOWN-bg.png=1.000=0=0=1=====,
192.500=12 Night.avi=1.000=0=0=1=====,
200.000=nyc1.avi=1.000=0=0=1=====,
206.500=disco3.avi=1.000=0=0=1=====,
224.250=text16.avi=1.000=0=0=1=====,
236.250=UP & DOWN-bg.png=1.000=0=0=1=====,
99999=-nosongbg-=1.000=0=0=0 // don't automatically add -songbackground-
;
#KEYSOUNDS:;
#ATTACKS:;

//---------------dance-single - ----------------
#NOTES:
     dance-single:
     :
     Hard:
     7:
     0.359660,0.384562,0.138903,0.069452,0.156266,290.000000,274.000000,16.000000,8.000000,0.000000,0.000000,0.359660,0.384562,0.138903,0.069452,0.156266,290.000000,274.000000,16.000000,8.000000,0.000000,0.000000:
0000
0000
0000
0000
,
0000
0000
0000
0000
,
0000
0000
0000
0000
,
0000
0000
0000
0000
,
0000
1000
0100
0010
0000
0001
0100
0001
,
0000
0010
0100
1000
0000
0010
0100
0010
,
0000
1000
0100
0010
0000
0100
0001
0100
,
0010
0000
0000
1000
0000
0000
0100
0000
0000
0000
0010
0000
0000
0000
0001
0000
,
0000
0011
0000
0000
0000
0100
1000
0010
,
0200
0000
0000
0300
0000
0001
0010
0100
,
2000
0000
3000
0001
0100
0010
0010
0000
,
1000
0000
0010
0000
0000
0100
0100
0000
,
0001
0000
0010
0000
0001
0000
0100
0010
,
0000
1000
0000
0000
0010
0000
0100
0000
0000
0001
0000
0000
0100
0000
0010
0000
,
0000
1000
0000
0000
0001
0000
0010
0000
0000
0001
0000
0000
1000
0000
1000
0000
,
0000
0100
0000
0000
0010
0000
0010
0000
0000
0001
0000
0000
0100
0000
0100
0000
,
0000
0010
0000
0000
0000
1000
0100
1000
,
0002
0000
0000
0003
0000
0010
0100
0010
,
2000
0000
3000
0100
0010
0001
0100
0000
,
0110
0000
0010
0000
0000
0100
0100
0000
,
0001
0000
1001
0000
1000
0000
0000
0001
,
0000
0001
0000
0000
0010
0000
0100
0000
0000
0100
0000
0000
1000
0000
0010
0000
,
0000
0010
0000
0000
0100
0000
0001
0000
0000
0001
0000
0000
0010
0000
0100
0000
,
0000
0100
0000
0000
1000
0000
0100
0000
0000
0100
0000
0000
0010
0000
0001
0000
,
0000
0001
0000
0000
0010
0000
1000
0000
0000
1000
0000
0000
0100
0000
0001
0000
,
0000
0001
0000
0000
0010
0000
1000
0000
0000
1000
0000
0000
0100
0000
0001
0000
,
0000
0001
0000
0000
0010
0000
0100
0000
0000
0100
0000
0000
1000
0000
0010
0000
,
0000
0010
0000
0000
0100
0000
0001
0000
0000
0001
0000
0000
0000
0000
0000
0000
,
0000
0000
0000
0000
1000
0000
0000
0010
0000
0000
1000
0000
0000
0000
0110
0000
,
0000
0000
0000
0000
0001
0000
0000
0100
0000
0000
0001
0000
0000
0000
0110
0000
,
0000
0000
0000
0000
1000
0000
0000
0100
0000
0000
1000
0000
0000
0000
0101
0000
,
0000
0000
0000
0000
0001
0000
0000
0010
0000
0000
0001
0000
0000
0000
1010
0000
,
0000
0200
0000
0310
0000
0001
0010
0001
,
0100
0010
0000
1000
0000
0001
0100
1000
,
0100
0001
0000
1000
0000
0010
0100
0001
,
1000
0001
0000
0100
0000
0010
0001
0010
,
0000
0100
0000
1000
0000
0001
0000
0100
,
0000
0010
0000
1000
0000
0001
0000
0100
,
0010
0100
0001
0000
1000
0000
0000
0000
,
0000
0000
0200
0000
0010
0310
0000
0000
,
0000
0001
0000
0010
0000
1000
0100
1000
,
0010
0000
0000
0100
0000
0010
0000
0100
,
0001
0100
0000
0010
0000
1000
0001
0010
,
0001
0000
0000
1000
0000
0001
0100
1000
,
0100
0000
0110
0000
0011
0000
0000
0100
,
0000
0010
0000
1000
0000
0001
0000
1000
,
0010
0100
0010
0000
1000
0000
0000
0000
,
0100
0000
0000
0010
0000
0001
0000
1000
,
0000
1001
0000
0000
0000
0100
0010
0100
,
0002
0000
0000
1003
0000
0010
0100
0010
,
2000
0000
0000
3010
0100
0001
0100
0000
,
1001
0000
0110
0000
0000
1000
0001
0100
,
0001
0000
0110
0000
1010
0000
0001
0100
,
0000
0100
0000
0000
0010
0000
1000
0000
0000
1000
0000
0000
0000
0000
0100
0000
,
0001
0100
0010
0000
1001
0000
0001
0100
,
0000
0100
0000
0000
0010
0000
1000
0000
0000
1000
0000
0000
0100
0000
0010
0000
,
0000
0010
0000
0000
0001
0000
0100
0000
0000
0100
0000
0000
0010
0000
1000
0000
,
0000
1000
0000
0000
0100
0000
0001
0000
0000
0001
0000
0000
0010
0000
1000
0000
,
0000
1000
0000
0000
0010
0000
0100
0000
0000
0001
0000
0000
1000
0000
0010
0000
,
0000
1001
0000
0000
0000
0000
0000
0000
0000
0000
0000
0000
0000
0000
0000
0000
;

//---------------dance-single - ----------------
#NOTES:
     dance-single:
     :
     Medium:
     5:
     0.279047,0.307649,0.095496,0.095496,0.160607,225.000000,214.000000,11.000000,11.000000,0.000000,0.000000,0.279047,0.307649,0.095496,0.095496,0.160607,225.000000,214.000000,11.000000,11.000000,0.000000,0.000000:
0000
0000
0000
0000
,
0000
0000
0000
0000
,
0000
0000
0000
0000
,
0000
0000
0000
0000
,
0000
1000
0000
0010
0000
1000
0000
0001
,
0000
0100
0000
0010
0000
1000
0000
0100
,
0000
1000
0000
0001
0000
0100
0000
0100
,
0010
0000
0000
0010
0000
0000
1000
0000
0000
0000
0001
0000
0000
0000
1000
0000
,
0000
1001
0000
0000
0000
0010
0000
0100
,
0002
0000
0000
0003
0000
0010
0000
0100
,
2000
0000
3000
0010
0100
0010
0100
0000
,
0001
0000
1000
0000
0000
0010
0010
0000
,
0100
0000
0001
0000
0100
0000
0000
0010
,
0000
0010
0000
0000
0000
0000
1000
0000
0000
1000
0000
0000
0000
0000
0100
0000
,
0000
0100
0000
0000
0000
0000
0010
0000
0000
0010
0000
0000
0000
0000
0001
0000
,
0000
0001
0000
0000
0000
0000
0100
0000
0000
0100
0000
0000
0000
0000
0010
0000
,
0000
1000
0000
0000
0000
0100
0000
0010
,
0002
0000
0000
0003
0000
0010
0000
0100
,
2000
0000
3000
0000
0010
0100
0010
0000
,
1000
0000
1000
0000
0000
0100
0010
0000
,
0001
0000
0100
0000
0020
0000
0000
1030
,
0000
1000
0000
0000
0000
0000
0001
0000
0000
0001
0000
0000
0000
0000
0100
0000
,
0000
0100
0000
0000
0000
0000
0010
0000
0000
0010
0000
0000
0000
0000
1000
0000
,
0000
1000
0000
0000
0000
0000
0100
0000
0000
0100
0000
0000
0000
0000
0010
0000
,
0000
0010
0000
0000
0000
0000
0001
0000
0000
0001
0000
0000
0000
0000
1000
0000
,
0000
0100
0000
0000
0000
0000
0010
0000
0000
0001
0000
0000
0000
0000
0100
0000
,
0000
0010
0000
0000
0000
0000
1000
0000
0000
0001
0000
0000
0000
0000
0100
0000
,
0000
0001
0000
0000
0000
0000
1000
0000
0000
0010
0000
0000
0000
0000
0000
0000
,
0000
0000
0000
0000
0100
0000
0000
0001
0000
0000
0101
0000
0000
0000
1000
0000
,
0000
0000
0000
0000
0100
0000
0000
0010
0000
0000
1010
0000
0000
0000
0001
0000
,
0000
0000
0000
0000
1000
0000
0000
0100
0000
0000
1100
0000
0000
0000
0010
0000
,
0000
0000
0000
0000
0001
0000
0000
0010
0000
0000
0011
0000
0000
0000
1000
0000
,
0000
0200
0000
0310
0000
0001
0000
1000
,
0000
0010
0000
1000
0000
0001
0000
0100
,
0010
0100
0000
0001
0000
1000
0000
0010
,
0000
0100
0000
0001
0000
1000
0010
0000
,
0100
0000
0001
0000
0100
0000
0000
0010
,
0000
1000
0000
0010
0000
0100
0000
0001
,
0000
0001
1000
0000
0200
0000
0000
0300
,
0000
0000
0000
0000
0010
0000
0000
0001
0000
0000
0100
0000
0000
0000
0000
0000
,
0000
0001
0000
0010
0000
1000
0000
1000
,
0100
0000
0000
0001
0000
1000
0000
0010
,
0000
0010
0000
1000
0000
0001
0000
0001
,
0100
0000
0000
1000
0000
0010
0100
0000
,
0001
0000
1000
0000
1001
0000
0000
0100
,
0000
0010
0000
1000
0000
0001
0000
1000
,
0000
0100
0010
0000
0002
0000
0000
0000
,
0203
0000
0000
0000
0000
0301
0000
1000
,
0000
1001
0000
0000
0000
0100
0000
0100
,
0002
0000
0000
1003
0000
0010
0000
0010
,
2000
0000
0000
3100
0000
0010
0001
0000
,
0100
0000
0110
0000
0000
0001
1000
0000
,
1000
0000
0110
0000
0101
0000
0000
0010
,
0000
0010
0000
0000
0000
0000
1000
0000
0000
1000
0000
0000
0000
0000
0001
0000
,
0000
0001
0010
0000
1000
0000
0000
0100
,
0000
0001
0000
0000
0000
0000
1000
0000
0000
0010
0000
0000
0000
0000
0100
0000
,
0000
0100
0000
0000
0000
0000
0001
0000
0000
0001
0000
0000
0000
0000
0010
0000
,
0000
1000
0000
0000
0000
0000
0001
0000
0000
0100
0000
0000
0000
0000
0010
0000
,
0000
0010
0000
0000
0000
0000
1000
0000
0000
1000
0000
0000
0000
0000
0001
0000
,
0000
1001
0000
0000
0000
0000
0000
0000
0000
0000
0000
0000
0000
0000
0000
0000
;

//---------------dance-single - ----------------
#NOTES:
     dance-single:
     :
     Easy:
     3:
     0.176110,0.227074,0.008681,0.173629,0.000000,142.000000,141.000000,1.000000,20.000000,0.000000,0.000000,0.176110,0.227074,0.008681,0.173629,0.000000,142.000000,141.000000,1.000000,20.000000,0.000000,0.000000:
0000
0000
0000
0000
,
0000
0000
0000
0000
,
0000
0000
0000
0000
,
0000
0000
0000
0000
,
0000
0000
0000
0001
0000
0000
0000
0010
,
0000
0000
0000
1000
0000
0000
0000
0100
,
0000
0000
0000
0001
0000
0000
0000
0100
,
0000
0000
0000
0000
,
0000
0020
0000
0030
0000
1000
0000
1000
,
0200
0000
0000
0300
0000
0010
0000
0010
,
0002
0000
0000
0003
0000
1000
0010
0000
,
0100
0000
0100
0000
0000
0001
0010
0000
,
1000
0000
0010
0000
0100
0000
0000
0001
,
0000
1000
0000
0001
0000
0100
0000
0010
,
0000
1000
0000
0001
0000
0100
0000
0010
,
0000
1000
0000
0001
0000
0100
0000
0010
,
0000
2000
0000
3000
0000
0010
0000
0000
,
0200
0000
0300
0000
0000
0001
0000
0000
,
2000
0000
3000
0000
0000
0010
0000
0000
,
0100
0000
0100
0000
0000
0001
0000
0000
,
1000
0000
0010
0000
0100
0000
0000
0001
,
0000
0010
0000
0100
0000
1000
0000
0001
,
0000
0100
0000
0010
0000
1000
0000
0001
,
0000
1000
0000
0010
0000
0100
0000
0001
,
0000
2000
0000
0000
0000
0000
0000
0000
,
3000
0000
0000
0020
0000
0000
0000
0000
,
0030
0000
0000
0200
0000
0000
0000
0000
,
0300
0000
0000
0002
0000
0000
0000
0000
,
0003
0000
0020
0000
0000
0000
0000
0030
,
0000
0000
2000
0000
0000
0000
0000
3000
,
0000
0002
0000
0003
,
0000
0200
0000
0300
,
0000
0010
0000
0010
0000
0010
0000
0010
,
0000
0010
0000
0010
0000
0010
0000
1000
,
0000
1000
0000
1000
0000
1000
0000
1000
,
0000
1000
0000
1000
0000
0001
0000
0100
,
0000
0001
0000
0100
0000
0001
0000
0010
,
0000
0000
0000
1000
0000
0010
0000
1000
,
0000
0010
0000
0000
0100
0000
0000
0000
,
0000
0000
0000
0000
,
0000
0001
0000
0010
0000
0100
0000
1000
,
0000
0010
0000
1000
0000
0010
0000
1000
,
0000
0100
0000
0010
0000
0001
0000
0100
,
0000
0001
0000
0100
0000
0010
0000
0000
,
1000
0010
0100
0000
,
0000
0000
0000
0000
,
0000
1000
0000
0001
0000
0100
0000
0010
,
0000
1000
0000
0001
0000
0100
0000
0100
,
0000
0002
0000
0003
0000
1000
0000
0010
,
0200
0000
0000
0300
0000
0001
0000
1000
,
0020
0000
0000
0030
0000
1000
0000
0000
,
0001
0000
0001
0000
0000
1000
0000
0000
,
0010
0000
0100
0000
0010
0000
0000
1000
,
0000
0001
0000
0100
0000
0010
0000
1000
,
0000
0001
0000
0000
0200
0000
0000
0000
,
0300
0000
0000
0000
,
0000
2002
0000
0000
0000
0000
0000
0000
,
0000
0000
0000
0000
,
0000
3003
0000
0000
0000
0000
0000
0000
;

//---------------dance-single - Copied from----------------
#NOTES:
     dance-single:
     Copied from:
     Beginner:
     1:
     0.048368,0.073087,0.000000,0.000000,0.000000,39.000000,39.000000,0.000000,0.000000,0.000000,0.000000,0.048368,0.073087,0.000000,0.000000,0.000000,39.000000,39.000000,0.000000,0.000000,0.000000,0.000000:
0000
0000
0000
0000
,
0000
0000
0000
0000
,
0000
0000
0000
0000
,
0000
0000
0000
0000
,
0000
0001
0000
0000
0000
0000
0000
0000
,
0000
0001
0000
0000
0000
0000
0000
0000
,
0000
0001
0000
0000
0000
0000
0000
0000
,
0000
0000
0000
0000
,
0000
1000
0000
0000
0000
0000
0000
0000
,
1000
0000
0000
0000
,
1000
0000
0000
0000
,
1000
0000
0000
0000
,
0010
0000
0000
0000
,
0000
0000
0000
0000
,
0000
0100
0000
0000
0000
0000
0000
0000
,
0000
0000
0000
0000
,
0000
0001
0000
0000
0000
0000
0000
0000
,
0001
0000
0000
0000
,
0001
0000
0000
0000
,
0001
0000
0000
0000
,
0100
0000
0000
0000
,
0000
0000
0000
0000
,
0000
0010
0000
0000
0000
0000
0000
0000
,
0000
0000
0000
0000
,
0000
1000
0000
0000
0000
0000
0000
0000
,
0000
0000
0000
0000
,
0000
0000
0000
0010
0000
0000
0000
0000
,
0000
0000
0000
0000
,
0000
0100
0000
0000
,
0000
0000
0000
0000
0000
0010
0000
0000
,
0000
0000
0000
0000
0000
1000
0000
0000
,
0000
0000
0000
0000
0000
0001
0000
0000
,
0000
0100
0000
0000
0000
0000
0000
0000
,
0000
0000
0000
0000
,
0000
0100
0000
0000
0000
0000
0000
0000
,
0000
0000
0000
0000
0000
0010
0000
0000
,
0000
0000
0000
0000
,
0000
0000
0000
1000
0000
0000
0000
0000
,
0000
0000
0000
0000
,
0000
0000
0000
0000
,
0000
0001
0000
0000
0000
0000
0000
0000
,
0000
0010
0000
0000
0000
0000
0000
0000
,
0000
0100
0000
0000
0000
0000
0000
0000
,
1000
0000
0000
0000
,
0001
0000
0000
0000
,
0000
0000
0000
0000
,
0000
0010
0000
0000
0000
0000
0000
0000
,
0000
0000
0000
0000
0000
0100
0000
0000
,
0000
1000
0000
0000
0000
0000
0000
0000
,
1000
0000
0000
0000
,
1000
0000
0000
0000
,
1000
0000
0000
0000
,
0010
0000
0000
0000
,
0000
0000
0000
0000
,
0000
0100
0000
0000
0000
0000
0000
0000
,
0000
0000
0000
0000
,
0000
0001
0000
0000
0000
0000
0000
0000
;
