#TITLE:Twinbee's Home Town Song;
#SUBTITLE:;
#ARTIST:Sota Fujimori;
#TITLETRANSLIT:;
#SUBTITLETRANSLIT:;
#ARTISTTRANSLIT:;
#GENRE:;
#CREDIT:SupremeX;
#BANNER:Twinbee's Home Town Song.png;
#BACKGROUND:Twinbee's Home Town Song-bg.png;
#LYRICSPATH:;
#CDTITLE:CDTitle.png;
#MUSIC:Twinbee's Home Town Song.ogg;
#OFFSET:-2.260342;
#SAMPLESTART:85.040001;
#SAMPLELENGTH:12.000000;
#SELECTABLE:YES;
#DISPLAYBPM:*;
#BPMS:0.000000=168.000000
,215.500000=84.000000
,223.500000=168.000000
;
#STOPS:71.000000=0.180000
;
#BGCHANGES:-5.000=Twinbee's Home Town Song.avi=1.000=0=0=1=====,
99999=-nosongbg-=1.000=0=0=0 // don't automatically add -songbackground-
;
#KEYSOUNDS:;
#ATTACKS:;

//---------------dance-single - ----------------
#NOTES:
     dance-single:
     :
     Hard:
     10:
     0.594338,0.996806,0.126072,0.277358,0.327786,495.000000,480.000000,15.000000,33.000000,0.000000,0.000000,0.594338,0.996806,0.126072,0.277358,0.327786,495.000000,480.000000,15.000000,33.000000,0.000000,0.000000:
0000
0000
0000
0000
,
0000
0000
0000
0000
,
0000
0000
0000
0000
,
0000
0000
0000
0000
,
0000
0000
0000
0000
,
1000
0010
1000
0001
,
0100
0000
0001
2000
0000
3010
0100
0002
,
1000
1000
1003
0010
,
0100
0000
0001
0020
0000
0130
0001
2000
,
0010
3010
1010
1001
,
0001
0000
0100
0010
0000
1000
0001
0200
,
0010
0010
0310
0101
,
1001
0000
0010
1000
0000
0001
0100
0020
,
0000
0030
1001
0101
,
0001
0000
0100
0000
0010
0000
2000
0000
0000
3000
0001
1000
0001
0000
0100
0000
,
0010
0000
0001
0000
0100
0000
0002
0000
0000
0003
0100
0001
0100
0000
0010
0000
,
1000
0000
0100
0000
1000
0000
0020
0000
0000
0030
0100
0010
0100
0000
0001
0000
,
0010
0100
1000
0020
0000
0030
0100
0001
,
1000
0000
0010
0000
2000
0000
0000
3000
0100
1000
0100
0000
0010
0000
0001
0000
,
1000
0000
0010
0000
0200
0000
0000
0300
0001
0010
0001
0000
0010
0000
0100
0000
,
1000
0000
0010
0000
0100
0000
0000
0000
0010
1000
0010
0000
0100
0000
0001
0000
,
0010
0000
0100
0000
1000
0000
0010
0000
0100
0001
0100
0000
0000
0000
0010
0000
,
0000
0000
1000
0000
0001
0000
0000
0000
0100
0010
0100
0000
0002
0000
1000
0000
,
0000
1003
0000
0010
0000
0110
0000
0002
,
0000
0000
0103
0020
0000
1000
0000
1000
,
0000
1030
0000
0001
0100
0001
1000
0200
,
0000
0310
0001
0000
1000
0100
0010
0002
,
0000
0000
0013
0000
0100
0000
0000
0000
1000
0000
0010
0100
0010
0000
0100
0000
,
0000
0001
2000
0001
0000
0001
3000
1001
,
0010
0000
0100
0000
0001
0000
0000
0000
1000
0010
1000
0000
0010
0000
0100
0000
,
0000
0001
0010
0000
0100
1000
0010
0100
,
0000
0001
0010
0000
0100
1000
0100
0010
,
0000
0001
0020
0000
0130
0100
0000
1000
,
0001
0000
0100
0000
0001
0000
0000
0000
0100
0010
0100
0000
0000
0000
0002
0000
,
0000
0013
0100
0000
0000
2000
0000
3100
,
0010
0000
0000
0002
0000
0203
0000
0320
,
0000
0030
1000
0002
0000
0100
0000
0100
,
0000
0103
0000
0010
0000
1000
0000
0020
,
0000
0100
0130
0000
0000
0002
0000
1000
,
1003
0000
0000
0110
0000
1010
0000
0002
,
0000
0000
0100
0103
0000
0010
0000
1010
,
0000
0000
1000
0000
0000
0000
0001
0100
0001
0100
0001
0100
0001
0000
1000
0000
,
0010
0000
0100
0000
0001
0000
1000
0010
1000
0010
1000
0000
0001
0000
0100
0000
,
0010
0000
0100
0000
0001
0000
1000
0000
0010
0100
0010
0100
0010
0000
1000
0000
,
0001
0000
1000
0000
0010
0000
0100
0000
0001
0010
0001
0010
0001
0000
1000
0000
,
0100
0000
0010
0000
0001
0000
0100
0000
0010
0100
0010
0100
0010
0000
1000
0000
,
0010
0000
1000
0000
0001
0000
0100
0000
0001
1000
0001
1000
0001
0000
0100
0000
,
0010
0000
1000
0000
0001
0000
0100
0000
0010
1000
0010
1000
0010
0000
0100
0000
,
0001
0000
0010
0000
0100
0000
1000
0000
0001
0010
0001
0010
0001
0000
1000
0000
,
0100
0000
1000
0000
0001
0000
0100
0000
0010
1000
0010
1000
0010
0000
0100
0000
,
0001
0010
0100
1000
0010
1000
0000
0001
,
0100
0010
0100
0001
1000
0010
0000
0100
,
0010
1000
0010
0100
0001
1000
0000
0010
,
0100
0000
0000
0000
0001
0000
0000
0000
0100
0000
0000
0000
0010
0000
0000
0000
1000
0000
0000
0000
0010
0000
0000
0000
0100
0000
0000
0000
0001
0000
0000
1000
,
0000
0000
0010
0000
0100
0001
0100
0000
0001
0000
0100
0000
0010
0000
0000
1000
0000
0000
0010
0000
0000
0000
0100
0001
0100
0000
0001
0000
1000
0000
0000
0010
,
0000
0000
0100
0000
0010
1000
0010
1000
0010
0000
0100
0000
0001
0000
0000
0000
0010
0000
0100
0000
1000
0000
0001
0000
1001
0000
0000
0000
0001
0000
0000
0000
,
0000
0100
0010
0000
1000
0001
0100
0000
,
0001
0000
0100
0000
0001
0100
0001
0000
0100
0000
0010
0000
1000
0010
1000
0000
,
0010
0000
0100
0000
0001
0100
0001
0000
0100
0000
0010
0000
1000
0010
1000
0000
,
0010
0000
0100
0000
0001
0100
0001
0000
0100
0000
0010
0000
0000
0000
1000
0000
,
0000
0001
0100
0000
0010
1000
0001
0000
,
1000
0000
0010
0000
0100
0000
0001
0010
0001
0000
0010
0000
0001
0000
0100
0010
,
0100
0000
0010
0000
0100
0000
0010
1000
0010
0000
1000
0000
0100
0000
1000
0100
,
1000
0000
0100
0000
0010
0000
0001
0100
0001
0000
0100
0000
0000
0000
0010
0000
,
0000
0000
1000
0000
0001
0000
0000
0000
0100
0010
0200
0000
0000
0000
0010
0000
,
0000
0310
0000
1010
0000
0101
0000
0002
,
0000
0000
0013
0200
0000
1300
0000
0010
,
0100
0001
1000
0010
0000
1000
0000
0001
,
0000
0010
0100
0000
1000
0020
0000
1000
,
0000
1030
0000
0001
0000
1000
0010
0100
,
0000
0001
0000
0000
1000
0000
0002
0000
0000
0000
0100
0000
0000
0000
0100
0000
,
0000
0000
0000
0000
0103
0000
0000
0000
0000
0000
0000
0000
0101
0000
0000
0000
0000
0000
0000
0000
1000
0000
0000
0000
0000
0000
0000
0000
0001
0000
0000
1000
,
0000
0000
0010
0000
0000
1000
0000
0000
0001
0000
0000
0100
0000
0000
0001
0000
0000
1000
0000
0000
0010
0000
0000
1000
0000
0000
0001
0000
0000
0100
0000
0000
,
0010
0000
0000
1000
0000
0000
0001
0000
0000
0100
0000
0000
0010
0000
0000
1000
0000
0000
0001
0000
0000
0100
0000
0000
0010
0000
0000
1000
0000
0000
0001
0000
,
0000
0100
0000
0000
0010
0000
0000
0000
0000
0000
0000
0000
0000
0000
0000
0000
0000
0000
0000
0000
0000
0000
0000
0000
0000
0000
0000
0000
0000
0000
0000
0000
;

//---------------dance-single - ----------------
#NOTES:
     dance-single:
     :
     Medium:
     8:
     0.417837,0.778755,0.050429,0.260548,0.058833,348.000000,342.000000,6.000000,31.000000,0.000000,0.000000,0.417837,0.778755,0.050429,0.260548,0.058833,348.000000,342.000000,6.000000,31.000000,0.000000,0.000000:
0000
0000
0000
0000
,
0000
0000
0000
0000
,
0000
0000
0000
0000
,
0000
0000
0000
0000
,
0000
0000
0000
0000
,
0001
0100
0001
1000
,
0001
0000
1000
2000
0000
3000
0010
0020
,
0000
0000
0030
0100
,
0010
0000
0100
0002
0000
0003
0010
0200
,
0000
0300
0001
1000
,
0001
0000
1000
0010
0000
0100
0001
0200
,
0000
0000
0300
0001
,
0010
0000
0100
1000
0000
0000
0001
0002
,
0000
0003
1000
0010
,
0100
0000
0010
2000
0000
3100
0000
0100
,
0010
0001
0100
0200
0000
0310
0000
0001
,
0100
0001
0000
2000
0000
3010
0000
1000
,
0010
1000
0000
0020
0000
0030
0000
1000
,
0000
1000
0002
0000
0103
0000
0100
0001
,
0000
0001
0200
0000
0310
0000
0010
1000
,
0000
1000
0010
0000
0100
0010
0000
0010
,
1000
0001
1000
0001
0010
0000
0000
0100
,
0000
0100
0010
0000
0000
1000
0002
0000
,
0000
0003
0000
0100
0000
0010
0000
2000
,
0000
0000
3001
0002
0000
0000
0000
0000
,
0000
0003
0000
0100
0010
0100
0010
0200
,
0000
0310
1000
0000
0010
0100
0010
2000
,
0000
3010
0100
0000
0001
0100
0010
0001
,
0000
1000
0020
0000
0030
1000
0000
0010
,
0100
0010
1000
0001
0100
0001
0000
1000
,
0000
0001
0100
0000
0010
0100
0001
1000
,
0000
0010
0100
0000
0001
0100
0010
1000
,
0000
0100
0020
0000
0030
0000
0000
0001
,
1000
0100
0010
0000
0001
0100
0000
0002
,
0000
0003
1000
0000
0000
2000
0000
3000
,
0010
0000
0000
0100
0000
0001
0000
0100
,
0000
0000
0010
0200
0000
0000
0000
0000
,
0000
0300
0000
0001
0000
1000
0000
0020
,
0000
0000
0130
0000
0000
0200
0000
0000
,
0310
0000
0000
0010
0000
1000
0000
0200
,
0000
0000
0310
0002
0000
0000
0000
0000
,
0000
0003
0000
0100
0001
0010
0100
1000
,
0000
0010
0000
1000
0010
1000
0000
0001
,
0000
0001
0000
0100
0010
1000
0010
0100
,
0000
0001
0000
1000
0010
1000
0000
0001
,
0000
0100
0000
0001
1000
0001
0000
0100
,
0000
0010
0000
1000
0001
1000
0010
0100
,
0000
0100
0000
0001
1000
0001
1000
0010
,
0000
0100
0000
0001
0010
0001
0000
0100
,
0000
0100
0000
0001
0010
0100
1000
0010
,
0000
0100
0000
0001
0000
1000
0000
0010
,
1000
0100
0010
0001
0100
0010
0000
1000
,
0000
0010
0000
0100
0000
0001
0000
0100
,
0010
0000
0000
0000
1000
0000
0000
0000
0100
0000
0000
0000
0010
0000
0000
0000
0001
0000
0000
0000
0100
0000
0000
0000
0010
0000
0000
0000
1000
0000
0000
0001
,
0000
0000
0100
0000
0000
0000
0010
0000
1000
0000
0010
0000
0100
0000
0000
0001
0000
0000
1000
0000
0000
0000
0010
0000
0100
0000
0001
0000
0100
0000
0000
0010
,
0000
1000
0000
0100
0010
0100
0001
0000
0010
0100
0010
1000
0001
0000
0100
0000
,
0000
0001
1000
0000
0010
0100
0010
0000
,
0100
0001
1000
0001
0100
0010
1000
0001
,
1000
0010
0100
0001
1000
0001
0100
0010
,
0100
0001
1000
0010
0100
0010
0000
1000
,
0000
0001
1000
0000
0010
0100
0010
0000
,
1000
0001
0100
0010
0100
0001
1000
0010
,
0100
0001
0100
0010
1000
0010
1000
0100
,
0010
0001
0100
0010
0100
0001
0000
1000
,
0000
0100
0010
0000
0001
0200
0000
0000
,
0000
0300
0000
0010
0000
1010
0000
2000
,
0000
0000
3010
0020
0000
0030
0100
0001
,
0100
0001
1000
0100
0000
0010
0000
0001
,
0000
0100
0010
0000
1000
0002
0000
0000
,
0000
0003
0000
0100
0000
0010
1000
0001
,
0100
0010
1000
0020
0000
0000
0000
0000
,
0000
0030
0000
0100
0000
0001
0000
1000
,
0000
1100
0000
0100
0000
0110
0000
0010
,
0000
0011
0000
0001
0000
0101
0000
0010
,
0000
1010
0000
0000
0000
0000
0000
0000
;

//---------------dance-single - ----------------
#NOTES:
     dance-single:
     :
     Easy:
     5:
     0.297769,0.436103,0.033619,0.100857,0.004202,248.000000,244.000000,4.000000,12.000000,0.000000,0.000000,0.297769,0.436103,0.033619,0.100857,0.004202,248.000000,244.000000,4.000000,12.000000,0.000000,0.000000:
0000
0000
0000
0000
,
0000
0000
0000
0000
,
0000
0000
0000
0000
,
0000
0000
0000
0000
,
0000
0000
0000
0000
,
0000
0000
0000
0000
,
1000
0000
0001
1000
0000
0001
0100
0002
,
0000
0000
0000
0000
0000
0003
1000
0000
,
0001
0000
0001
0100
0000
0100
0010
2000
,
0000
0000
0000
3000
0010
0000
0100
0000
,
0001
0000
1000
0010
0000
0000
0010
0200
,
0000
0000
0300
0001
,
1000
0000
0010
0100
0000
0010
1000
0020
,
0000
0000
0000
0030
0100
0000
0100
0000
,
0001
0000
0010
0100
0000
0100
0000
0000
,
1000
0000
0100
0010
0000
0001
0000
0000
,
0010
0000
0100
1000
0000
1000
0000
0000
,
0010
0000
0000
0100
0000
0000
0001
1000
,
0000
0001
0100
0000
0010
0000
0000
1000
,
0000
0100
0010
0000
0010
0000
0000
0001
,
0000
0001
1000
0000
0000
0010
0100
0010
,
0100
0000
0001
0000
1000
0010
0000
0100
,
0000
0001
1000
0000
0010
0100
0002
0000
,
0000
0000
0003
1000
0000
1000
0000
0010
,
0000
0000
0100
0020
0000
0000
0000
0000
,
0030
0000
0000
1000
0000
0000
0000
0001
,
0000
0100
0010
0000
0000
1000
0000
0010
,
0000
0100
0001
0000
0000
1000
0000
0010
,
0000
0100
0001
0000
0000
0000
0000
1000
,
0000
0100
1000
0000
0000
0001
0000
0100
,
0000
0100
0001
0000
0000
1000
0000
0010
,
0000
1000
0001
0000
0000
0100
0000
0010
,
0000
0100
0001
0000
0000
1000
0000
0100
,
0000
1000
0000
0000
0000
0001
0000
0010
,
0000
0000
0001
0000
0000
0100
0000
0000
,
0010
0000
0000
0100
0000
0001
0000
1000
,
0000
0000
0001
0200
0000
0000
0000
0000
,
0000
0300
0000
0001
0000
0010
0000
0001
,
0000
0000
1000
0000
0000
0100
0000
0000
,
0010
0000
0000
0100
0000
0001
0000
1000
,
0000
0000
0010
2000
0000
0000
0000
0000
,
0000
0000
3000
0000
0000
0000
0000
0001
,
0000
0010
0000
0001
0000
0100
0000
0010
,
0000
0100
0000
0001
0000
1000
0000
0001
,
0000
0100
0000
0010
0000
0100
0000
0001
,
0000
0010
0000
0001
0000
1000
0000
0100
,
0000
1000
0000
0001
0000
0100
0000
0001
,
0000
1000
0000
0010
0000
1000
0000
0001
,
0000
0010
0000
0100
0000
1000
0000
0010
,
0000
0100
0000
0001
0000
1000
0000
0010
,
0000
0010
0000
0100
0000
0100
0000
0001
,
0000
0001
0000
1000
0000
1000
0000
0010
,
0000
0010
0000
0100
0000
0100
0000
0001
,
0000
0001
0000
1000
0000
1000
0000
0001
,
0000
1001
0000
0000
0001
0000
0000
0000
0101
0000
0000
0000
0100
0000
0000
0000
,
0110
0000
0010
0000
1010
0000
1000
0001
,
0000
0100
0010
0000
0000
1000
0000
0000
,
1000
0100
0000
0000
0100
0010
0000
0000
,
0001
0100
0000
0000
0100
0001
0000
0000
,
1000
0010
0000
0000
0010
1000
0000
1000
,
0000
0010
0000
1000
,
0000
0100
0010
0000
0000
0100
0001
0000
,
0000
1000
0100
0000
0000
0100
0010
0000
,
0000
0010
0001
0000
0000
1000
0000
0010
,
0000
0100
0010
0000
0001
0200
0000
0000
,
0000
0300
0000
0010
0000
1000
0000
0010
,
0000
0000
0001
2000
0000
0000
0000
0000
,
0000
3000
0000
0010
0000
0100
0000
0010
,
0000
1000
0100
0000
0010
0002
0000
0000
,
0000
0000
0003
0100
0000
0100
0000
0010
,
0000
0000
1000
0020
0000
0000
0000
0000
,
0000
0030
0000
0100
0000
0000
0000
0001
,
0000
1000
0000
0001
0000
0100
0000
0010
,
0000
1000
0000
0001
0000
1000
0000
0010
,
0000
0100
0000
0000
0000
0000
0000
0000
;

//---------------dance-single - Copied from----------------
#NOTES:
     dance-single:
     Copied from:
     Beginner:
     3:
     0.182504,0.279406,0.000000,0.042024,0.000000,152.000000,152.000000,0.000000,5.000000,0.000000,0.000000,0.182504,0.279406,0.000000,0.042024,0.000000,152.000000,152.000000,0.000000,5.000000,0.000000,0.000000:
0000
0000
0000
0000
,
0000
0000
0000
0000
,
0000
0000
0000
0000
,
0000
0000
0000
0000
,
0000
0000
0000
0000
,
0000
0000
0000
0000
,
0100
0000
0001
0000
,
0100
0000
0001
0000
,
1000
0000
0010
0000
,
1000
0000
0010
0000
,
1000
0000
0010
0000
,
0100
0000
0010
0000
,
0100
0000
0010
0000
,
0100
0000
0001
0000
,
2000
0000
0000
0000
3000
0010
0000
0000
,
0200
0000
0000
0000
0300
0010
0000
0000
,
2000
0000
0000
0000
3000
0100
0000
0000
,
0020
0000
0000
0030
0000
0000
0001
1000
,
0000
1000
0000
0000
0100
0000
0000
0010
,
0000
0010
0000
0000
0001
0000
0000
0100
,
0000
0100
0000
0000
0000
0001
0000
0001
,
0000
0010
0000
0100
0000
1000
0000
0001
,
0000
0000
0100
0000
0000
0001
0000
0000
,
0000
0000
0000
1000
0000
0010
0000
1000
,
0000
0000
0000
0200
0000
0000
0000
0000
,
0000
0300
0000
0100
0000
0000
0000
0010
,
0000
0000
0100
0000
0000
0000
0000
0001
,
0000
0000
1000
0000
0000
0000
0000
1000
,
0000
0000
0010
0000
0000
0000
0000
1000
,
0000
0000
0010
0000
0000
0000
0000
0100
,
0000
0000
0001
0000
0000
0000
0000
0100
,
0000
0000
0001
0000
0000
0000
0000
1000
,
0000
0000
0100
0000
0000
0000
0000
0010
,
0000
0000
0001
0000
0000
0000
0000
1000
,
0000
0000
0100
0000
0000
0010
0000
0000
,
0001
0000
0000
0100
0000
0010
0000
0100
,
0000
0000
0000
0001
0000
0000
0000
1000
,
0000
0000
0000
1000
0000
0000
0000
0010
,
0000
0000
1000
0000
0000
0010
0000
0000
,
1000
0000
0000
0100
0000
0001
0000
0100
,
0000
0000
0000
0001
0000
0000
0000
0100
,
0000
0000
0000
0001
0000
0000
0000
1000
,
0000
0000
0000
1000
0000
0000
0000
0010
,
0000
0000
0000
0010
0000
0000
0000
1000
,
0000
0000
0000
1000
0000
0000
0000
0100
,
0000
0000
0000
0100
0000
0000
0000
0001
,
0000
0000
0000
0001
0000
0000
0000
0010
,
0000
0000
0000
0010
0000
0000
0000
1000
,
0000
0000
0000
1000
0000
0000
0000
0001
,
0000
0000
0000
0001
0000
0000
0000
1000
,
0000
0000
0000
0010
0000
0000
0000
1000
,
0000
0000
0000
0001
0000
0000
0000
0100
,
0000
0000
0000
0001
0000
0000
0000
1000
,
0000
0000
0000
0010
0000
0000
0000
1000
,
0000
0010
0000
1000
0000
0010
0000
0100
,
0000
0010
0000
0100
0000
0001
0000
0100
,
0000
0010
0000
0100
,
0000
0010
0000
0000
0000
0100
0000
0000
,
0000
0010
0000
0000
0000
1000
0000
0000
,
0000
0100
0000
0000
0000
1000
0000
1000
,
0000
0010
0000
0100
,
0000
0001
0000
0001
,
0000
0100
0000
0100
,
0000
0000
0010
0000
0000
0000
0000
1000
,
0000
0000
0010
0000
0000
1000
0000
0000
,
0000
0000
0000
0100
0000
0010
0000
0100
,
0000
0000
0000
1000
0000
0000
0000
0001
,
0000
0000
0000
0100
0000
0000
0000
0001
,
0000
0000
0001
0000
0000
0100
0000
0000
,
0000
0000
0000
1000
0000
0010
0000
1000
,
0000
0000
0000
0010
0000
0000
0000
1000
,
0000
0000
0000
0000
0000
0000
0000
0010
,
0000
0000
0000
1000
0000
0000
0000
0001
,
0000
0000
0000
0100
0000
0000
0000
0010
;

//---------------dance-single - ----------------
#NOTES:
     dance-single:
     :
     Challenge:
     11:
     0.661576,0.965656,0.142881,0.319381,0.432846,551.000000,534.000000,17.000000,38.000000,0.000000,0.000000,0.661576,0.965656,0.142881,0.319381,0.432846,551.000000,534.000000,17.000000,38.000000,0.000000,0.000000:
0000
0000
0000
0000
,
0000
0000
0000
0000
,
0000
0000
0000
0000
,
0000
0000
0000
0000
,
0000
0000
0000
0000
,
0010
0100
0001
1000
,
0010
0000
0000
0000
1000
0000
0002
0000
0000
0003
0100
0001
0100
0000
0001
0000
,
1000
0010
0100
0001
1000
0000
0001
0000
,
0100
0000
0000
0000
0010
0000
2000
0000
3000
0000
0010
1000
0010
0000
0100
0000
,
0001
1000
0010
0100
0001
0000
1001
0000
,
0010
0000
0000
0000
1000
0000
0020
0000
0030
0000
0100
0010
0100
0000
0001
0000
,
0010
0100
1000
0010
0100
0010
1000
0000
,
1001
0000
0000
0000
0100
0000
0002
0000
0003
0000
0100
0001
0100
0000
0020
0000
,
1000
1030
0101
1001
,
0010
0000
0100
0000
0001
0000
0200
0000
0000
0300
0010
0100
0010
0000
0100
0000
,
0001
0000
1000
0000
0010
0000
2000
0000
0000
3000
0100
1000
0100
0000
0010
0000
,
0001
0000
0100
0000
0010
0000
0200
0000
0000
0300
0001
0100
0001
0000
0010
0000
,
0100
1000
0001
0020
0000
0030
0110
1000
,
0010
0000
0100
0000
0002
0000
0000
0003
0100
0001
0100
0000
0010
0000
1000
0000
,
0010
0000
0100
0000
0020
0000
0000
0030
0100
0010
0100
0000
0001
0000
1000
0000
,
0100
0000
0010
0000
0001
0000
0000
0000
0100
0010
0100
0000
0001
0000
0100
0000
,
0010
1000
0010
0000
0100
0001
0100
0000
0010
0000
1000
0000
0000
0000
0001
0000
,
0000
0000
0100
0000
0020
0000
0000
0030
0100
0010
0100
0000
0001
0000
1000
0000
,
0010
1000
0010
0000
1000
0000
0002
0000
0000
0000
0203
0000
0000
0000
0320
0000
,
0000
0030
1000
0010
1000
0001
0100
0010
,
1000
0001
0100
0010
0000
1000
0010
0200
,
0000
0310
1000
0000
0001
0010
0100
2000
,
0000
0000
3010
0000
0100
0000
0000
0000
0001
0000
0010
0001
0010
0000
0001
0000
,
0010
0100
1000
0010
0100
0001
1000
0001
,
0100
0000
0010
0000
1000
0000
0000
0000
0010
0100
0010
0000
1000
0000
0002
0000
,
0000
1003
0010
0000
0100
0001
1000
0020
,
0000
0130
0001
0000
1000
0100
0010
0001
,
0000
1000
0200
0000
0310
0001
0000
1000
,
0010
0000
0100
0000
0001
0000
0000
0000
1000
0100
1000
0000
0000
0000
0200
0000
,
0000
0310
0011
0000
0000
2000
0000
3001
,
0101
0000
0000
0020
0000
2030
0000
3002
,
0000
0003
0100
0010
1000
0010
0100
0001
,
1000
0001
0000
0100
0000
0010
0000
0200
,
0000
0301
1001
0000
0000
0020
0000
1030
,
1010
0000
0000
0101
0000
1001
0000
2000
,
0000
3010
0100
0010
0100
0000
0002
0000
0000
0000
0003
0000
0000
0000
0011
0000
,
0000
0000
1000
0000
0000
0000
0100
0010
0100
0010
0100
0010
0100
0000
0001
0000
,
0010
0000
0100
0000
1000
0000
0010
0100
0010
0100
0010
0000
1000
0000
0100
0000
,
0010
0000
0001
0000
0100
0000
0010
0000
0100
0001
0100
0001
0100
0000
0010
0000
,
1000
0000
0010
0000
1000
0000
0001
0000
0100
0010
0100
0010
0100
0000
0001
1000
,
0001
1000
0010
0100
0010
0000
0100
0000
0001
0010
0001
0010
0001
0000
1000
0000
,
0100
0000
0010
0000
0001
0000
0100
0000
0010
1000
0010
1000
0010
0000
0100
0000
,
0001
0000
0010
0000
0100
0000
1000
0000
0010
0100
0010
0100
0010
0000
1000
0000
,
0010
0000
0100
0000
0001
0000
1000
0000
0001
0100
0001
0100
0001
0000
1000
0010
,
1000
0010
0100
0001
0100
0001
0100
0000
0001
1000
0001
1000
0001
0000
1000
0000
,
0100
0000
0010
0000
0001
0000
1000
0010
1000
0000
1000
0010
1000
0000
0001
0000
,
1000
0000
0100
0000
0010
0000
0001
0100
0001
0000
0001
0100
0001
0000
0100
0000
,
0010
0000
0100
0000
0010
0000
1000
0010
1000
0000
1000
0010
1000
0000
0010
0100
,
0010
0000
0100
0000
0010
0000
0000
0000
1000
0000
0000
0000
0001
0000
1000
0000
0001
0000
0000
0000
1000
0000
0000
0000
0010
0000
0000
0000
0100
0000
0000
0010
,
0000
0000
0100
0000
0001
0100
0001
0000
0100
0000
0001
0000
1000
0000
0000
0010
0000
0000
1000
0000
0000
0000
0010
0100
0010
0000
0100
0000
0001
0000
0000
1000
,
0000
0000
0010
0000
0100
0010
0100
0000
0001
0000
0100
0000
0010
0000
0000
0000
1000
0000
0100
0000
0010
0000
0001
0000
1001
0000
0000
0000
2000
0000
0000
0000
,
0000
3100
0020
0000
0031
0100
0001
0000
,
1000
0000
0010
0000
1000
0010
1000
0000
0010
0000
0100
0000
0001
0100
0001
0000
,
0100
0000
0010
0000
0100
0010
0100
0000
0010
0000
1000
0000
0010
1000
0010
0000
,
1000
0000
0001
0000
0100
0001
0100
0000
0001
0000
1000
0000
0000
0000
0020
0000
,
0000
0000
0130
0000
0002
0000
0000
0000
1003
0000
0100
0000
0010
0000
0100
0001
,
0100
0000
0010
0000
1000
0000
0010
0100
0010
0000
1000
0000
0001
0000
0100
0010
,
0100
0000
0001
0000
1000
0000
0010
0100
0010
0000
1000
0000
0001
0000
0100
0001
,
0100
0000
0001
0000
1000
0000
0010
1000
0010
0000
1000
0000
0000
0000
0001
0000
,
0000
0000
0100
0000
0010
0000
0000
0000
1000
0100
1000
0000
0100
0000
0010
0000
,
0001
0100
0000
0101
0000
1001
0000
0020
,
0000
0000
0130
0010
1000
0001
0100
0001
,
1000
0010
0100
0002
0000
2003
0000
3010
,
0000
0000
0100
0000
0010
0000
0000
0000
1000
0100
1000
0000
0001
0000
0010
0000
,
0001
0200
0000
0310
0000
0010
0000
1010
,
0000
1000
0000
0000
0010
0000
0200
0000
0000
0000
0001
0000
0000
0000
0001
0000
,
0000
0000
0000
0000
0301
0000
0000
0000
0000
0000
0000
0000
1001
0000
0000
0000
0000
0000
0000
0000
1000
0000
0000
0000
0000
0000
0000
0000
0010
0000
0000
0100
,
0000
0000
0001
0000
0000
1000
0000
0000
0010
0000
0000
0100
0000
0000
0001
0000
0000
0010
0000
0000
0001
0000
0000
0100
0000
0000
0001
0000
0000
1000
0000
0000
,
0010
0000
0000
1000
0000
0000
0100
0000
0000
1000
0000
0000
0010
0000
0000
1000
0000
0000
0001
0000
0000
0010
0000
0000
0001
0000
0000
0100
0000
0000
0001
0000
,
0000
1000
0000
0000
0010
0000
0000
0000
0000
0000
0000
0000
0000
0000
0000
0000
0000
0000
0000
0000
0000
0000
0000
0000
0000
0000
0000
0000
0000
0000
0000
0000
;
