#TITLE:ツカイステ・デッドワールド;
#SUBTITLE:;
#ARTIST:コゲ犬×ゆちゃ;
#TITLETRANSLIT:Tsukaisute Dead World;
#SUBTITLETRANSLIT:;
#ARTISTTRANSLIT:YuchaP feat. Kogeinu;
#CREDIT:SupremeX;
#BANNER:Tsukaisute Dead World.png;
#BACKGROUND:Tsukaisute Dead World-bg.png;
#LYRICSPATH:;
#CDTITLE:CDTitle.png;
#MUSIC:Tsukaisute Dead World.ogg;
#OFFSET:-0.094;
#SAMPLESTART:15.720;
#SAMPLELENGTH:12.000;
#SELECTABLE:YES;
#BPMS:0.000=260.000;
#STOPS:;
#BGCHANGES:36.000=pop.avi=1.000=0=0=1,
67.000=light5.avi=1.000=0=0=1,
92.000=light2.avi=1.000=0=0=1,
99.000=light5.avi=1.000=0=0=1,
123.000=light2.avi=1.000=0=0=1,
132.000=pop.avi=1.000=0=0=1,
163.000=chase1.avi=1.000=0=0=1,
180.000=numbers2.avi=1.000=0=0=1,
187.000=numbers3.avi=1.000=0=0=1,
195.000=chase1.avi=1.000=0=0=1,
212.000=numbers2.avi=1.000=0=0=1,
219.000=numbers3.avi=1.000=0=0=1,
228.000=square5.avi=1.000=0=0=1,
244.000=light5.avi=1.000=0=0=1,
260.000=light2.avi=1.000=0=0=1,
276.000=light5.avi=1.000=0=0=1,
292.000=numbers3.avi=1.000=0=0=1,
308.000=Tsukaisute Dead World-bg.png=1.000=0=0=1,
316.000=beads1.avi=1.000=0=0=1,
332.000=chase1.avi=1.000=0=0=1,
348.000=beads1.avi=1.000=0=0=1,
364.000=chase1.avi=1.000=0=0=1,
372.000=pop.avi=1.000=0=0=1,
392.000=Tsukaisute Dead World-bg.png=1.000=0=0=1,
99999=-nosongbg-=1.000=0=0=0 // don't automatically add -songbackground-
;

//---------------dance-single - ----------------
#NOTES:
     dance-single:
     :
     Beginner:
     2:
     0.267,0.262,0.021,0.032,0.000:
0000
0000
0000
0000
,
1000
0000
0001
0000
,
0100
0000
1000
0000
,
0001
0000
0100
0000
,
0000
0000
0000
0000
,
0010
0000
0001
0000
,
0010
0000
0010
0000
,
0001
0000
0010
0000
,
0010
0000
0000
0000
,
1000
0000
0001
0000
,
0100
0000
0001
0000
,
1000
0000
0100
0000
,
0001
0000
0000
0000
,
0010
0000
1000
0000
,
0010
0000
0100
0000
,
0001
0000
0010
0000
,
0100
0000
0000
1000
,
0000
0001
0000
1000
,
0000
1000
0000
0001
,
0000
0100
0000
0010
,
0000
0010
0000
1000
,
0000
0001
0000
0100
,
0000
0010
0000
1000
,
0000
0001
0000
1000
,
0000
0000
0000
0100
,
0000
0010
0000
1000
,
0000
1000
0000
0001
,
0000
0100
0000
0010
,
0000
0010
0000
1000
,
0000
0001
0000
0100
,
0000
0010
0000
1000
,
0000
1000
0000
0001
,
0000
0000
0000
0100
,
0000
0100
0000
0010
,
0000
0010
0000
1000
,
0000
1000
0000
0001
,
0000
0001
0000
0100
,
0000
0010
0000
1000
,
0000
0001
0000
0100
,
0000
0010
0000
1000
,
0000
0001
0000
0100
,
0000
0100
0000
0010
,
0000
0010
0000
1000
,
0000
1000
0000
0001
,
0000
0001
0000
0100
,
0000
0010
0000
1000
,
0000
0001
0000
0100
,
0000
0010
0000
0010
,
0000
0000
0000
1000
,
0000
0001
0000
0100
,
0000
0100
0000
0010
,
0000
1000
0000
0001
,
0000
0100
0000
0010
,
0000
1000
0000
0001
,
0000
0100
0000
0010
,
0000
1000
0000
0001
,
0000
0100
0000
0001
,
0000
0000
0000
0000
,
0000
0000
0000
2000
,
0000
0000
0000
0000
,
3000
0000
0000
0100
,
0000
0010
0000
0001
,
0000
0001
0000
1000
,
0000
0100
0000
0010
,
0000
0010
0000
0001
,
0000
0010
0000
1000
,
0000
1000
0000
0001
,
0000
0000
0000
1000
,
0000
0000
0000
0100
,
0000
0010
0000
0001
,
0000
0001
0000
1000
,
0000
0010
0000
0100
,
0000
0100
0000
0001
,
0000
1000
0000
0010
,
0000
0100
0000
0001
,
0000
0000
0000
1000
,
0000
0000
0000
2002
,
0000
0000
0000
0000
,
0000
3003
0000
0100
,
0000
0100
0000
0100
,
0000
0100
0000
0010
,
0000
0010
0000
0010
,
0000
0010
0000
1000
,
0000
1000
0000
1000
,
0000
1000
0000
0001
,
0000
0001
0000
0001
,
0000
0001
0000
0100
,
0000
0010
0000
0100
,
0000
0010
0000
1000
,
0000
0001
0000
1000
,
0000
0001
0000
1000
,
0000
0100
0000
1000
,
0000
0100
0000
0001
,
0000
0000
0000
0010
,
0000
0000
0000
0001
,
0000
0000
0000
0010
,
0000
0000
0000
1000
,
0000
0000
0000
1001
;

//---------------dance-single - ----------------
#NOTES:
     dance-single:
     :
     Easy:
     4:
     0.371,0.474,0.537,0.054,0.000:
0000
0000
0000
0000
,
1000
0000
0100
0000
,
0010
0000
0001
0000
,
1000
0000
0100
0000
,
0010
0000
0001
0000
,
1000
0000
0010
0000
,
0100
0000
0001
0000
,
1000
0000
0010
0000
,
0100
0000
0001
0000
,
0001
0000
0010
0000
,
0100
0000
1000
0000
,
0001
0000
0010
0000
,
0100
0000
1000
0000
,
0001
0000
0100
0000
,
0010
0000
1000
0000
,
0001
0000
0100
0000
,
0010
0000
1000
0000
,
0100
0000
0100
0000
,
0001
0000
1000
0000
,
0010
0000
0100
0000
,
0001
0000
0001
0000
,
1000
0000
0010
0000
,
0100
0000
0001
0000
,
1001
0000
0110
0000
,
1010
0000
0000
0000
,
0100
0000
0001
0000
,
1000
0000
0010
0000
,
0100
0000
0001
0000
,
1000
0000
1000
0000
,
0001
0000
0100
0000
,
0010
0000
1000
0000
,
0001
0000
1001
0000
,
0110
0000
1010
0000
,
0101
0000
0001
0000
,
0001
0000
0001
0000
,
1000
0000
1000
0000
,
1000
0000
1000
0000
,
0100
0000
0100
0000
,
0100
0000
0100
0000
,
0010
0000
0010
0000
,
0010
0000
0010
0000
,
1000
0000
0001
0000
,
0100
0000
1010
0000
,
0001
0000
0100
0000
,
0010
0000
0101
0000
,
0010
0000
1000
0000
,
0001
0000
0100
0000
,
1010
0000
0101
0000
,
1010
0000
0000
0000
,
0100
0000
0001
0000
,
1000
0000
0011
0000
,
0100
0000
0001
0000
,
1000
0000
1010
0000
,
0100
0000
0001
0000
,
0011
0000
1000
0000
,
1010
0000
0101
0000
,
1010
0000
0100
0000
,
0001
0000
0010
0000
,
1000
0000
0001
0100
,
0200
0000
0000
0000
,
0000
0300
0000
0000
,
1000
0000
0001
0000
,
0100
0000
1010
0000
,
0100
0000
0001
0000
,
1001
0000
1001
0000
,
0010
0000
0100
0000
,
1100
0000
1100
0000
,
0001
0000
0101
0000
,
0010
0000
1010
0000
,
0100
0000
0001
0000
,
1000
0000
1100
0000
,
0010
0000
0011
0000
,
1000
0000
1010
0000
,
0100
0000
0101
0000
,
1010
0000
0100
0000
,
0001
0000
1000
0000
,
1010
0000
0001
0000
,
2002
0000
0000
0000
,
0000
3003
0000
0000
,
1000
0000
0010
0000
,
1001
0000
1001
0000
,
0010
0000
0100
0000
,
0011
0000
0011
0000
,
0100
0000
0010
0000
,
1100
0000
1100
0000
,
0001
0000
0010
0000
,
1100
0000
1100
0000
,
0010
0000
0100
0000
,
0101
0000
0101
0000
,
0010
0000
1000
0000
,
0011
0000
0011
0000
,
1000
0000
0100
0000
,
0101
0000
1010
0000
,
0100
0000
0001
0000
,
1000
0000
1001
0000
,
0010
0000
0100
0000
,
1000
0000
1001
0000
,
0220
0000
0000
0330
,
1001
0000
0000
0000
;

//---------------dance-single - Copied from----------------
#NOTES:
     dance-single:
     Copied from:
     Medium:
     6:
     0.500,0.526,0.741,0.054,0.000:
0000
0000
0000
0000
,
1000
0010
0100
0000
,
0001
0000
1001
0000
,
0010
0100
0010
0000
,
1100
0000
1100
0000
,
0001
0010
0001
0000
,
1100
0000
1100
0000
,
0001
1000
0001
0000
,
0110
0000
0110
0000
,
1000
0010
1000
0000
,
0101
0000
0101
0000
,
1000
0100
1000
0000
,
0011
0000
0011
0000
,
1000
0010
1000
0000
,
0110
0000
0110
0000
,
0001
1000
0001
0000
,
0101
0000
1001
0000
,
0100
0010
0100
0000
,
0001
0000
1001
0000
,
0100
0010
0100
0000
,
1001
0000
1001
0000
,
0010
0100
0010
0000
,
1000
0000
0001
0000
,
1100
0000
0011
0000
,
1100
0000
0000
0000
,
0001
1000
0010
0000
,
0100
0001
1000
0000
,
0110
0000
0110
0000
,
1000
0010
1000
0000
,
0001
0100
0001
0000
,
1000
0100
1000
0000
,
0001
0010
0001
0100
,
0010
1000
0001
1000
,
0110
0000
0110
0000
,
1001
0000
1001
0000
,
0011
0000
0011
0000
,
1100
0000
1100
0000
,
0010
0100
0010
0000
,
1001
0000
1001
0000
,
0100
0001
0100
0000
,
1010
0000
1010
0000
,
0100
0001
1000
0000
,
0010
0000
0110
0000
,
1000
0001
0100
0000
,
1001
0000
1001
0000
,
0010
0100
0001
0000
,
1000
0100
1000
0000
,
0110
0000
0110
0000
,
1100
0000
0000
0000
,
0001
0010
0001
0000
,
0100
0001
0100
0000
,
0001
1000
0001
0000
,
0110
0000
0110
0000
,
0001
0010
0001
0000
,
1000
0010
1000
0000
,
0110
0000
1100
0000
,
0011
0000
1010
0000
,
0011
0000
0000
0100
0000
0000
0001
0000
,
0000
1000
0000
0000
0110
0000
0000
0000
,
2020
0000
0000
3030
,
0101
0000
0000
0000
,
1000
0010
0100
0000
,
0001
1000
0001
0000
,
0100
0010
1000
0001
,
0100
0010
1000
0000
,
0001
1000
0010
0000
,
0100
0100
0100
0000
,
0001
0000
1010
0000
,
0110
0000
0011
0000
,
1000
0010
0100
0000
,
0001
1000
0010
0000
,
0100
0001
1000
0000
,
0010
0100
0100
0000
,
0001
1000
0001
0000
,
0100
0010
0100
0000
,
1001
0000
1001
0000
,
1010
0000
0101
0000
,
0022
0000
0000
0033
,
1100
0000
1100
0000
,
0010
0100
0010
0000
,
1000
0001
1000
0000
,
0100
0010
0100
0000
,
0001
0010
0001
0000
,
1000
0100
1000
0000
,
0010
0100
0010
0000
,
1000
0010
1000
0000
,
0001
0100
0001
0000
,
1000
0010
1000
0001
,
0100
0010
1000
0000
,
0001
0010
0001
1000
,
0100
1000
0010
0000
,
0100
0001
0100
0010
,
1000
0010
0100
0000
,
1001
0000
1001
0000
,
1010
0000
1010
0000
,
0101
0000
0101
0000
,
1010
0000
0001
1000
,
1002
0000
0000
0000
,
1003
0000
0000
0000
;

//---------------dance-single - Copied from----------------
#NOTES:
     dance-single:
     Copied from:
     Hard:
     9:
     0.632,0.737,0.462,0.064,0.000: // measure 1
0000
0000
0000
0000
,  // measure 2
1000
0010
1000
0001
,  // measure 3
0100
0001
1000
0000
,  // measure 4
0010
1000
0010
0100
,  // measure 5
0001
0100
0010
0000
,  // measure 6
1000
0100
1000
0001
,  // measure 7
0010
0001
1000
0000
,  // measure 8
0001
0100
0001
1000
,  // measure 9
0010
1000
0001
0000
,  // measure 10
0100
0010
1000
0001
,  // measure 11
0100
0010
1000
0000
,  // measure 12
0001
0100
0010
1000
,  // measure 13
0001
0100
0010
0000
,  // measure 14
1000
0100
1000
0001
,  // measure 15
0010
0001
1000
0000
,  // measure 16
0010
0100
0010
1000
,  // measure 17
0001
1000
0010
0000
,  // measure 18
0100
0001
0100
0010
,  // measure 19
1000
0010
1001
0100
,  // measure 20
0010
0000
0001
0000
1000
0010
1000
0000
,  // measure 21
0001
0100
0110
0000
,  // measure 22
0001
0100
0010
1000
,  // measure 23
0001
0100
1001
0010
,  // measure 24
1010
0000
0100
0001
0100
0000
0010
1000
,  // measure 25
0001
0000
0000
0100
,  // measure 26
0010
1000
0010
0100
,  // measure 27
0001
1000
0010
0100
0001
0000
1000
0000
,  // measure 28
0010
0100
0001
1000
,  // measure 29
0010
0100
0101
0000
,  // measure 30
0010
1000
0010
0100
,  // measure 31
0001
0100
0110
1000
,  // measure 32
1010
0001
0101
0110
,  // measure 33
1001
0010
1000
0001
,  // measure 34
2000
0010
0010
0010
,  // measure 35
0001
0001
3001
0000
,  // measure 36
0100
0000
0100
0000
0001
1000
0001
0000
,  // measure 37
0100
0010
1000
0001
1000
0000
0000
0000
,  // measure 38
0010
0100
0001
1000
,  // measure 39
0001
0100
0010
0000
,  // measure 40
1000
0000
0001
0000
0100
0010
1000
0000
,  // measure 41
0001
0100
0010
0000
1000
0000
0001
0000
,  // measure 42
0100
0010
1000
0001
,  // measure 43
0100
0001
1001
0010
,  // measure 44
0100
0010
1000
0100
,  // measure 45
1000
0010
0110
0000
,  // measure 46
0001
0010
0001
1000
,  // measure 47
0100
1000
1010
0000
,  // measure 48
0001
0000
0100
0010
0100
0000
0010
1000
,  // measure 49
0010
0000
0000
0100
,  // measure 50
0010
1000
0001
0100
,  // measure 51
0001
1000
1001
0010
,  // measure 52
0100
0010
1000
0001
,  // measure 53
1000
0010
1000
0000
0001
0000
0000
0000
,  // measure 54
0100
0010
0100
0001
,  // measure 55
0010
0001
0011
1000
,  // measure 56
1001
0100
0110
0001
,  // measure 57
1000
0010
0100
0001
,  // measure 58
2000
0000
0000
0010
0000
0000
0010
0000
,  // measure 59
0000
0010
0000
0000
0001
0000
0001
0000
,  // measure 60
0002
0000
0000
3003
,  // measure 61
0100
0000
0010
0000
,  // measure 62
1000
0010
1000
0001
,  // measure 63
0100
0001
1001
0000
,  // measure 64
0100
0010
0100
0001
,  // measure 65
1000
0000
0010
0100
0001
0000
0000
0000
,  // measure 66
1000
0000
0001
0100
0010
1000
0001
0000
,  // measure 67
0100
0001
0101
1000
,  // measure 68
1010
0000
0000
0001
0000
0000
1000
0000
,  // measure 69
1001
0000
0000
0110
0000
0000
0101
0000
,  // measure 70
0010
1000
0010
0100
,  // measure 71
0001
0100
1001
0000
,  // measure 72
0010
0100
0010
1000
,  // measure 73
0100
1000
0110
0000
,  // measure 74
0001
0010
0001
1000
,  // measure 75
0001
1000
0110
0001
,  // measure 76
0101
0000
0000
0010
0000
0000
1000
0000
,  // measure 77
1001
0000
0000
0110
0000
0000
0001
0000
,  // measure 78
0200
0000
0000
0000
,  // measure 79
0301
0001
0000
0000
1000
0010
0000
0000
,  // measure 80
0100
0000
0001
0000
1000
0000
0010
0100
,  // measure 81
0010
1000
0100
1000
,  // measure 82
0001
0000
0100
0000
0001
0010
0001
0000
,  // measure 83
1000
0001
1001
0000
,  // measure 84
0100
0000
0010
0000
1000
0001
1000
0000
,  // measure 85
0001
0100
0010
1000
,  // measure 86
0001
0000
0100
0000
0010
0000
1000
0001
,  // measure 87
0100
0010
1001
1100
,  // measure 88
0010
0000
1000
0000
0001
0000
1000
0010
,  // measure 89
0100
0001
1000
0010
,  // measure 90
0100
0001
1000
0010
,  // measure 91
1000
0101
1001
0000
,  // measure 92
0010
0000
0100
0000
0001
0010
0001
0000
,  // measure 93
1000
0001
0100
0000
,  // measure 94
0010
0000
0000
0101
0000
0000
1010
0000
,  // measure 95
0000
0110
0000
0000
1000
0000
0001
0000
,  // measure 96
0100
0000
0000
0110
0000
0000
0011
0000
,  // measure 97
0000
1100
0000
0000
0010
0000
0101
0000
,  // measure 98
2020
0000
0000
0000
0000
3030
0000
0000
,  // measure 99
1001
0000
0000
0000
;
