#TITLE:Touch Of Gold;
#SUBTITLE:;
#ARTIST:Togo Project feat. Frances Maya;
#TITLETRANSLIT:;
#SUBTITLETRANSLIT:;
#ARTISTTRANSLIT:;
#CREDIT:SupremeX;
#BANNER:Touch Of Gold.png;
#BACKGROUND:Touch Of Gold-bg.png;
#LYRICSPATH:;
#CDTITLE:CDTitle.png;
#MUSIC:Touch Of Gold.ogg;
#OFFSET:1.164;
#SAMPLESTART:48.170;
#SAMPLELENGTH:12.000;
#SELECTABLE:YES;
#BPMS:0.000=125.000;
#STOPS:;
#BGCHANGES:21.000=ring131.avi=1.000=0=0=1,
37.000=sheep1.avi=1.000=0=0=1,
45.000=dance10.avi=1.000=0=0=1,
53.000=sheep1.avi=1.000=0=0=1,
61.000=dance10.avi=1.000=0=0=1,
69.000=ring131.avi=1.000=0=0=1,
97.000=line_a.avi=1.000=0=0=1,
105.000=twist.avi=1.000=0=0=1,
121.000=sheep1.avi=1.000=0=0=1,
129.000=line_a.avi=1.000=0=0=1,
137.000=twist.avi=1.000=0=0=1,
153.000=sheep1.avi=1.000=0=0=1,
164.750=ring131.avi=1.000=0=0=1,
181.000=dance10.avi=1.000=0=0=1,
197.000=line_a.avi=1.000=0=0=1,
208.500=ring131.avi=1.000=0=0=1,
213.500=Touch Of Gold-bg.png=1.000=0=0=1,
99999=-nosongbg-=1.000=0=0=0 // don't automatically add -songbackground-
;

//---------------dance-single - ----------------
#NOTES:
     dance-single:
     :
     Beginner:
     1:
     0.134,0.152,0.078,0.010,0.000:
0000
0000
0000
0000
,
0000
0000
0000
0000
,
0000
0010
0000
0000
,
0000
1000
0000
0000
,
0000
0001
0000
1000
,
0010
0100
0000
0000
,
0000
0001
0000
0000
,
0000
1000
0000
0000
,
0000
0100
0000
0001
,
0000
1000
0000
0010
,
0100
0001
1000
0010
,
0000
0000
1000
0001
,
0000
0000
0000
0000
,
1000
0010
0000
0000
,
0000
0100
0000
0000
,
0001
0001
0000
0000
,
0000
0000
0000
0000
,
0000
1000
0000
0001
,
0000
1000
0000
0100
,
0000
0001
0000
1000
,
0000
0010
0000
0100
,
0000
0001
0000
1000
,
0000
0100
0000
0001
,
0000
0000
0000
0000
0000
0100
0000
0000
,
0000
0002
0000
0000
,
0000
0003
0000
0000
,
0000
1000
0001
1000
,
0000
0010
0100
0010
,
0000
1000
0001
1000
,
0001
0100
0010
0000
,
0000
0000
1000
0000
0000
0001
0000
0000
,
0000
0000
0010
0000
0000
1000
0000
0000
,
0000
0100
0000
0001
,
0000
1000
0000
0010
,
0000
1000
0100
1000
,
0000
0010
0001
0010
,
0000
1000
0001
1000
,
0010
0100
0000
0100
,
0000
0000
0001
0000
0000
1000
0000
0000
,
0000
0000
0100
0000
0000
0001
0000
0000
,
0000
0010
0000
1000
,
0000
0001
0000
1000
,
0000
0110
0000
0000
,
0000
1100
0000
0000
,
0000
0011
0000
0000
,
0000
1010
0000
0000
,
0000
0101
0000
0000
,
0000
1001
0000
0000
,
0000
1001
0000
0000
,
0000
1001
0000
0000
,
0000
0010
0000
0000
,
0000
0100
0000
0000
,
0000
0010
0000
0000
;

//---------------dance-single - ----------------
#NOTES:
     dance-single:
     :
     Easy:
     3:
     0.230,0.232,0.146,0.029,0.000:
0000
0000
0000
0000
,
0000
1000
0000
0000
,
0010
0010
1000
0000
,
0001
0001
0100
0000
,
0010
0010
1000
0000
,
0100
0100
0001
0000
,
0000
0010
1010
0000
,
0000
0001
0101
0000
,
1000
0001
1000
0001
,
0100
0010
1000
0001
,
0100
0000
0010
1000
,
0001
0001
0000
0010
,
0100
0100
0001
0001
,
1000
1000
0000
0000
,
0000
0100
0010
1000
,
0001
0001
0000
0010
,
0000
1000
0000
0001
,
0000
1000
0010
0100
,
0100
0001
1000
0001
,
0000
0100
0010
0100
,
0001
0001
1000
0001
,
0100
0000
0001
1000
,
0001
0100
0100
0010
,
0000
1000
0100
1000
,
0001
0010
0001
1000
,
0100
1000
0000
0010
,
0100
2000
0001
3001
,
0000
0010
1000
0010
,
0000
0100
0001
0010
,
0100
1000
1000
0010
,
0000
0000
1001
0000
0000
0110
0000
0000
,
0000
0000
1010
0000
0000
0101
0000
0000
,
0000
0010
1000
0001
,
0100
0100
0010
1000
,
0001
0200
0010
0310
,
0001
0010
0100
1000
,
0000
0010
0000
1000
,
0000
0001
0100
0010
,
0000
0000
1001
0000
0000
0110
0000
0000
,
0000
0000
1010
0000
0000
0101
0000
0000
,
0000
0010
1000
0001
,
0100
0020
0000
0000
,
0000
1030
0000
0000
,
0000
0101
0000
0000
,
0010
0010
0000
0000
,
0000
0000
1001
0000
0000
0000
0000
0100
,
0000
0100
0000
0100
0000
0010
0000
0010
,
0000
0000
0000
1000
0000
0001
0000
1000
,
0000
0001
0000
0001
0000
1000
0000
1000
,
0000
0010
0000
0000
0000
0000
0000
0000
,
0000
1001
0000
0000
,
1000
0001
0000
0000
,
0000
1001
0000
0010
,
1000
1001
0000
0000
;

//---------------dance-single - Copied from----------------
#NOTES:
     dance-single:
     Copied from:
     Medium:
     6:
     0.331,0.310,0.049,0.010,0.010:
0000
0000
0000
0000
,
0000
1000
0001
0100
,
0010
1000
0010
0000
0100
0000
0001
0000
,
1000
0001
1000
0000
0010
0000
1000
0000
,
0001
1000
0001
0000
0100
0000
0001
0100
,
0010
1000
0001
1000
,
0010
0100
0001
0000
1000
0000
0001
0000
,
0100
0001
0100
0000
0010
0000
1000
0000
,
0010
0100
0001
0100
,
0010
1000
1001
0010
,
1010
0000
0001
0000
1000
0001
1000
0000
,
0010
0100
0010
0100
,
0010
1000
0000
0001
,
1000
0110
0000
0001
,
1000
0110
0000
0000
,
0001
1000
0001
0000
0100
0000
0010
0000
,
1000
0001
0000
0100
0010
0000
1000
0001
,
1000
0010
0100
0001
,
0100
0010
0000
1000
0001
1000
0001
0000
,
0100
0010
1000
0001
,
0100
0010
0000
1000
0100
0010
0001
0000
,
0100
0010
1000
0001
,
0100
0000
0010
0000
1000
0000
0010
0100
,
0010
1000
0001
0000
1000
0000
0000
0001
,
1000
0020
0000
0000
,
0000
0000
0030
1000
,
0001
0000
0100
0010
1000
0000
0001
0000
,
0001
0000
0100
0010
1000
0010
0100
0000
,
0001
1000
0010
0100
,
0100
0001
0001
1000
,
1000
0001
0001
1000
,
0010
0100
0001
1000
,
0010
0100
0100
0001
,
1000
0000
0001
0000
0100
0000
0001
1000
,
0010
0100
0001
0000
1000
0000
1000
0000
,
0010
0100
0001
0001
,
1000
0010
0100
0001
,
1000
0010
0100
0000
0001
1000
0001
0000
,
0000
0000
0000
0000
0100
0000
0000
0010
0000
0000
0100
0000
0000
0000
0001
0000
,
1000
0000
0000
0000
0010
0000
0000
0100
0000
0000
0010
0000
0000
0000
1000
0000
,
0001
0000
1000
0000
0001
0000
0100
0010
,
0100
0000
0001
0000
1000
0000
0010
0100
,
0001
0100
0001
0000
1000
0000
1000
0000
,
0010
1000
0010
0000
0100
0000
0010
0000
,
0100
0001
0100
0000
0010
0000
1000
0000
,
1000
0001
0100
0010
,
1000
0100
0010
0001
,
1000
0100
0010
0001
,
0100
0010
1000
0010
,
0100
0001
1000
0001
,
0100
0010
0100
0000
0001
0000
1000
0000
,
0001
0000
0100
0001
1000
0000
0001
0000
,
1000
0000
0010
0100
0010
0000
1000
0001
,
1000
1001
0000
0000
;

//---------------dance-single - Copied from----------------
#NOTES:
     dance-single:
     Copied from:
     Hard:
     7:
     0.426,0.414,0.029,0.107,0.233: // measure 1
0000
0000
0000
0000
,  // measure 2
0000
0000
0000
0000
0010
0000
0000
0100
0010
0000
0000
0000
0000
0000
1000
0000
,  // measure 3
0000
0100
0000
0000
1000
0000
0010
0100
0000
0000
0000
0000
0000
0000
0001
0000
,  // measure 4
0000
0010
0000
0000
0001
0000
0000
0100
0010
0000
0000
0000
0000
0000
1000
0000
,  // measure 5
0000
0100
0000
0000
0010
0000
0000
0001
0100
0000
0000
0000
0000
0000
0001
0000
,  // measure 6
0000
0010
0000
0000
0100
0000
0000
1000
0010
0000
0000
0000
0100
0000
0000
0000
,  // measure 7
1000
0000
0001
0000
1000
0000
0000
0010
0100
0000
0000
0000
0000
0000
0001
0000
,  // measure 8
0010
0000
0100
0000
1000
0000
0000
0010
0100
0000
0000
0000
0000
0000
0001
0000
,  // measure 9
0010
0000
0001
0000
1000
0000
0000
0100
1000
0000
0001
0000
0100
0000
0001
0000
,  // measure 10
1000
0100
1000
0000
0001
0100
0010
1000
,  // measure 11
0000
1000
0000
0000
0001
0000
0000
1000
0100
0000
0000
0000
0000
0000
0010
0000
,  // measure 12
0000
0001
0000
0000
0010
0000
0000
0100
0010
0000
0000
0000
0001
0000
0000
0000
,  // measure 13
1000
0000
0010
0000
1000
0000
0000
0100
1000
0000
0100
0000
0010
0000
0100
0000
,  // measure 14
0010
0000
0001
0000
1000
0000
0000
0010
0100
0000
0010
0000
0100
0000
0001
0000
,  // measure 15
0000
1000
0000
0000
0001
0000
0000
1000
0010
0000
0000
0000
0000
0000
0100
0000
,  // measure 16
0000
0001
0000
0000
1000
0000
0000
0000
0010
0000
1000
0000
0100
0000
0000
0000
,  // measure 17
0010
0002
0000
0000
0003
0000
1000
0010
,  // measure 18
0100
0010
1000
0000
0001
0100
0001
0000
,  // measure 19
1000
0010
1000
0000
0010
0100
0010
0000
,  // measure 20
1000
0000
0001
0000
0100
0001
0100
0000
,  // measure 21
0001
0010
0000
0100
1000
0010
2000
0000
,  // measure 22
3010
0000
0000
0000
0100
0000
0000
0000
0001
0000
0010
0000
0001
0000
0000
0100
,  // measure 23
0000
0010
0000
1000
0001
0100
0010
0000
,  // measure 24
0101
0000
1000
0100
0010
0001
0000
1000
,  // measure 25
1000
0020
0100
0100
,  // measure 26
0100
0230
0000
0302
,  // measure 27
2003
0000
0000
0000
3010
0000
0100
0000
0010
0100
0000
0010
0000
0000
1000
0000
,  // measure 28
0001
0000
0000
0000
0100
0000
0000
0100
0000
0000
0100
0000
0000
0000
0010
0000
,  // measure 29
0010
0000
1000
0000
0001
0010
0000
0100
,  // measure 30
1000
0000
0000
0000
0100
0000
0000
0100
0000
0000
0100
0000
0000
0000
0010
0000
,  // measure 31
0010
0000
0000
0000
1000
0000
0000
0100
0000
0000
1000
0000
0000
0000
0010
0000
,  // measure 32
0100
0000
0000
0000
0001
0000
0000
0010
0000
0000
0001
0000
0000
0000
0100
0000
,  // measure 33
0010
2000
3001
0100
,  // measure 34
0001
0000
0000
0220
0000
0000
0000
0000
0330
0000
0000
0000
1000
0000
0000
0000
,  // measure 35
0001
0000
0000
0000
0010
0000
0100
0000
1000
0010
0000
0100
0000
0000
0001
0000
,  // measure 36
0100
0000
0001
0000
1000
0000
0000
1000
0000
0000
1000
0000
0000
0000
0010
0000
,  // measure 37
0010
0000
0100
0001
1000
0010
0000
0100
,  // measure 38
0100
0000
0000
0000
0001
0000
0000
0010
0000
0000
0001
0000
0000
0000
1000
0000
,  // measure 39
1000
0000
0000
0000
0100
0000
0000
0100
0000
0000
0100
0000
0000
0000
0010
0000
,  // measure 40
0010
0000
0000
0000
0001
0000
0000
0001
0000
0000
0001
0000
0000
0000
1000
0000
,  // measure 41
1000
0000
0100
0000
0100
0000
1000
0001
,  // measure 42
1000
0100
0000
2000
0000
0000
0000
0000
0001
0000
0000
0000
0000
0000
0001
0000
,  // measure 43
0000
0001
0000
0000
3001
0000
0000
0100
0010
0000
0000
0000
0000
0000
1000
0000
,  // measure 44
0000
1000
0000
0000
1000
0000
0000
0010
0100
0000
0000
0000
0000
0000
0001
0000
,  // measure 45
0000
0001
0000
0000
0001
0000
0000
0010
0100
0000
1000
0000
0100
0000
0010
0000
,  // measure 46
0100
0001
1000
0010
0100
0001
0100
0010
,  // measure 47
0000
0010
0000
0000
1000
0000
0100
0000
1000
0000
0010
0000
0100
0000
0001
0000
,  // measure 48
0000
0001
0000
0000
0100
0000
0001
0000
0010
0000
0100
0000
1000
0000
0010
0000
,  // measure 49
0100
0002
0000
1003
0100
0010
0001
0100
,  // measure 50
0010
0000
1000
0000
0001
0000
0000
0001
0000
0000
0001
0000
0000
0000
0010
0000
,  // measure 51
0100
0000
0000
0000
1000
0000
0000
1000
0000
0000
1000
0000
0000
0000
0001
0000
,  // measure 52
0100
0000
0000
0000
0010
0000
0000
0010
0000
0000
0010
0000
0000
0000
0000
0000
,  // measure 53
0000
0100
0001
0100
0010
1000
0010
1000
,  // measure 54
0001
1000
0010
1001
0000
0000
0000
0000
;
