#TITLE:Touch Of Gold;
#SUBTITLE:(Bongo Mango Remix);
#ARTIST:Togo Project feat. Frances Maya;
#TITLETRANSLIT:;
#SUBTITLETRANSLIT:;
#ARTISTTRANSLIT:;
#GENRE:;
#CREDIT:SupremeX;
#BANNER:Touch Of Gold (Bongo Mango Remix).png;
#BACKGROUND:Touch Of Gold (Bongo Mango Remix)-bg.png;
#LYRICSPATH:;
#CDTITLE:CDTitle.png;
#MUSIC:Touch Of Gold (Bongo Mango Remix).ogg;
#OFFSET:-1.043143;
#SAMPLESTART:63.419998;
#SAMPLELENGTH:12.000000;
#SELECTABLE:YES;
#BPMS:0.000000=124.999992
;
#STOPS:
;
#BGCHANGES:16.000=heart10.avi=1.000=0=0=1=====,
32.000=smoke.avi=1.000=0=0=1=====,
48.000=ring131.avi=1.000=0=0=1=====,
64.000=sheep1.avi=1.000=0=0=1=====,
72.000=dance10.avi=1.000=0=0=1=====,
80.000=sheep1.avi=1.000=0=0=1=====,
88.000=dance10.avi=1.000=0=0=1=====,
96.000=ring10.avi=1.000=0=0=1=====,
112.000=ring131.avi=1.000=0=0=1=====,
132.000=heart10.avi=1.000=0=0=1=====,
148.000=sheep1.avi=1.000=0=0=1=====,
156.000=dance10.avi=1.000=0=0=1=====,
164.000=heart10.avi=1.000=0=0=1=====,
180.000=ring10.avi=1.000=0=0=1=====,
191.750=ring131.avi=1.000=0=0=1=====,
208.000=smoke.avi=1.000=0=0=1=====,
220.000=heart10.avi=1.000=0=0=1=====,
224.000=Touch Of Gold (Bongo Mango Remix)-bg.png=1.000=0=0=1=====,
99999=-nosongbg-=1.000=0=0=0 // don't automatically add -songbackground-
;
#KEYSOUNDS:;
#ATTACKS:;

//---------------dance-single - ----------------
#NOTES:
     dance-single:
     :
     Hard:
     8:
     0.322183,0.381424,0.315739,0.225528,0.121785,250.000000,215.000000,35.000000,25.000000,0.000000,0.000000,0.322183,0.381424,0.315739,0.225528,0.121785,250.000000,215.000000,35.000000,25.000000,0.000000,0.000000:
0000
0000
0000
0000
,
0000
0000
0000
0000
,
0000
0000
0000
0000
,
0000
0000
0000
0000
,
2000
0000
0000
3000
0002
0000
0000
0003
,
0200
0000
0000
0300
0020
0000
0000
0030
,
2000
0000
0000
0000
3002
0000
0000
0003
,
0200
0000
0302
0003
,
0110
0000
0000
0000
1000
0000
0000
0000
0000
0000
0001
0000
0000
0100
0000
0000
,
0010
0000
0000
0000
1100
0000
0000
0000
0000
0000
1000
0000
0000
0010
0000
0000
,
0100
0000
0000
0000
0011
0000
0000
0000
0000
0000
1000
0000
0000
0010
0000
0000
,
0100
1001
0010
0100
,
0110
0000
0000
0001
1000
0000
1010
0000
,
0101
0000
0000
0001
0000
1000
0000
0110
,
0000
0000
0110
0000
0000
0000
0000
0000
0000
0000
0001
0000
0000
0100
0000
0000
,
0020
1030
0001
1000
,
0101
0000
1000
0000
0102
0000
0003
1000
,
0000
0000
0001
0000
0100
0000
0010
0000
1000
0000
0001
0000
0000
1000
0000
0000
,
1010
0000
0001
0000
0100
0000
0010
1000
,
0000
0001
0100
0000
1010
0000
1001
0000
,
0110
0000
0000
0000
0001
0000
0000
0000
1000
0000
0010
0000
0000
0100
0000
0000
,
0101
0000
0000
0000
1010
0000
0000
0000
0000
0000
0100
0000
0000
0001
0000
0000
,
1001
0000
0100
0000
0001
0000
1000
0200
,
0000
0000
0000
0000
0000
0300
0000
0000
0010
0000
0000
0000
0001
0000
0000
0000
,
1000
0000
0110
0000
1001
0000
0100
0010
,
0000
1000
0001
0100
0010
0000
1001
0000
,
0100
0000
0010
0000
0100
0000
0001
1000
,
0000
0010
0100
0001
1000
0000
0110
0000
,
0001
0000
1000
0000
0001
0000
0100
0010
,
0000
1000
0100
1000
0000
0000
0000
0000
,
0001
0010
0001
0100
0000
0010
1000
0000
,
2002
0000
0000
0000
,
3003
0000
0010
0100
,
0001
0000
0000
0000
1000
0000
0000
1010
0000
0000
0000
0000
0001
0000
0000
0000
,
0100
0000
0000
0001
0000
0000
0101
0000
0000
0000
0000
0000
1000
0000
0000
0000
,
0001
0000
0000
0100
0000
0000
0010
0000
0000
0000
1000
0000
0001
0000
0100
0000
,
0010
0000
0000
1000
0000
0000
0110
0000
0000
0000
0000
0000
0000
0000
0000
0000
,
0001
0000
0000
1000
0000
0000
2001
0000
0000
0000
0000
0000
3010
0000
0000
0000
,
0100
0000
0000
0001
0000
0000
0201
0000
0000
0000
0000
0000
0301
0000
0000
0000
,
1000
0000
0000
0000
0010
0000
0000
0000
0100
0000
0000
0000
0001
0000
0000
0011
,
0000
0000
1000
0001
,
0100
0000
0000
0000
0010
0000
0000
0110
0000
0000
0000
0000
1000
0000
0000
0000
,
0001
0000
0000
0100
0000
0000
0201
0000
0000
0000
0001
0000
0301
0000
0000
0000
,
1000
0000
0000
0001
0000
0000
2010
0000
0000
0000
0000
0000
3010
0000
0000
0000
,
0100
0000
0000
0001
0000
0000
0020
0000
0000
0000
0000
0000
0030
0000
0000
0000
,
0100
0000
0000
0001
0000
0000
2001
0000
0000
0000
0000
0000
3010
0000
0000
0000
,
0100
0000
0000
0001
0000
0000
0202
0000
0000
0000
0000
0000
0303
0000
0000
0000
,
1000
0000
0000
0000
0010
0000
0000
0000
0100
0000
0000
0000
0001
0000
0000
2000
,
0000
0010
0010
3010
,
0200
0001
0001
0301
,
0020
1000
1000
1030
,
0200
0001
0301
1000
,
0010
0000
0100
0000
0001
0000
0000
1000
0000
0000
0010
0000
0100
0000
0000
0000
,
0001
0000
1000
0000
0010
0000
0000
0100
0000
0000
0001
0000
0000
1000
0000
0000
,
0001
0000
0100
0000
0010
0000
0000
1000
0000
0000
0010
0000
0000
0100
0000
0000
,
0001
1000
0010
0100
0001
1000
0010
0100
,
0001
0000
0000
1000
0000
0000
1001
0000
0000
0000
0000
0000
0000
0000
0000
0000
;

//---------------dance-single - ----------------
#NOTES:
     dance-single:
     :
     Medium:
     5:
     0.225528,0.279711,0.027063,0.081190,0.112764,175.000000,172.000000,3.000000,9.000000,0.000000,0.000000,0.225528,0.279711,0.027063,0.081190,0.112764,175.000000,172.000000,3.000000,9.000000,0.000000,0.000000:
0000
0000
0000
0000
,
0000
0000
0000
0000
,
0000
0000
0000
0000
,
0000
0000
0000
0000
,
2000
0000
0000
0000
0000
0000
0000
0000
0000
0000
0000
3000
0000
0000
0000
0000
,
0020
0000
0000
0000
0000
0000
0000
0000
0000
0000
0000
0030
0000
0000
0000
0000
,
0200
0000
0000
0000
0000
0000
0000
0000
0000
0000
0000
0300
0000
0000
0000
0000
,
0002
0000
0000
0000
0000
0003
0000
0000
,
1000
0000
0000
0000
0000
0000
0000
0000
0000
0000
0010
0000
0000
0010
0000
0000
,
0010
0000
0000
0000
0100
0000
0000
0000
0000
0000
0001
0000
0000
0001
0000
0000
,
0001
0000
0000
0000
1000
0000
0000
0000
0000
0000
0100
0000
0000
0100
0000
0000
,
0100
0000
0010
0001
,
1000
0000
0010
0100
,
0010
0000
0000
1000
0000
0001
0000
1000
,
0000
0000
1010
0000
0000
0000
0000
0000
0000
0000
0100
0000
0000
0100
0000
0000
,
0100
0010
0100
0010
,
1000
0000
0000
0000
0000
0000
0000
0000
0001
0000
0010
0000
0000
0010
0000
0000
,
0010
0000
0000
0000
0100
0000
0000
0000
0000
0000
1000
0000
0000
1000
0000
0000
,
1000
0000
0000
0000
0010
0000
0000
0000
0000
0000
0100
0000
0000
0100
0000
0000
,
0100
0001
1000
0001
,
1000
0000
0000
0000
0000
0000
0000
0000
0000
0000
0100
0000
0000
0010
0000
0000
,
0100
0000
0000
0000
0001
0000
0000
0000
0000
0000
1000
0000
0000
0010
0000
0000
,
1000
0000
0001
0000
0100
0000
0010
0200
,
0000
0000
0000
0000
0000
0000
0000
0300
0001
0000
0000
0000
1000
0000
0000
0000
,
0010
0000
0100
0000
0001
0000
1000
0010
,
0000
0100
0010
0100
0001
0000
1000
0000
,
0010
0000
0100
0000
0001
0000
0000
1000
,
0000
0010
0100
0110
,
0001
0000
1000
0000
0010
0000
0000
0100
,
0000
0000
0000
0001
0000
0000
0000
0000
,
1000
0000
0000
0010
0000
0000
0100
0000
,
0002
0000
0000
0000
0000
0000
0000
0003
,
0000
0000
1000
0010
,
0100
0000
0000
0000
0001
0000
0000
0001
0000
0000
0000
0000
1000
0000
0000
0000
,
0010
0000
0000
0100
0000
0000
0100
0000
0000
0000
0000
0000
0000
0000
0000
0000
,
0001
0000
0000
1000
0000
0000
0010
0000
,
0100
0000
0000
0110
0000
0000
0000
0000
,
1000
0000
0000
0001
0000
0000
1000
0000
0000
0000
0000
0000
0010
0000
0000
0000
,
0100
0000
0000
0001
0000
0000
0100
0000
0000
0000
0000
0000
0010
0000
0000
0000
,
1000
0000
0000
0000
1000
0000
0000
0000
0010
0000
0000
0000
0100
0000
0000
0100
,
0000
0000
0001
1000
,
0010
0000
0000
0000
0100
0000
0000
0100
0000
0000
0000
0000
0001
0000
0000
0000
,
1000
0000
0000
0010
0000
0000
0100
0000
0000
0000
0000
0000
0000
0000
0000
0000
,
0001
0000
0000
1000
0000
0000
0010
0000
0000
0000
0000
0000
0000
0000
0000
0000
,
0100
0000
0000
0001
0000
0000
1000
0000
0000
0000
0000
0000
0000
0000
0000
0000
,
0010
0000
0000
0100
0000
0000
0002
0000
0000
0000
0000
0000
0003
0000
0000
0000
,
1000
0000
0000
0010
0000
0000
0200
0000
0000
0000
0000
0000
0300
0000
0000
0000
,
0001
0000
0000
0000
0010
0000
0000
0000
0100
0000
0000
0000
1000
0000
0000
2000
,
0000
0000
0000
3000
,
0010
0010
0010
0100
,
0001
1000
1000
0010
,
0100
0001
1000
0010
,
0100
0000
0000
0000
0001
0000
0000
0001
0000
0000
0000
0000
1000
0000
0000
0000
,
0010
0000
0000
0000
0100
0000
0000
0100
0000
0000
0000
0000
0001
0000
0000
0000
,
1000
0000
0000
0000
0010
0000
0000
0010
0000
0000
0000
0000
0100
0000
0000
0000
,
0001
1000
0010
0100
,
0001
0000
0000
1000
0000
0000
0001
0000
0000
0000
0000
0000
0000
0000
0000
0000
;

//---------------dance-single - ----------------
#NOTES:
     dance-single:
     :
     Easy:
     3:
     0.176556,0.228854,0.000000,0.117275,0.063148,137.000000,137.000000,0.000000,13.000000,0.000000,0.000000,0.176556,0.228854,0.000000,0.117275,0.063148,137.000000,137.000000,0.000000,13.000000,0.000000,0.000000:
0000
0000
0000
0000
,
0000
0000
0000
0000
,
0000
0000
0000
0000
,
0000
0000
0000
0000
,
0002
0000
0000
0003
,
2000
0000
0000
3000
,
0020
0000
0000
0030
,
0200
0000
0000
0300
,
0001
0000
0000
0000
0000
0000
0000
0000
0000
0000
1000
0000
0000
1000
0000
0000
,
1000
0000
0000
0000
0000
0000
0000
0000
0000
0000
0010
0000
0000
0010
0000
0000
,
0010
0000
0000
0000
0000
0000
0000
0000
0000
0000
0100
0000
0000
0100
0000
0000
,
0100
0000
0001
0000
,
1000
0000
0000
0000
0000
0000
0000
0000
0000
0000
0010
0000
0000
0010
0000
0000
,
0010
0000
0000
0000
0000
0000
0000
0000
0000
0000
0100
0000
0000
0100
0000
0000
,
0100
0000
0000
0000
0000
0000
0000
0000
0000
0000
0001
0000
0000
0001
0000
0000
,
0001
0000
1000
0000
,
0010
0100
0001
0000
,
1000
0010
0100
0000
,
0001
1000
0010
0100
,
0010
0010
1000
0001
,
0100
0000
0000
0000
0010
0000
0000
2000
0000
0000
0000
0000
3000
0000
0000
0000
,
0001
0100
0020
0030
,
0000
0000
1000
0000
0010
0000
0000
0200
,
0000
0300
0001
0010
,
0100
0000
0100
0000
0010
0000
0000
1000
,
0000
0000
0010
0100
,
0001
0000
1000
0000
0010
0000
0000
0100
,
0000
0000
0010
1000
,
0001
0000
0100
0000
0010
0000
0000
1000
,
0000
0000
0000
0001
0000
0000
0000
0000
,
0100
0000
0000
0010
0000
0000
0100
0000
,
0020
0000
0000
0000
0000
0000
0000
0030
,
0000
0000
0001
0100
,
0001
0000
0000
0000
1000
0000
0000
0010
0000
0000
0000
0000
0000
0000
0000
0000
,
0100
0000
0000
0010
0000
0000
0000
0000
,
1000
0000
0000
0001
0000
0000
0100
0000
,
0010
0000
0000
0100
0000
0000
0000
0000
,
0001
0000
0000
0001
0000
0000
0001
0000
0000
0000
0000
0000
0000
0000
0000
0000
,
1000
0000
0000
1000
0000
0000
1000
0000
0000
0000
0000
0000
0000
0000
0000
0000
,
0010
0000
0100
0000
0010
0000
0000
0200
,
0000
0000
0000
0000
0000
0300
0000
0000
0000
0000
0000
0000
0000
0000
0000
0000
,
1000
0000
0000
0001
0000
0000
0100
0000
,
0010
0000
0000
1000
0000
0000
0000
0000
,
0001
0000
0000
0100
0000
0000
0010
0000
,
1000
0000
0000
0001
0000
0000
0000
0000
,
0100
0000
0000
0100
0000
0000
0100
0000
0000
0000
0000
0000
0000
0000
0000
0000
,
0010
0000
0000
0010
0000
0000
0010
0000
0000
0000
0000
0000
0000
0000
0000
0000
,
1000
0000
0000
0000
0001
0000
0000
0000
0100
0000
0000
0000
0010
0000
0000
0020
,
0000
0000
0000
0000
0000
0000
0000
0000
0000
0000
0000
0030
0000
0000
0000
0000
,
2000
0000
0000
3000
,
0002
0000
0000
0003
,
0200
0000
0000
0300
,
0010
1000
0010
0100
,
0001
1000
0010
0100
,
0010
1000
0001
0100
,
0010
1000
0001
0100
,
0010
0000
0000
1000
0000
0000
0001
0000
0000
0000
0000
0000
0000
0000
0000
0000
;

//---------------dance-single - Copied from----------------
#NOTES:
     dance-single:
     Copied from:
     Beginner:
     2:
     0.072169,0.126296,0.000000,0.009021,0.000000,56.000000,56.000000,0.000000,1.000000,0.000000,0.000000,0.072169,0.126296,0.000000,0.009021,0.000000,56.000000,56.000000,0.000000,1.000000,0.000000,0.000000:
0000
0000
0000
0000
,
0000
0000
0000
0000
,
0000
0000
0000
0000
,
0000
0000
0000
0000
,
0001
0000
0000
0000
,
0001
0000
0000
0000
,
0001
0000
0000
0000
,
0001
0000
0000
0000
,
1000
0000
0000
0000
,
1000
0000
0000
0000
,
1000
0000
0000
0000
,
1000
0000
0000
0000
,
0010
0000
0000
0000
,
0100
0000
0000
0000
,
0010
0000
0000
0000
,
0100
0000
0000
0000
,
0001
0000
0000
0000
,
1000
0000
0000
0000
,
0001
0000
0000
0000
,
1000
0000
0000
0000
,
0010
0000
0000
0000
,
0100
0000
0000
0000
,
0010
0000
0000
0000
,
0100
0000
0000
0000
,
0001
0000
0001
0000
,
0000
0000
0000
0000
,
1000
0000
1000
0000
,
0000
0000
0000
0000
,
0010
0000
0010
0000
,
0000
0000
0000
0000
,
0100
0000
0000
0100
0000
0000
0000
0000
,
0020
0000
0000
0000
,
0030
0000
0000
0000
,
1000
0000
0000
0000
,
0001
0000
0000
0000
,
1000
0000
0000
0000
,
0001
0000
0000
0000
,
1000
0000
0000
0010
0000
0000
0000
0000
,
0100
0000
0000
0001
0000
0000
0000
0000
,
1000
0000
0000
0000
,
0000
0000
0000
0000
,
0001
0000
0000
0000
,
1000
0000
0000
0000
,
0001
0000
0000
0000
,
1000
0000
0000
0000
,
0001
0000
0000
0100
0000
0000
0000
0000
,
0010
0000
0000
1000
0000
0000
0000
0000
,
0010
0000
0000
0000
,
0100
0000
0000
0000
,
0001
0000
0000
0000
,
1000
0000
0000
0000
,
0001
0000
0000
0000
,
1000
0000
0000
0000
,
0010
0000
0000
0000
,
0100
0000
0000
0000
,
0001
0000
0000
0000
,
1000
0000
0000
0000
;
