#TITLE:Time To Make History (AKIRA YAMAOKA Remix);
#SUBTITLE:;
#ARTIST:AKIRA YAMAOKA;
#TITLETRANSLIT:;
#SUBTITLETRANSLIT:;
#ARTISTTRANSLIT:;
#GENRE:;
#CREDIT:SupremeX;
#BANNER:Time To Make History (AKIRA YAMAOKA Remix).png;
#BACKGROUND:Time To Make History (AKIRA YAMAOKA Remix)-bg.png;
#LYRICSPATH:;
#CDTITLE:CDTitle.png;
#MUSIC:Time To Make History (AKIRA YAMAOKA Remix).ogg;
#OFFSET:-0.132979;
#SAMPLESTART:65.830002;
#SAMPLELENGTH:12.000000;
#SELECTABLE:YES;
#BPMS:0.000000=190.000000
;
#STOPS:
;
#BGCHANGES:0.000=Time To Make History (AKIRA YAMAOKA Remix).avi=1.000=0=0=1=====,
99999=-nosongbg-=1.000=0=0=0 // don't automatically add -songbackground-
;
#KEYSOUNDS:;
#ATTACKS:;

//---------------dance-single - ----------------
#NOTES:
     dance-single:
     :
     Hard:
     8:
     0.486493,0.608974,0.090144,0.160256,0.035056,340.000000,331.000000,9.000000,16.000000,0.000000,0.000000,0.486493,0.608974,0.090144,0.160256,0.035056,340.000000,331.000000,9.000000,16.000000,0.000000,0.000000:
0000
0000
0000
0000
,
0000
0000
0000
0000
,
0000
0000
0000
0000
,
0000
0000
0000
0000
,
0000
0000
0000
0000
0001
0000
0000
0000
0000
0000
0100
0001
0100
0000
0000
0000
,
0000
0000
0000
0000
1000
0000
0000
0000
0000
0000
0010
1000
0010
0000
0000
0000
,
0100
0000
0000
0000
0001
0000
0000
0000
0000
0000
0100
0010
0100
0000
0000
0000
,
0010
0000
0000
0000
1000
0000
0000
0000
0000
0000
0001
0100
0001
0000
0000
0000
,
0010
0000
0000
0000
0100
0000
1000
0000
0000
0000
0010
0100
0010
0000
0000
0000
,
1000
0000
0000
0000
0001
0000
1000
0000
0000
0000
0010
0100
0010
0000
0000
0000
,
0110
0000
0000
0000
0000
0000
1000
0001
1000
0000
0000
0000
1001
0000
0000
0000
,
0000
0000
0000
0000
,
0001
0000
0100
0000
0010
1000
0010
0000
,
0100
0001
0100
0010
0000
1000
0100
0000
,
0010
0000
0001
0000
0100
0010
0100
0000
,
0001
1000
0001
0010
0000
0100
1000
0000
,
0001
1000
0010
0100
,
0001
0010
0001
0100
0000
0100
0001
0000
,
1000
0000
0010
0000
1000
0100
1000
0000
,
0001
0100
0001
0010
0000
0100
1000
0000
,
0001
0010
0100
1000
0001
0100
0001
0000
,
0100
1000
0100
0010
0001
0010
0100
0000
,
1000
0001
0100
0001
0100
0010
1000
0000
,
0001
0100
0010
1000
0100
0100
0100
0100
,
0010
0001
0010
0000
0100
0000
1000
0000
,
0100
0001
0100
0010
0001
1000
0100
0000
,
0001
0100
0001
0000
0100
0010
0100
0000
,
0001
1000
0001
0100
0010
1000
0001
0000
,
0100
0000
0001
1001
,
0000
0100
0110
0000
,
0001
0000
0010
0000
0001
0000
1000
0010
,
0100
0010
1000
0010
0000
0100
0001
0000
,
0000
1000
0010
1000
,
0001
0100
0001
1000
0000
0010
1000
0010
,
0100
0001
0000
0100
0010
0000
0000
0000
,
1000
0010
1000
0001
0000
0100
0000
0010
,
1000
0001
0100
0010
,
1000
0001
1000
0010
,
0100
0000
0001
1000
0000
0001
0000
0000
,
0100
0010
1000
0001
1000
0000
0010
0000
,
0110
0000
0000
0000
0000
0000
0000
1000
,
0100
0000
0010
0001
0000
0000
0100
0000
,
0001
0000
0100
0010
1000
0000
0001
0010
,
0100
1000
0010
1000
0100
1000
0010
0000
,
0100
0000
0001
0010
0000
0000
0000
0000
,
0000
0100
1000
0000
0100
0000
0010
0001
,
0000
1000
0100
0000
0000
0000
0000
0000
,
0010
0100
0000
0001
0010
0000
0100
1000
,
0000
0010
0100
0000
0000
0000
0000
0000
,
0001
1000
0000
0100
0000
0100
0010
0000
,
0010
0001
0000
0000
0000
0000
0000
0000
,
1000
0100
0220
0330
,
0002
0100
2003
0100
,
3020
0000
0000
0000
0130
0001
0000
0200
,
0000
0001
0000
0001
,
0300
0000
0001
0000
1000
0010
0000
0200
,
0000
0300
0000
0000
0001
0100
0000
0010
,
0000
1000
0000
1000
0001
0000
0100
0000
,
2000
0000
0000
3000
0002
0000
0000
0003
,
0100
0010
0100
0001
0010
0100
1000
0000
,
0002
0100
2003
0100
,
3002
0000
0100
0003
1000
0100
0000
0020
,
0000
0001
0000
0031
,
0000
0100
1000
0010
,
0100
0001
2001
0000
,
0000
3000
0000
0000
,
0001
0100
0002
0003
,
1000
0010
1000
0201
,
0000
0001
0000
0001
,
0000
0301
0000
0100
,
0010
1000
0010
0100
0001
0100
0010
0000
,
0001
0100
0001
1000
0000
0010
0100
0000
,
0010
1000
0010
0100
0001
0100
0010
0000
,
0001
0100
0001
1000
0000
0010
0100
0000
,
0001
0010
0100
1000
0010
0100
0010
0000
,
1000
0100
0010
0001
0000
0100
0010
0000
,
1001
0000
0000
0000
;

//---------------dance-single - ----------------
#NOTES:
     dance-single:
     :
     Medium:
     5:
     0.319082,0.418670,0.010016,0.170272,0.000000,223.000000,222.000000,1.000000,17.000000,0.000000,0.000000,0.319082,0.418670,0.010016,0.170272,0.000000,223.000000,222.000000,1.000000,17.000000,0.000000,0.000000:
0000
0000
0000
0000
,
0000
0000
0000
0000
,
0000
0000
0000
0000
,
0000
0000
0000
0000
,
0000
0001
0000
0100
,
0000
1000
0000
0010
,
1000
0001
0000
1000
,
0001
1000
0000
0001
,
0100
0000
0001
0010
0000
0000
1000
0000
,
0001
0000
1000
0100
0000
0000
0001
0000
,
0001
0000
1000
1000
,
0000
0000
0000
0000
,
1000
0001
1000
0001
,
0100
0010
0100
0010
0000
0000
1000
0000
,
0010
1000
0010
1000
,
0001
0100
0001
0100
0000
0000
0010
0000
,
1000
0010
1000
0010
,
0001
0100
0001
0100
0000
0000
0010
0000
,
1000
0010
1000
0010
,
0001
1000
0001
1000
0000
0100
0001
0000
,
0010
0100
0010
0100
,
0001
1000
0001
1000
,
0010
1000
0010
1000
,
0001
0100
0001
0100
,
0010
0010
1000
1000
,
0001
0001
0100
0100
,
0010
0010
1000
1000
,
0001
0001
0100
0100
,
0001
0000
1000
0001
,
0000
0100
0010
0000
,
1000
0001
0100
0010
,
0000
0000
1000
0010
0000
1000
0000
0000
,
0000
0001
1000
0010
,
1000
0000
0000
0010
0000
0000
0001
0000
,
1000
0100
0000
0010
0001
0000
0000
0000
,
0000
0000
0000
0000
,
1000
0001
0100
0010
,
1000
0001
1000
0010
,
0100
0000
0001
0001
0000
1000
0000
0000
,
0020
0000
0000
0030
1000
0000
0010
0000
,
0100
0000
0000
0000
0000
0000
0000
0001
,
1000
0000
0001
1000
0000
0000
0010
0000
,
0000
0000
1000
0010
0100
0000
0001
1000
,
0000
0000
0000
0000
0000
0100
0001
0000
,
0010
0000
1000
0100
0000
0000
0000
0000
,
0000
0000
0001
0000
0100
0000
1000
0100
,
0000
0010
0001
0000
0000
0000
0000
0000
,
0000
1000
0000
0010
0000
0000
0001
0100
,
0000
0010
1000
0000
0000
0000
0000
0000
,
0000
0001
0000
0001
0000
1000
1000
0000
,
0001
0001
0000
0000
0000
0000
0000
0000
,
0100
0010
1000
0000
,
0002
0000
2003
0000
,
3020
0000
0000
0030
0100
0001
0000
0200
,
0000
0000
0000
0000
,
0300
0000
0000
0000
0010
0000
0000
1000
,
0000
0000
0000
0000
0001
0000
0000
1000
,
0000
0001
0000
0100
0010
0000
0001
0000
,
2000
0000
0000
3000
0002
0000
0000
0003
,
0200
0000
0000
0300
,
0020
0000
2030
0000
,
3002
0000
0000
0003
1000
0010
0000
0200
,
0000
0000
0000
0000
,
0300
0000
0001
0010
,
0100
0010
2000
0000
,
0000
3000
0000
0000
,
0001
0100
0002
0003
,
1000
0010
1000
0020
,
0000
0000
0000
0000
,
0000
0030
0000
0100
,
2000
0000
0010
3000
,
0010
0010
0100
0100
,
0001
1000
0001
1000
,
0001
0100
0001
0100
0000
0010
0100
0000
,
0002
0000
0000
0003
,
1000
1000
0100
0001
,
1001
0000
0000
0000
;

//---------------dance-single - ----------------
#NOTES:
     dance-single:
     :
     Easy:
     3:
     0.250401,0.342548,0.000000,0.050080,0.000000,175.000000,175.000000,0.000000,5.000000,0.000000,0.000000,0.250401,0.342548,0.000000,0.050080,0.000000,175.000000,175.000000,0.000000,5.000000,0.000000,0.000000:
0000
0000
0000
0000
,
0000
0000
0000
0000
,
0000
0000
0000
0000
,
0000
0000
0000
0000
,
0010
0000
0000
0000
,
0100
0000
0000
0000
,
0010
0000
0000
0000
,
0100
0000
0000
0000
,
0001
1000
0000
0010
,
1000
0001
0000
0100
,
0001
0000
1000
0010
,
0000
0000
0000
0000
,
1000
0001
1000
0001
,
0100
0001
0100
0000
,
0010
1000
0010
1000
,
0001
1000
0001
0000
,
0100
0010
0100
0010
,
1000
0010
1000
0000
,
0100
0001
0100
0010
,
0100
0001
0100
0000
,
0001
0000
1000
0000
,
0010
0000
0100
0000
,
0001
0000
1000
0000
,
0100
0000
0001
0000
,
0010
1000
0000
0000
0000
0000
0000
0000
,
0001
0100
0000
0000
0010
0000
0010
0000
,
1000
0001
0000
0000
0100
0000
0100
0000
,
0001
0010
0000
0000
1000
0000
1000
0000
,
0010
0000
0100
0100
,
0000
0001
0001
0000
,
0000
1000
0000
0010
,
0000
1000
0000
0001
,
0100
0001
0100
0001
,
0100
0001
0100
0010
,
1000
0000
0001
0000
,
1000
0000
0010
0000
,
0100
0001
1000
0010
,
0100
0001
1000
0000
,
0010
0000
1000
0000
,
0001
0100
0001
0100
,
0010
0000
1000
0000
,
0001
0000
0000
1000
0000
0000
0000
0000
,
0010
0000
0000
0000
0100
0000
0000
0010
,
0000
1000
0001
1000
,
0010
0000
0000
0100
0000
0000
0000
0000
,
0000
0001
1000
0001
,
0100
0010
0000
0000
,
0000
1000
0010
0100
,
0001
0010
0000
0000
,
0000
0001
0100
1000
,
0001
0010
0000
0000
,
0100
0000
1000
0000
,
0001
0000
1000
0000
,
0010
0000
0000
0000
0100
0000
0000
0002
,
0000
0000
0000
0000
,
0003
0000
0000
0000
1000
0000
0000
0100
,
0000
0000
0000
0000
0010
0000
0000
0100
,
0000
0000
0001
0000
,
1000
0000
0010
0000
,
0200
0000
0000
0000
0000
0300
0000
0000
,
0001
0000
1000
0000
,
0010
0000
0000
0000
0100
0000
0000
2000
,
0000
0000
0000
0000
,
3000
0000
0010
0100
,
0010
0100
0002
0000
,
0003
0000
0000
0000
,
1000
0010
1000
0000
,
0001
0100
0010
2000
,
0000
0000
0000
0000
,
0000
3000
0000
0000
,
0010
0000
0100
0000
,
0001
0000
1000
0000
,
0100
0010
0100
0010
,
0001
1000
0001
0000
,
0100
1000
0010
0000
,
0100
0001
0100
0010
,
1000
0000
0000
0000
;

//---------------dance-single - Copied from----------------
#NOTES:
     dance-single:
     Copied from:
     Beginner:
     1:
     0.078697,0.112680,0.000000,0.000000,0.000000,55.000000,55.000000,0.000000,0.000000,0.000000,0.000000,0.078697,0.112680,0.000000,0.000000,0.000000,55.000000,55.000000,0.000000,0.000000,0.000000,0.000000:
0000
0000
0000
0000
,
0000
0000
0000
0000
,
0000
0000
0000
0000
,
0000
0000
0000
0000
,
0100
0000
0000
0000
,
0010
0000
0000
0000
,
0100
0000
0000
0000
,
0010
0000
0000
0000
,
0100
0000
0000
0000
,
0010
0000
0000
0000
,
0100
0000
0000
0000
,
0000
0000
0000
0000
,
0001
0000
0000
0000
,
0001
0000
0000
0000
,
0001
0000
0000
0000
,
0001
0000
0000
0000
,
1000
0000
0000
0000
,
1000
0000
0000
0000
,
1000
0000
0000
0000
,
1000
0000
0000
0000
,
0010
0000
0000
0000
,
0100
0000
0000
0000
,
0010
0000
0000
0000
,
0100
0000
0000
0000
,
0001
0000
0000
0000
,
0001
0000
0000
0000
,
1000
0000
0000
0000
,
1000
0000
0000
0000
,
0010
0000
0000
0000
,
0000
0000
0000
0000
,
0010
0000
0000
0000
,
0000
0000
0000
0000
,
0010
0000
0000
0000
,
0000
0000
0000
0000
,
0100
0000
0000
0000
,
0000
0000
0000
0000
,
0100
0000
0000
0000
,
0000
0000
0000
0000
,
0001
0000
0000
0000
,
0000
0000
0000
0000
,
0001
0000
0000
0000
,
0000
0000
0000
0000
,
0000
0000
0000
1000
,
0000
0000
0000
0000
,
0010
0000
0000
0000
,
0000
0000
0000
0000
0000
0000
0000
0100
,
0000
0000
0000
0000
,
0000
0000
0000
0000
0000
0000
0000
0010
,
0000
0000
0000
0000
,
0000
0000
0000
0000
0000
0000
0000
0100
,
0000
0000
0000
0000
,
0000
0000
0000
0000
,
1000
0000
0000
0000
,
1000
0000
0000
0000
,
0001
0000
0000
0000
,
0000
0000
0000
0000
,
0100
0000
0000
0000
,
0100
0000
0000
0000
,
0010
0000
0000
0000
,
0010
0000
0000
0000
,
0001
0000
0000
0000
,
1000
0000
0000
0000
,
0001
0000
0000
0000
,
0000
0000
0000
0000
,
0100
0000
0000
0000
,
0000
0000
0000
0000
,
0100
0000
0000
0000
,
0000
0000
0000
0000
,
0010
0000
0000
0000
,
0010
0000
0000
0000
,
1000
0000
0000
0000
,
0001
0000
0000
0000
,
0100
0000
0000
0000
,
0100
0000
0000
0000
,
0001
0000
0000
0000
,
1000
0000
0000
0000
;
