#TITLE:Thunder,Light,Stone,Fire;
#SUBTITLE:;
#ARTIST:忍迅雷音;
#TITLETRANSLIT:;
#SUBTITLETRANSLIT:;
#ARTISTTRANSLIT:Ninjinriot;
#GENRE:;
#CREDIT:SupremeX;
#BANNER:Thunder,Light,Stone,Fire.png;
#BACKGROUND:Thunder,Light,Stone,Fire-bg.png;
#LYRICSPATH:;
#CDTITLE:CDTitle.png;
#MUSIC:Thunder,Light,Stone,Fire.ogg;
#OFFSET:-0.071247;
#SAMPLESTART:58.700001;
#SAMPLELENGTH:12.000000;
#SELECTABLE:YES;
#BPMS:0.000000=180.000000
;
#STOPS:
;
#BGCHANGES:0.000=1.000=0.000=0=1=1=StretchRewind====,
16.000=hana160.avi=1.000=0=0=1=====,
48.000=blinds1.avi=1.000=0=0=1=====,
64.000=light1.avi=1.000=0=0=1=====,
80.000=fireworks2.avi=1.000=0=0=1=====,
95.000=hana160.avi=1.000=0=0=1=====,
113.000=fireworks1.avi=1.000=0=0=1=====,
127.000=letters1.avi=1.000=0=0=1=====,
144.000=circle1d.avi=1.000=0=0=1=====,
160.000=fireworks2.avi=1.000=0=0=1=====,
171.500=ninji2.png=1.000=0=0=1=====,
176.000=thunder1.avi=1.000=0=0=1=====,
192.000=lightning1.avi=1.000=0=0=1=====,
208.000=thunder1.avi=1.000=0=0=1=====,
224.000=light1.avi=1.000=0=0=1=====,
232.000=Ninji1.png=1.000=0=0=1=====,
240.000=letters1.avi=1.000=0=0=1=====,
248.000=thunder1.avi=1.000=0=0=1=====,
256.000=letters1r.avi=1.000=0=0=1=====,
264.000=lightning1.avi=1.000=0=0=1=====,
272.000=blinds1.avi=1.000=0=0=1=====,
288.000=fireworks1.avi=1.000=0=0=1=====,
304.000=Thunder=1.000=0=0=1=====,
99999=-nosongbg-=1.000=0=0=0 // don't automatically add -songbackground-
;
#KEYSOUNDS:;
#ATTACKS:;

//---------------dance-single - ----------------
#NOTES:
     dance-single:
     :
     Beginner:
     2:
     0.167158,0.213567,0.009141,0.082273,0.000000,128.000000,127.000000,1.000000,9.000000,0.000000,0.000000,0.167158,0.213567,0.009141,0.082273,0.000000,128.000000,127.000000,1.000000,9.000000,0.000000,0.000000:
0000
0000
0000
0000
,
0000
0000
0000
0000
,
0000
0000
0000
0000
,
0000
0000
0000
0000
,
1000
0000
0001
0000
,
0100
0000
0010
0000
,
1000
0000
0001
0000
,
0100
0000
0010
0000
,
1000
0000
0001
0000
,
0100
0000
0010
0000
,
1000
0000
0001
0000
,
0100
0000
1000
0000
,
0001
0000
0010
0000
,
1000
0000
0010
0000
,
0100
0000
0001
0000
,
1000
0000
0010
0000
,
0100
0000
0001
0000
,
1000
0000
0010
0000
,
0100
0000
0001
0000
,
0001
0000
1000
0000
,
0110
0000
1000
0000
,
1000
0000
0001
0000
,
0100
0000
0020
0000
,
0000
0030
0000
0000
0000
0000
0000
0000
,
1000
0000
1000
0000
,
0010
0000
0100
0000
,
0001
0000
0010
0000
,
1000
0000
0001
0000
,
0001
0000
0100
0000
,
0010
0000
1000
0000
,
0001
0000
0000
0200
0000
0000
0000
0000
,
0000
0300
0000
0000
0000
0000
0000
0000
,
1000
0000
1000
0000
,
0010
0000
0001
0000
,
0100
0000
0001
0000
,
1000
0000
0001
0000
,
2000
0000
0000
0000
0000
0000
0000
3000
,
0000
0000
0001
0000
,
0100
0000
1000
0000
,
0010
0000
1000
0000
,
0001
0000
0010
0000
,
0200
0000
0000
0000
,
0000
0000
0000
0000
,
0300
0000
0000
0000
,
0001
0000
0001
0000
,
0010
0000
0100
0000
,
1000
0000
0020
0000
,
0030
0000
0000
0000
,
1000
0000
0001
0000
,
0100
0000
0001
0000
,
1000
0000
2000
0000
,
0000
0000
0000
3000
,
0001
0000
0010
0000
,
0100
0000
1000
0000
,
0100
0000
0002
0003
,
1000
0000
0002
0003
,
0100
0000
0000
0000
,
0010
0000
0000
0000
,
1000
0000
0000
0001
0000
0000
1000
0000
,
0000
0000
0000
0000
,
0100
0000
0010
0000
,
0100
0000
0001
0000
,
1000
0000
0001
0000
,
1000
0000
0001
0000
,
0100
0000
0010
0000
,
0100
0000
1000
0000
,
0001
0000
1000
0000
,
0001
0000
0100
0000
,
0010
0000
1000
0000
,
0001
0000
0100
0000
,
0010
0000
1000
0000
,
0001
0000
1000
0000
,
0010
0000
0100
0000
,
0001
0000
1000
0000
,
0010
0000
0100
0000
,
0001
0000
1000
0000
,
0002
0000
0000
0000
,
0000
0000
0000
0000
0000
0000
0000
0003
;

//---------------dance-single - ----------------
#NOTES:
     dance-single:
     :
     Easy:
     3:
     0.249431,0.320350,0.027424,0.127980,0.000000,191.000000,188.000000,3.000000,14.000000,0.000000,0.000000,0.249431,0.320350,0.027424,0.127980,0.000000,191.000000,188.000000,3.000000,14.000000,0.000000,0.000000:
0000
0000
0000
0000
,
0000
0000
0000
0000
,
0000
0000
0000
0000
,
0000
0000
0000
0000
,
1000
0010
1000
0000
,
0001
0100
0001
0000
,
0010
1000
0010
0000
,
0100
0001
0100
0000
,
1000
1000
1000
0000
,
0010
0010
0010
0000
,
0100
0100
0100
0000
,
0001
0001
0001
0000
,
1000
0000
0001
0000
,
0100
0000
0010
0000
,
1000
0000
0001
0000
,
0100
0000
1000
0000
,
0001
0000
0100
0000
,
1000
0000
0001
0000
,
0100
1000
0001
0100
,
0000
0001
1000
0010
,
0000
1000
0001
0100
,
0010
0000
0000
1000
0000
0000
0000
0010
,
0000
0100
0000
0000
,
0000
0000
0000
0000
,
1000
0001
0100
0020
,
0000
0000
0000
0030
0000
0000
1000
0000
,
0001
0100
0010
1000
,
0001
0000
0100
0000
,
0010
0000
1000
0000
,
0001
0100
0010
0000
,
1000
0001
0200
0000
,
0000
0300
0000
0000
0000
0000
1000
0000
,
0001
0000
0000
1000
0000
0000
0002
0000
,
0000
0000
0000
0003
0000
0000
0000
0000
,
1000
0000
0001
0000
,
0100
0000
1000
0000
,
0002
0000
2003
0000
,
3020
0000
0000
0030
0200
0000
0000
0000
,
0302
0000
0000
0000
2003
0000
0000
3000
,
0020
0000
0230
0300
,
0001
0000
1000
0000
,
0010
0000
1000
0000
,
0100
0001
1000
0010
,
0100
0000
0000
0000
,
1000
0001
0100
0010
,
1000
0000
0001
0000
,
0100
0100
0100
0000
,
0010
0010
0010
0000
,
1000
0000
0001
0000
,
0100
0010
1000
0001
,
0100
0000
0000
1100
0000
0000
0000
0000
,
0000
0000
0000
0000
,
0010
0000
0100
0001
,
1000
0010
0000
0100
,
0000
0001
1000
0000
,
0010
0100
1000
0000
,
0001
0000
0100
0010
,
0001
0000
1000
0000
,
0001
0000
0000
1001
0000
0000
2002
0000
,
0000
0000
0000
3003
,
1000
0001
0100
0000
,
0001
1000
0010
0000
,
0100
0001
0010
0000
,
1000
0010
0100
0000
,
1000
0001
1000
0000
,
0010
0100
0010
0000
,
1000
0010
1000
0001
,
0100
0010
0001
0010
,
1000
0010
0100
0010
,
1000
0010
0100
0000
,
0001
1000
0001
0100
,
0010
1000
0001
0000
,
0100
0010
0100
0001
,
0100
0010
0001
0000
,
1000
0001
1000
0010
,
1000
0100
1000
0000
,
0002
0000
0000
0000
,
0000
0000
0000
0000
0000
0000
0000
0003
;

//---------------dance-single - Copied from----------------
#NOTES:
     dance-single:
     Copied from:
     Medium:
     6:
     0.347375,0.426448,0.027424,0.127980,0.000000,266.000000,263.000000,3.000000,14.000000,0.000000,0.000000,0.347375,0.426448,0.027424,0.127980,0.000000,266.000000,263.000000,3.000000,14.000000,0.000000,0.000000:
0000
0000
0000
0000
,
0000
0000
0000
0000
,
0000
0000
0000
0000
,
0000
0000
0000
0000
,
0010
0000
1000
0000
0001
0100
0010
0000
,
1000
0000
0001
0000
0100
0010
1000
0000
,
0001
0000
0100
0000
0001
0010
0100
0000
,
1000
0000
0010
0000
1000
0100
0010
0000
,
0100
0000
0001
0000
1000
0010
1000
0000
,
0001
0000
0100
0000
0010
0100
0010
0000
,
1000
0001
0100
0010
,
1000
0001
0100
0010
,
1000
0000
0001
1000
0000
0010
1000
0000
,
0001
0100
0000
0010
1000
0000
0001
0000
,
0100
0010
1000
0001
,
0100
0010
1000
0001
,
0100
0000
1000
0010
0000
0100
0001
0000
,
0010
1000
0000
0010
0100
0000
1000
0000
,
0001
0000
1000
0010
0000
0100
0001
0000
,
0100
0010
0000
1000
0001
0000
0100
0000
,
0010
1000
0001
0100
,
0010
1000
0000
0001
0000
0100
0010
1000
,
0000
0001
0100
0020
0000
0000
0000
0000
,
0000
0030
0000
0001
,
0100
0000
0010
1000
0000
0001
0200
0000
,
0000
0000
0000
0300
0000
0000
0001
0000
,
1000
0000
0010
0000
0100
0000
1000
0002
,
0000
0000
0000
0003
,
0000
0000
1000
0010
,
0100
0001
0000
1000
0000
0010
0000
0100
,
0000
0001
1000
0002
0000
0000
0000
0000
,
0000
0003
0000
1000
,
0010
0000
0100
1000
0000
0100
1000
0000
,
0010
0100
0010
0000
,
0001
0000
1000
0000
0010
0000
0100
0001
,
0000
0000
1000
0010
,
0100
0000
0000
0010
0000
0000
2000
0000
,
0000
0000
0000
0001
0000
0000
0010
0000
,
0000
0010
0000
0000
0001
0000
0000
3001
,
0000
0000
0100
0000
0000
0010
0000
0000
,
1000
0000
0000
0001
0000
0000
0200
0000
,
0000
0000
0000
0010
0000
0000
0010
0000
,
0000
0010
0000
0000
0010
0000
0000
0310
,
0000
0000
0000
0000
,
1000
0001
0100
0010
,
1000
0001
0000
0100
0000
0010
0000
1000
,
0000
0000
0001
1000
0002
0000
0000
0003
,
0000
1000
0010
0000
,
0001
1000
0010
0100
,
0001
1000
0010
0100
,
0001
0000
1000
0020
0000
0000
0000
0000
,
0000
0000
0000
0030
,
0000
1000
0001
0100
,
0010
1000
0000
0001
0000
0100
0010
0000
,
0000
1000
0001
0100
0020
0000
0000
0030
,
0000
0000
0000
0000
2000
0000
0000
3000
,
0001
0000
0100
0000
,
0010
0000
1000
0000
,
0001
0000
0000
1010
0000
0000
0202
0000
,
0000
0000
0000
0000
0000
0000
0000
0303
,
0000
1000
0001
0100
,
0010
0000
1000
0000
0001
0100
0001
0000
,
1000
0010
0100
0001
,
1000
0000
0010
0000
0100
1000
0100
0000
,
0010
0100
0001
1000
,
0010
0000
0100
0000
0001
1000
0001
0000
,
1000
0100
0010
0001
,
1000
0010
0100
0001
,
1000
0000
0001
0001
0000
1000
1000
0000
,
0010
0010
0000
0100
0100
0000
0001
0000
,
0000
0000
1000
0000
0010
0100
0000
0001
,
0100
0000
0010
1000
0000
0010
0100
0000
,
0001
0000
1000
0000
0000
0010
0100
0000
,
0001
1000
0000
0010
0100
0000
0001
0000
,
1000
0000
0010
0100
0000
1000
0010
0000
,
0100
0001
0000
1000
0010
0000
1000
0000
,
2002
0000
0000
0000
,
0000
0000
0000
3003
;

//---------------dance-single - Copied from----------------
#NOTES:
     dance-single:
     Copied from:
     Hard:
     8:
     0.458378,0.533060,0.091414,0.137122,0.009141,351.000000,341.000000,10.000000,15.000000,0.000000,0.000000,0.458378,0.533060,0.091414,0.137122,0.009141,351.000000,341.000000,10.000000,15.000000,0.000000,0.000000:
0000
0000
0000
0000
,
0000
0000
0000
0000
,
0000
0000
0000
0000
,
0000
0000
0000
0000
,
0010
1000
0010
0100
0001
0100
0010
0000
,
1000
0010
1000
0001
0100
0010
1000
0000
,
0100
0001
0100
0010
1000
0010
0100
0000
,
0001
0100
0001
1000
0010
0100
1000
0000
,
0001
0100
0001
1000
0100
0010
0001
0000
,
1000
0010
1000
0001
0010
0100
1000
0000
,
0010
0100
0010
0000
1000
0010
1000
0000
,
0001
0100
0001
0000
1000
0010
0100
0000
,
0001
0000
1000
0010
0000
0100
0010
0000
,
0100
0001
0000
1000
0010
0000
0100
0000
,
0000
0000
0010
0000
0100
0010
0000
1000
,
0001
0000
0100
0001
0000
1000
0010
0000
,
0100
0000
0001
0010
0000
0100
1000
0000
,
0100
0010
0000
0001
0010
0000
0100
0000
,
0000
0000
1000
0010
1000
0001
0100
0000
,
0010
1000
0010
0100
0001
0100
0010
1000
,
0010
0100
0001
1000
,
0010
0100
0000
0010
0000
1000
0001
0100
,
0000
1000
0001
0200
0000
0000
0010
0000
,
0000
0310
0000
1000
,
0010
0000
1000
0010
0000
0100
0002
0000
,
0000
0000
0103
0000
0000
0000
0010
0100
,
1000
0000
0001
0000
0100
0000
1000
0020
,
0000
0100
0000
0130
,
0000
0000
0001
0000
1000
0000
0100
0001
,
1000
0001
0000
0100
0000
0010
0000
1000
,
0000
0001
0100
2000
0000
0000
0010
0000
,
0000
3010
0000
0100
,
0001
0000
1000
0010
0000
0100
0002
0000
,
0000
0100
0000
0103
,
0010
0000
1000
0000
0010
0000
1000
0010
,
0100
0001
0100
0010
1000
0001
1000
0000
,
1010
0000
0000
0101
0000
0000
2001
0000
,
0000
0000
0010
0010
0000
0010
0010
0000
,
0001
0001
0000
0001
0001
0000
0001
3001
,
0000
0100
0010
0000
0001
1000
0000
0000
,
1010
0000
0000
0101
0000
0000
1002
0000
,
0000
0000
0100
0100
0000
0100
0100
0000
,
1000
1000
0000
1000
1000
0000
1000
1003
,
0000
0000
0000
0000
,
0010
0000
1000
0000
0001
0000
0100
0001
,
0100
0010
0000
1000
0000
0010
0100
0010
,
0000
1000
0001
0010
0200
0000
0000
0000
,
1000
1000
1300
0000
,
1000
0000
0001
0000
0100
0000
0000
0010
,
0000
1000
0100
0010
,
0001
0000
0100
0020
0000
0000
1000
0000
,
1000
1000
1000
1000
,
1030
0000
0100
0000
0001
0000
0010
0001
,
0010
0100
0000
1000
0000
0010
0100
0001
,
0000
0001
0100
0010
2000
0000
0000
0000
,
3100
0010
0002
0000
,
0103
0000
0000
0000
0000
0000
0000
0000
0001
0000
0000
0010
0000
0000
0100
0000
,
0000
1000
0000
0000
0010
0000
0000
0000
0100
0000
0000
0000
0000
0000
0000
0000
,
1001
0000
0000
1010
0000
0000
0202
0000
,
0000
0000
0000
0303
,
0010
0000
1000
0000
0010
1000
0010
0000
,
0100
0000
0001
0000
0100
0001
0100
0000
,
0010
0000
1000
0000
0010
1000
0010
0000
,
0100
0001
0100
0000
0010
1000
0001
0000
,
1000
0100
0010
0001
0100
0010
1000
0000
,
0001
0100
0001
0100
0010
1000
0010
0000
,
0100
0001
0001
0000
0010
1000
1000
0000
,
0100
0010
0010
0000
0001
0100
0100
0000
,
1000
0000
0010
1000
0000
0100
0010
0000
,
0001
1000
0000
0010
0100
0000
0010
0000
,
0000
0000
1000
0000
0100
0010
0000
0001
,
1000
0000
0010
0100
0000
0001
1000
0000
,
0010
0000
0100
0010
0000
0001
1000
0000
,
0010
0100
0000
0001
0100
0000
0010
0000
,
0000
0000
1000
0000
1000
0010
0000
0100
,
0001
0010
1000
0100
0010
0001
0100
0010
,
2002
0000
0000
0000
,
0000
0000
0000
3003
;
