#TITLE:The Epic;
#SUBTITLE:;
#ARTIST:Cranky;
#TITLETRANSLIT:;
#SUBTITLETRANSLIT:;
#ARTISTTRANSLIT:;
#GENRE:;
#CREDIT:SupremeX;
#BANNER:The epic.png;
#BACKGROUND:The epic-bg.png;
#LYRICSPATH:;
#CDTITLE:CDTitle.png;
#MUSIC:The Epic.ogg;
#OFFSET:0.063792;
#SAMPLESTART:38.540001;
#SAMPLELENGTH:12.000000;
#SELECTABLE:YES;
#BPMS:0.000000=163.000000
;
#STOPS:
;
#BGCHANGES:33.000=wave145.avi=1.000=0=0=1=====,
49.000=spiral2.avi=1.000=0=0=1=====,
65.000=spiral1.avi=1.000=0=0=1=====,
73.750=spiral3.avi=1.000=0=0=1=====,
81.750=spiral1.avi=1.000=0=0=1=====,
89.000=spiral3.avi=1.000=0=0=1=====,
93.000=square2.avi=1.000=0=0=1=====,
101.750=colors4.avi=1.000=0=0=1=====,
105.000=piranha1.avi=1.000=0=0=1=====,
112.500=square2.avi=1.000=0=0=1=====,
121.000=piranha1.avi=1.000=0=0=1=====,
129.000=square2.avi=1.000=0=0=1=====,
137.000=piano3.avi=1.000=0=0=1=====,
169.000=spiral3.avi=1.000=0=0=1=====,
201.000=wave145.avi=1.000=0=0=1=====,
217.000=spiral2.avi=1.000=0=0=1=====,
231.000=spiral1.avi=1.000=0=0=1=====,
241.000=square2.avi=1.000=0=0=1=====,
253.750=colors4.avi=1.000=0=0=1=====,
257.000=piranha1.avi=1.000=0=0=1=====,
273.000=wave145.avi=1.000=0=0=1=====,
288.500=piranha1.avi=1.000=0=0=1=====,
297.500=spiral1.avi=1.000=0=0=1=====,
312.000=The epic-bg.png=1.000=0=0=1=====,
99999=-nosongbg-=1.000=0=0=0 // don't automatically add -songbackground-
;
#KEYSOUNDS:;
#ATTACKS:;

//---------------dance-single - ----------------
#NOTES:
     dance-single:
     :
     Hard:
     8:
     0.376070,0.561203,0.211615,0.211615,0.160828,311.000000,286.000000,25.000000,25.000000,0.000000,0.000000,0.376070,0.561203,0.211615,0.211615,0.160828,311.000000,286.000000,25.000000,25.000000,0.000000,0.000000:
0000
0000
0000
0000
,
0000
0000
0000
0000
,
0000
0000
0000
0000
,
0000
0000
0000
0000
,
0000
0000
0000
0000
,
0000
0000
0000
0000
,
0000
0000
0000
0000
,
0000
0000
0000
0000
,
0000
1000
0100
1000
,
0001
0100
0001
1000
,
0010
1000
0001
0010
,
0001
0100
0010
1000
,
0001
0000
0000
0000
0110
0000
0000
0001
0000
0000
0001
0000
1000
0000
0000
0100
,
0000
0000
0100
0000
0010
0000
0000
0001
0000
0000
0001
0000
0100
0000
0000
0010
,
0000
0000
0010
0000
1000
0000
0000
0001
0000
0000
0001
0000
1000
0000
0000
0000
,
0010
1000
0001
0110
,
1000
0000
0000
0000
0001
0000
0000
1001
0000
0000
0000
0000
0100
0000
0000
0000
,
0010
0000
0000
0000
1000
0000
0000
0000
0000
0000
0001
0000
0001
0000
0000
1000
,
0000
0000
0001
0000
0100
0000
0000
0101
0000
0000
0000
0000
1000
0000
0000
0000
,
1000
0001
0001
0100
,
0100
0000
0000
0000
1010
0000
0000
1010
0000
0000
0000
0000
0001
0000
0000
0000
,
0100
0001
1000
0101
,
1010
0101
1000
1001
,
0100
0000
0001
1000
0010
0100
0010
1000
,
0001
0100
0001
0010
0100
1000
0010
0100
,
0001
0000
1000
0000
0010
0000
0000
2002
0000
0000
0000
0000
0000
0000
0000
0000
,
0000
3003
0000
0000
0100
0000
0000
0010
0000
0000
0100
0000
0001
0000
0000
1000
,
0000
0000
0010
0000
0100
0000
0000
0001
0000
0000
0100
0000
0010
0000
0000
0000
,
0000
0000
1000
0000
0001
0000
0000
0100
0000
0000
0010
0000
1000
0000
0000
0100
,
0000
0000
0010
0000
0001
0000
0000
0100
0000
0000
0010
0000
2000
0000
0000
0000
,
3000
0000
0000
0000
0100
0000
0000
0010
0000
0000
0001
0000
1000
0000
0000
0010
,
0000
1000
0001
0000
0101
0000
1010
0000
,
0000
0000
0000
0000
0100
0000
0000
0010
0000
0000
0100
0000
0002
0000
0000
0000
,
0013
0000
0000
0000
0100
0000
0000
1000
0000
0000
0001
0000
0200
0000
0000
0000
,
0000
0000
0010
0000
0000
0310
0000
0000
,
1000
0000
0002
0000
0000
0103
0000
0000
,
0020
0000
1030
0000
0000
0200
0000
0000
,
0310
0000
2000
0000
0000
3001
0000
0000
,
0100
0000
0002
0000
0000
1003
0000
0000
,
0020
0000
0130
0000
0000
0200
0000
0000
,
0310
0000
2000
0000
0000
3001
0000
0000
,
0002
1003
0000
0220
,
0000
0330
0110
0000
1000
0000
0001
0000
,
0100
0000
0001
0000
0000
1001
0000
0000
,
0010
0000
0100
0000
0000
0001
0000
0000
,
1000
0000
0100
0000
0000
0110
0000
0000
,
0001
0000
1000
0000
0000
0110
0000
0000
,
1000
0001
0000
0100
,
0000
0000
0001
0000
0000
1000
0000
0000
,
0010
1000
0000
1001
,
0000
0000
0100
1000
0100
0010
0001
0000
,
0100
0010
1000
0001
1000
0010
0100
0000
,
0001
0010
0001
0000
1000
0100
1000
0000
,
0001
0100
0001
0000
1000
0010
0100
0001
,
1000
0000
0000
0000
0001
0000
0000
1001
0000
0000
0000
0000
0100
0000
0000
0000
,
0010
0000
0000
0000
1000
0000
0000
0000
0001
0000
0000
0000
0100
0000
0000
0100
,
0000
0000
0010
0000
0001
0000
0000
1001
0000
0000
0000
0000
0010
0000
0000
0000
,
1000
0000
0010
0000
0100
0000
0001
1000
,
0010
0000
0000
0000
0100
0000
0000
1100
0000
0000
0000
0000
0001
0000
0000
0000
,
0010
0100
1010
0202
,
0303
0000
1000
0000
0001
0100
0000
0000
,
0010
0000
1000
0001
0000
0000
0100
0000
,
0010
0000
1000
0000
0001
0000
0000
0100
0000
0000
0010
0000
1000
0000
0000
0100
,
0000
0000
0010
0000
0001
0000
0000
2002
0000
0000
0000
0000
0000
0000
0000
0000
,
0000
3003
0000
0000
0010
0000
0000
0100
0000
0000
0010
0000
1000
0000
0000
0000
,
0100
0000
0010
0000
0001
0000
0000
1000
0000
0000
0001
0000
1000
0000
0000
0000
,
0000
0000
0000
0000
0100
0000
0000
0010
0000
0000
0001
0000
1000
0000
0000
1000
,
0000
0000
0100
0000
0010
0000
0000
0001
0000
0000
1000
0000
0010
0000
0000
0000
,
0000
0000
0000
0000
0100
0000
0000
0100
0000
0000
0010
0000
1000
0000
0000
1000
,
0000
0001
0100
0000
0001
0000
1000
0000
,
0010
0000
0100
0010
0200
0000
0000
0000
0000
0000
0000
0000
0000
0000
0000
0000
,
0300
0000
0001
1000
0002
0000
0000
0000
0000
0000
0000
0000
0000
0000
0000
0000
,
0003
0000
1000
0000
1000
0000
0000
0000
0000
0000
0000
0000
0010
0000
0000
0100
,
0000
0001
2000
0000
3000
0000
0100
0000
,
0010
0000
0001
0200
0000
0000
0000
0000
,
0000
0000
0000
0000
,
0000
0000
0000
0300
0000
0000
0010
0100
0020
0000
0000
0000
0000
0000
0000
0000
,
0000
0000
0000
0000
,
0030
0000
0000
0000
;

//---------------dance-single - ----------------
#NOTES:
     dance-single:
     :
     Beginner:
     1:
     0.064089,0.165060,0.008465,0.067717,0.000000,53.000000,52.000000,1.000000,8.000000,0.000000,0.000000,0.064089,0.165060,0.008465,0.067717,0.000000,53.000000,52.000000,1.000000,8.000000,0.000000,0.000000:
0000
0000
0000
0000
,
0000
0000
0000
0000
,
0000
0000
0000
0000
,
0000
0000
0000
0000
,
0000
0000
0000
0000
,
0000
0000
0000
0000
,
0000
0000
0000
0000
,
0000
0000
0000
0000
,
0000
1000
0000
0000
,
0000
0000
0000
0000
,
0000
0001
0000
0000
,
0000
0000
0000
0000
,
0000
1000
0000
0000
,
0000
1000
0000
0000
,
0000
0001
0000
0000
,
0000
0001
0000
0000
,
0000
0100
0000
0000
,
0000
0000
0000
2000
,
0000
0000
3000
0000
,
0000
0000
0000
0002
,
0000
0000
0003
0000
,
0000
0000
0000
0200
,
0000
0000
0000
0300
0000
0000
0000
0000
,
0000
0000
0000
0000
,
0000
1000
0000
0000
,
0000
0001
0000
0000
,
0000
0000
0000
0010
,
0000
0000
0000
1000
,
0000
0000
0000
0100
,
0000
0000
0000
0001
,
0000
0000
0000
0010
,
0000
0000
0000
1000
,
0000
0000
0000
0010
,
0000
0000
0000
2002
,
0000
0000
3003
0000
,
0000
0000
0000
0000
,
0000
1000
0000
0000
,
0000
0000
0000
0000
,
0000
0100
0000
0000
,
0000
0000
0000
0000
,
0000
0001
0000
0000
,
0000
0000
0000
0000
,
0000
0010
0000
0000
,
0000
0000
0000
0000
,
0000
1000
0000
0000
,
0000
0100
0000
0000
,
0000
0010
0000
0000
,
0000
0001
0000
0000
,
0000
0000
0000
0100
0000
0000
0000
0000
,
0000
0010
0000
0000
,
0000
1000
1000
0000
,
0000
0000
0000
0000
,
0000
0010
0010
0000
,
0000
0000
0000
0000
,
0000
1000
0000
0000
,
0000
0000
0000
0020
,
0000
0000
0030
0000
,
0000
0000
0000
0000
,
0000
0001
0000
0000
,
0000
0000
0000
0000
,
0000
0000
0000
0000
,
1000
0000
0000
0000
,
0000
0020
0000
0000
,
0000
0000
0030
0000
,
0000
0000
0000
0100
,
0000
0000
0000
0001
,
0000
0000
0000
1000
,
0000
0000
0000
0100
,
0000
0000
0000
0010
,
0000
0000
0000
0000
,
0000
1000
0000
0000
,
0000
0010
0000
0000
,
0000
0001
0000
1000
,
0000
0000
0010
0000
0000
0000
0000
0100
,
0000
0001
0000
0000
,
0000
0000
0000
0000
,
0000
0000
0200
0000
,
0000
0000
0000
0000
,
0300
0000
0000
0000
;

//---------------dance-single - ----------------
#NOTES:
     dance-single:
     :
     Easy:
     2:
     0.178966,0.296632,0.025394,0.101575,0.000000,148.000000,145.000000,3.000000,12.000000,0.000000,0.000000,0.178966,0.296632,0.025394,0.101575,0.000000,148.000000,145.000000,3.000000,12.000000,0.000000,0.000000:
0000
0000
0000
0000
,
0000
0000
0000
0000
,
0000
0000
0000
0000
,
0000
0000
0000
0000
,
0000
0000
0000
0000
,
0000
0000
0000
0000
,
0000
0000
0000
0000
,
0000
0000
0000
0000
,
0000
1000
0000
0010
,
0000
0100
0000
0001
,
0000
1000
0000
0010
,
0000
0100
0000
0100
,
0000
0010
0000
0010
,
0000
1000
0000
1000
,
0000
0010
0000
0100
,
0000
0001
0000
0000
,
0000
1000
0000
0000
,
0000
0000
0000
0001
,
0001
0001
0000
0100
,
0000
0010
0000
1000
,
1000
1000
0000
0010
,
0000
0100
0000
0010
,
0010
0000
0010
0000
0000
0000
0000
1000
,
0000
0000
0000
0001
,
1000
0001
1000
0010
,
0100
0100
0200
0000
,
0000
0300
0000
0000
0000
0000
0001
0000
,
0000
1000
0010
0100
,
0000
0001
1000
0001
,
0000
0100
0010
0100
,
0000
1000
1000
1000
,
0000
0010
0010
0010
,
0000
0100
0001
1000
,
0010
0100
0001
0200
,
0000
0000
0000
0000
0000
0000
0000
0300
,
0000
0000
0000
0000
,
0000
1000
0000
0000
,
0000
0010
0000
0000
,
0000
0100
0000
0000
,
0000
0001
0000
0000
,
0000
1000
0000
0000
,
0000
0100
0000
0000
,
0000
1000
0000
0000
,
0000
0020
0000
0030
,
0000
0000
0002
0000
0000
0000
0000
0003
,
0000
0000
2000
0000
0000
0000
0000
3000
,
0000
0200
0000
0300
,
0000
0000
0020
0000
0000
0000
0000
0030
,
0000
1000
0000
0001
,
0000
1000
0000
0010
,
0000
0100
0001
1000
,
1000
0000
0000
0000
,
0000
1000
0010
0100
,
0001
1000
1000
0010
,
0100
0001
0000
1000
,
0000
0010
0000
0100
,
0100
0100
0000
0010
,
0000
1000
0000
0001
,
0100
0010
1000
0001
,
0100
0010
1000
0001
,
0100
0000
0100
0000
0000
0010
0000
0000
,
1000
0000
0000
0001
0000
0000
0100
0000
,
0010
1000
0010
0100
,
0001
1001
0000
0000
,
0000
1000
0001
0100
,
0010
1000
1000
1000
,
0000
0001
0100
0010
,
0000
1000
1000
1000
,
0000
0010
0100
0010
,
0000
1000
0001
1000
,
0000
0010
0000
0000
,
0000
0000
2000
0000
0000
0000
0000
3000
,
0000
0001
0000
0100
,
0000
1000
0000
0001
,
0000
2002
0000
0000
,
0000
0000
0000
3003
,
0000
0220
0000
0000
,
0000
0000
0000
0000
0000
0000
0000
0330
;

//---------------dance-single - Copied from----------------
#NOTES:
     dance-single:
     Copied from:
     Medium:
     5:
     0.273286,0.428468,0.220080,0.177757,0.004232,226.000000,200.000000,26.000000,21.000000,0.000000,0.000000,0.273286,0.428468,0.220080,0.177757,0.004232,226.000000,200.000000,26.000000,21.000000,0.000000,0.000000:
0000
0000
0000
0000
,
0000
0000
0000
0000
,
0000
0000
0000
0000
,
0000
0000
0000
0000
,
0000
0000
0000
0000
,
0000
0000
0000
0000
,
0000
0000
0000
0000
,
0000
0000
0000
0000
,
0000
0001
0001
1000
,
0010
0001
0001
1000
,
0010
0100
0100
0001
,
0001
1000
1000
0010
,
0100
0001
0000
1000
,
0000
0010
0000
0100
,
0000
0001
0000
1000
,
0000
0010
0100
1000
,
0001
0100
0000
0000
,
0000
1001
1001
0000
,
0000
0110
0110
0000
,
0000
0000
0000
1000
,
0001
1001
1001
0000
,
0000
0000
0000
0010
,
1000
0110
0000
0001
,
1000
0010
0100
0001
,
1000
0000
0010
1000
0010
0000
0100
0001
,
0100
0000
0000
0000
1001
0000
0000
1001
0000
0000
0000
0000
0000
0000
0000
0000
,
0000
1000
0001
0100
,
0010
0000
1000
0010
1000
0000
0001
0100
,
0001
0010
1000
0010
,
0100
0100
0100
0010
,
0000
1000
0001
1000
,
0010
0100
0100
0001
,
0000
1000
0010
0100
,
0001
1000
0010
0100
,
0001
1000
0000
0000
,
0000
0002
0000
0000
,
0003
2000
0000
0000
,
3000
0000
0200
0000
0000
0000
0000
0300
,
0000
0000
0020
0000
0000
0000
0000
0030
,
0000
0000
2000
0000
0000
0000
0000
3000
,
0000
0000
0200
0000
0000
0000
0000
0300
,
0000
0000
0002
0000
0000
0000
0000
0003
,
0000
0020
0000
0030
,
0000
0000
2000
0000
0000
0000
0000
3000
,
0000
0020
0000
0000
,
0030
0000
0002
0000
0000
0000
0000
0003
,
0000
0000
0200
0000
0000
0000
0000
0300
,
0000
0000
2000
0000
0000
0000
0000
3000
,
0000
0000
0020
0000
0000
0000
0000
0030
,
0000
0000
0200
0000
0000
0000
0000
0300
,
0000
0000
0001
0000
1000
0000
0010
0100
,
0010
0000
1000
0000
0001
0000
0100
0010
,
0100
0000
1000
0000
0001
0000
0100
0010
,
0100
1000
0001
1000
,
0001
0110
0110
0001
,
1000
0010
0100
0001
,
1000
1001
1001
0010
,
0100
0010
1000
0100
,
0010
1010
1010
0001
,
0100
0010
1000
0001
,
0100
0101
0010
1010
,
0001
0101
0010
1000
,
0001
0200
0000
0000
,
0300
1001
0000
0000
,
0000
1000
0010
0100
,
0001
0000
1000
0010
1000
0000
0001
0100
,
0001
1000
0010
0100
,
0001
0000
1000
0010
1000
0000
0001
0100
,
0001
0100
0010
1000
,
0010
0001
1001
1001
,
0010
2000
0000
0000
,
3000
0002
0000
0000
,
0003
0000
0200
0000
0000
0300
0010
0000
,
0001
1000
0010
0100
,
0001
1001
1001
0010
,
0100
1001
1001
0010
,
0100
0001
2002
0000
,
0000
0000
0000
0000
0000
0000
0000
3003
;

//---------------dance-single - ----------------
#NOTES:
     dance-single:
     :
     Challenge:
     10:
     0.599778,1.056383,0.406301,0.186221,0.355513,496.000000,448.000000,48.000000,22.000000,0.000000,0.000000,0.599778,1.056383,0.406301,0.186221,0.355513,496.000000,448.000000,48.000000,22.000000,0.000000,0.000000:
0000
0000
0000
0000
,
0000
0000
0000
0000
,
0000
0000
0000
0000
,
0000
0000
0000
0000
,
0000
0000
0000
0000
,
0000
0000
0000
0000
,
0000
0000
0000
0000
,
0000
0000
0000
0000
,
0000
0000
0000
0000
1000
0010
1000
0000
0010
0000
0100
0000
0001
0100
0001
0000
,
0100
0000
0010
0000
1000
0010
1000
0000
0010
0000
0100
0000
0001
0100
0001
0000
,
0100
0000
0010
0000
1000
0100
1000
0000
0100
0000
0010
0000
0001
0010
0001
0000
,
0010
0000
0100
0000
1000
0100
1000
0000
0100
0000
0010
0000
0001
0010
0001
0000
,
1000
0000
0100
0000
1100
0000
0000
0000
0010
0000
0010
0000
1000
0010
1000
0000
,
0010
0000
0100
0000
0010
1000
0010
0000
0100
0000
0001
0000
0100
0001
0100
0000
,
0010
0000
1000
0000
0010
1000
0010
0000
0100
0000
0001
0000
0100
0010
0100
0000
,
0010
0000
1000
0000
0010
1000
0010
1000
0001
0100
0001
0100
0001
0100
0001
0000
,
1000
0000
0000
0000
0010
0000
0000
1010
0000
0000
0100
0010
0100
0000
0010
0000
,
1000
0000
0001
0010
0001
0000
0010
0000
0100
0000
0000
0000
1000
0000
0000
1010
,
0000
0000
0100
0000
0001
0000
0000
1001
0000
0000
0010
0000
0100
0010
0100
0000
,
0010
0000
1000
0000
0100
1000
0100
0000
1000
0000
0001
0000
0010
0001
0010
0000
,
0001
0000
0000
0000
1100
0000
0000
1010
0000
0000
0001
0100
0001
0000
0100
0000
,
0010
0000
1000
0010
1000
0000
0010
0000
0100
0000
0000
0000
0101
0000
0000
0000
,
1010
0000
1001
0000
0100
0010
0001
0000
,
0110
0000
0000
0000
0110
0000
1000
0000
0010
0100
0001
1000
0010
0100
0001
1000
,
0010
0100
0010
1000
0100
0010
0001
0010
,
0100
0000
1000
0000
0101
0000
0000
0202
0000
0000
0000
0000
0000
0000
0000
0000
,
0000
0303
0000
0000
1000
0000
0010
0000
1000
0000
0010
0000
0100
0000
0001
0000
,
0100
0001
1000
0100
0010
0001
1001
0000
,
0000
0100
0010
0100
0001
0010
0001
1000
,
0100
0000
1000
0000
0001
0100
0001
0000
0100
0010
1000
0010
1000
0001
0100
0001
,
0100
0001
1000
0000
0010
0000
1000
0000
0001
0000
0100
0000
0010
0000
1000
0000
,
0001
1000
0010
0000
0110
0000
2010
0000
,
3001
0000
0010
0100
0010
1000
0001
0000
,
1000
0000
0010
0001
0010
0100
2000
0000
,
0000
0000
0000
0000
0001
0000
3000
0000
0000
0001
0010
0001
0000
0000
0000
0000
,
0000
0000
0210
0000
0000
0310
0000
0010
,
2000
0000
3001
0000
0000
0201
0000
0000
,
0310
0000
0002
0000
0000
0103
0000
0000
,
1000
0010
2000
0000
0000
3001
0000
0000
,
0120
0000
0130
0000
0000
0210
0000
0000
,
0310
1000
0002
0000
0000
0103
0000
0000
,
0020
0000
0000
0000
1030
0000
0000
0000
0000
0000
0000
0000
0100
0000
0010
1000
,
0001
0000
0100
0010
0000
0000
0000
0000
1000
0000
0000
0000
1100
0000
0000
0000
,
0001
0101
0010
0110
,
1000
1010
0001
0011
,
1000
1001
0100
0010
,
0001
0110
1000
0001
,
0100
1001
0020
1030
,
0001
0100
1010
0101
,
0010
2000
3001
1000
,
0010
0000
0000
0000
1000
0100
1000
0000
0100
0000
0010
0000
0001
0010
0001
0000
,
0010
0000
0100
0000
1000
0100
1000
0000
0100
0000
0010
0000
0001
0100
0001
0000
,
0010
0000
1000
0000
0010
1000
0010
0000
0100
0000
0001
0000
0100
0001
0100
0000
,
0010
0000
0100
0000
1000
0100
1000
0000
0100
0000
0010
0000
0001
0010
0001
0000
,
1000
0000
0000
0000
1001
0000
0000
0101
0000
0000
0000
0000
1000
0010
1000
0000
,
0010
1000
0010
0000
0100
0001
0100
0000
0001
0100
0001
0000
1000
0000
0010
0000
,
1000
0000
0001
0000
0101
0000
0000
1001
0000
0000
0000
0000
0110
0000
0000
0000
,
1000
0110
1001
0200
,
0301
0000
0000
0000
1000
0000
0000
1010
0000
0000
0000
0000
0100
0000
0000
0000
,
0110
0001
1001
0100
,
0101
0000
1000
0000
0010
0100
0000
0000
,
0001
0000
0010
0100
0000
1000
0010
0000
,
0100
0000
0000
0000
0001
0000
0000
1000
0000
0000
0001
0100
0001
0000
1000
0000
,
0000
0010
2002
0000
0000
0000
0000
0000
,
0000
3003
0000
0000
0100
0000
0010
0000
0100
0000
0010
0000
1000
0000
0000
1001
,
0000
0000
0001
0000
0100
0000
0000
0110
0000
0000
0001
0000
1000
0000
0000
0000
,
0000
0000
0010
0000
0100
0000
0010
0000
1000
0000
0100
0000
0010
0000
0000
0001
,
0000
0000
0100
0000
0010
0000
0000
0110
0000
0000
0001
0000
1000
0000
0000
0000
,
0000
0000
0000
0000
0010
0000
0001
0000
0010
0000
0100
0000
1000
0000
0000
1100
,
0000
0100
0010
0000
0101
0000
1001
0000
,
0100
0000
0010
0100
0020
0000
0000
0000
0000
0000
0000
0000
0000
0000
0000
0000
,
0030
0000
1000
0100
2000
0000
0000
0000
0000
0000
0000
0000
0000
0000
0000
0000
,
3000
0000
0001
0100
0001
0100
0001
0100
0001
1000
0010
1000
0010
1000
0010
1000
,
0001
0100
0001
0100
0001
0100
0001
1000
0010
1000
0010
1000
0010
1000
0010
0000
,
0100
0001
0100
0000
0002
0000
0000
0000
0000
0000
0000
0000
1000
0000
0000
0000
,
1000
1000
1000
1000
,
1003
0000
0000
0000
0010
0000
0100
0010
2000
0000
0000
0000
0000
0000
0000
0000
,
0000
0000
0000
0000
,
3000
0000
0000
0000
;
