#TITLE:TOGETHER FOREVER;
#SUBTITLE:;
#ARTIST:CYDNEY D;
#TITLETRANSLIT:;
#SUBTITLETRANSLIT:;
#ARTISTTRANSLIT:;
#GENRE:;
#CREDIT:SupremeX;
#BANNER:Together Forever.png;
#BACKGROUND:Together Forever-bg.png;
#LYRICSPATH:;
#CDTITLE:CDTitle.png;
#MUSIC:Together Forever.ogg;
#OFFSET:-0.024747;
#SAMPLESTART:42.459999;
#SAMPLELENGTH:12.000000;
#SELECTABLE:YES;
#BPMS:0.000000=135.000000
;
#STOPS:
;
#BGCHANGES:16.000=afro1.avi=1.000=0=0=1=====,
24.000=clap1.avi=1.000=0=0=1=====,
32.000=car5.avi=1.000=0=0=1=====,
40.000=dating1.avi=1.000=0=0=1=====,
49.000=ferriswheel1.avi=1.000=0=0=1=====,
56.000=dance11.avi=1.000=0=0=1=====,
64.000=water2.avi=1.000=0=0=1=====,
72.000=jewelry2.avi=1.000=0=0=1=====,
80.000=frog1.avi=1.000=0=0=1=====,
88.000=wall1r.avi=1.000=0=0=1=====,
95.500=dance11.avi=1.000=0=0=1=====,
103.500=clouds1.avi=1.000=0=0=1=====,
112.000=ferriswheel1.avi=1.000=0=0=1=====,
120.000=afro1.avi=1.000=0=0=1=====,
128.000=frog1.avi=1.000=0=0=1=====,
136.000=jewelry2.avi=1.000=0=0=1=====,
144.000=wall1r.avi=1.000=0=0=1=====,
151.500=clouds1.avi=1.000=0=0=1=====,
159.500=car5.avi=1.000=0=0=1=====,
167.500=dating1.avi=1.000=0=0=1=====,
175.500=water2.avi=1.000=0=0=1=====,
182.500=ferriswheel1.avi=1.000=0=0=1=====,
188.000=dance11.avi=1.000=0=0=1=====,
192.000=Together Forever-bg.png=1.000=0=0=1=====,
99999=-nosongbg-=1.000=0=0=0 // don't automatically add -songbackground-
;
#KEYSOUNDS:;
#ATTACKS:;

//---------------dance-single - ----------------
#NOTES:
     dance-single:
     :
     Hard:
     7:
     0.352674,0.436860,0.182025,0.341297,0.068259,217.000000,201.000000,16.000000,30.000000,0.000000,0.000000,0.352674,0.436860,0.182025,0.341297,0.068259,217.000000,201.000000,16.000000,30.000000,0.000000,0.000000:
0000
0000
0000
0000
,
0000
0000
0000
0000
,
0000
0000
0000
0000
,
0000
0000
0000
0000
,
1000
0000
0001
0100
0000
0010
1000
0010
,
0000
0100
0001
0100
0000
0000
0001
0000
,
1001
0000
0010
0100
0000
0001
1000
0000
,
0010
0000
0220
0000
0000
0000
0000
0330
,
0001
1000
1100
0000
,
0001
0000
0000
0001
0000
0000
0001
0000
0000
0000
0000
0000
0000
0000
0000
0000
,
1000
0000
0010
0000
0100
0001
0100
0000
,
0001
1000
1010
1000
,
0000
0000
0000
0000
0001
0000
0000
0001
0000
0000
0000
0000
0000
0000
0000
0000
,
0100
0000
0000
0100
0000
0000
0100
0000
0000
0000
0000
0000
0000
0000
0000
0000
,
0001
0101
0001
1000
,
0010
0000
1000
0000
0001
0100
0001
0000
,
1000
0000
0000
1000
0000
0000
1000
0000
0010
0000
0000
0000
0100
0000
0000
0000
,
0010
0000
0000
0010
0000
0000
0010
0000
0000
0000
1000
0000
0000
0000
0000
0000
,
0001
0000
0000
0000
1000
0000
0010
0100
,
0000
0220
0000
0330
0000
0000
0000
0000
,
1000
0000
0000
0010
0000
0000
0001
0000
0000
0000
1001
0000
0000
0000
0000
0000
,
0001
0000
0000
0100
0000
0000
1000
0000
0000
0000
1001
0000
0000
0000
0001
0000
,
0100
0010
1000
0100
1000
0001
0100
0001
,
0000
2002
0000
0000
0000
3003
0000
1000
,
0010
1000
0001
0200
0000
0310
0100
0020
,
0000
1030
0001
2000
0000
3000
0000
0001
,
0100
0001
1000
0020
0000
0130
0001
1000
,
0000
2002
0000
0000
3003
0000
0000
0000
,
0010
0000
1000
0002
0000
0103
0010
2000
,
0000
3010
0100
0001
0000
1000
0010
0100
,
0001
1000
0010
0200
0000
0301
1000
0000
,
0220
0000
0000
0330
0000
0000
0000
0000
,
0001
0000
0000
0001
0000
0000
0001
0000
0010
0000
0000
0000
0100
0000
0000
0000
,
1000
0000
0000
1000
0000
0000
1000
0000
0100
0000
0000
0010
0000
0000
0000
0000
,
0001
0100
0010
0100
0000
0010
1000
0100
,
0000
0022
0000
0033
0000
0000
0000
0000
,
0100
0000
0000
0100
0000
0000
0100
0000
0000
0000
1000
0000
0000
0000
0000
0000
,
0001
0000
0000
0001
0000
0000
0001
0000
0000
0000
1000
0000
0000
0000
0010
0000
,
0100
0010
1000
0001
1000
0010
0100
0001
,
0000
2002
0000
3003
0000
0000
0000
1000
,
0010
0100
0010
0200
0000
0301
1000
0020
,
0000
0130
0001
0100
0000
0000
0000
0010
,
1000
0010
0100
0002
0000
1003
0010
0100
,
0000
2002
0000
3003
0000
0000
0000
1000
,
0010
1000
0010
0200
0000
0301
0100
0020
,
0000
1030
0010
2000
0000
3001
0010
0100
,
1000
0010
0100
0002
0000
1003
0010
0000
,
0110
0000
1000
0100
0010
0001
1000
0001
,
1001
0000
0000
0000
;

//---------------dance-single - ----------------
#NOTES:
     dance-single:
     :
     Medium:
     5:
     0.263286,0.354949,0.011377,0.056883,0.034130,162.000000,161.000000,1.000000,5.000000,0.000000,0.000000,0.263286,0.354949,0.011377,0.056883,0.034130,162.000000,161.000000,1.000000,5.000000,0.000000,0.000000:
0000
0000
0000
0000
,
0000
0000
0000
0000
,
0000
0000
0000
0000
,
0000
0000
0000
0000
,
0010
0000
0100
0010
0000
0000
1000
0001
,
0000
0000
0100
0010
0000
0000
1000
0000
,
0001
0000
0100
0010
0000
0100
0010
0000
,
1000
0000
0002
0000
0000
0000
0000
0003
,
0000
0100
0100
0000
,
0010
0000
0000
0010
0000
0000
0010
0000
0000
0000
0000
0000
0000
0000
0000
0000
,
1000
0100
0010
0001
,
0100
0001
1000
0010
,
0000
0000
0000
0000
0100
0000
0000
0100
0000
0000
0000
0000
0000
0000
0000
0000
,
0001
0000
0000
0001
0000
0000
0001
0000
0000
0000
0000
0000
0000
0000
0000
0000
,
1000
0010
1000
0001
,
0100
0001
0100
0010
,
1000
0000
0000
0010
0100
0000
0001
0000
,
1000
0000
0000
0010
0000
0100
0000
0000
,
0001
0000
0000
0000
1000
0000
0010
0100
,
0000
0010
0000
0000
0000
0000
0000
0000
,
1000
0000
0000
1000
0000
0000
0001
0000
0000
0000
0001
0000
0000
0000
0000
0000
,
0100
0000
0000
0100
0000
0000
0100
0000
0000
0000
0010
0000
0000
0000
0000
0000
,
1000
0000
1000
0000
0010
0000
0010
0100
,
0000
0002
0000
0000
0000
0003
0000
0000
,
1000
0000
0010
0100
0000
0001
0100
0001
,
0000
0000
1000
1000
0000
0000
0000
0000
,
0001
0000
0100
0010
0000
1000
0001
0100
,
0000
0020
0000
0000
0030
0000
0000
0000
,
0100
0000
0001
1000
0000
0000
0010
0100
,
0000
0010
0100
0001
0000
1000
0010
0010
,
0010
0000
0100
0001
0000
1000
0001
0000
,
2000
0000
0000
3000
0000
0000
0000
0000
,
0010
0000
0000
0010
0100
0000
0001
0000
,
1000
0000
0000
0000
0000
0000
1000
0000
0010
0000
0000
0100
0000
0000
0000
0000
,
0001
0000
0100
0010
0000
0100
0010
1000
,
0000
0001
0000
0000
0000
0000
0000
0000
,
0001
0000
0000
0100
0000
0010
0000
0000
,
1000
0000
0000
0010
0000
0100
0000
0000
,
0001
0000
1000
0000
0001
0000
0100
0010
,
0000
1000
0000
0000
0000
0000
0000
0000
,
0010
0000
0100
0010
0000
0100
0001
1000
,
0000
0000
1000
0001
0000
0000
0000
0000
,
0010
0000
0100
0010
0000
1000
0001
0100
,
0000
0020
0000
0030
0000
0000
0000
0000
,
1000
0000
0010
0100
0000
0000
0010
0100
,
0000
0001
1000
1000
0000
0010
0000
0100
,
0001
0000
1000
0001
0000
0100
0010
0000
,
1000
0001
0100
0010
,
1001
0000
0000
0000
;

//---------------dance-single - ----------------
#NOTES:
     dance-single:
     :
     Easy:
     3:
     0.157647,0.217861,0.011377,0.034130,0.000000,97.000000,96.000000,1.000000,3.000000,0.000000,0.000000,0.157647,0.217861,0.011377,0.034130,0.000000,97.000000,96.000000,1.000000,3.000000,0.000000,0.000000:
0000
0000
0000
0000
,
0000
0000
0000
0000
,
0000
0000
0000
0000
,
0000
0000
0000
0000
,
0010
0000
0000
1000
0000
0000
0000
0001
,
0000
0000
0000
0100
0000
0000
0000
0000
,
0010
0000
0000
1000
0000
0000
0000
0000
,
0001
1000
0000
0000
,
0010
0100
0010
0000
,
1000
0000
0000
0001
0000
0000
0000
0000
,
0100
0100
0010
0100
,
0000
0001
0000
1000
,
0000
0010
0100
0000
,
0001
1000
0010
0100
,
0001
1000
0001
0100
,
0000
0010
0000
1000
,
0001
0100
0010
0000
,
1000
0010
0100
0000
,
0001
0000
0000
0000
1000
0000
0000
0010
,
0000
0100
0000
0000
0000
0000
0000
0000
,
0001
0000
0000
1000
0000
0000
0000
0000
,
0010
0000
0000
0100
0000
0000
0000
0000
,
0001
0000
0000
0010
0000
0000
0000
0100
,
0000
1000
0000
0000
0000
0000
0000
0000
,
0010
0000
0100
0000
0000
0000
0000
0001
,
0000
0000
0000
1000
0000
0000
0000
0000
,
0010
0100
0000
0000
,
0100
0000
0020
0000
0000
0030
0000
0000
,
1000
0000
0000
0001
0000
0000
0000
0100
,
0000
0000
0000
0010
0000
0000
0000
0000
,
1000
0000
0000
0001
0000
0000
0100
0000
,
0010
0000
0000
0000
,
1000
0000
0010
0000
,
0100
0000
0001
0000
,
1000
0000
0000
0010
0000
0000
0000
0100
,
0000
0100
0000
0000
0000
0000
0000
0000
,
0001
0000
0001
0000
,
0100
0000
0000
0010
0000
0000
0000
0000
,
1000
0000
0000
0000
0100
0000
0000
0010
,
0000
0001
0000
0000
0000
0000
0000
0000
,
1000
0000
0000
0010
0000
0000
0000
0100
,
0000
0000
0000
0001
0000
0000
0000
0000
,
1000
0000
0000
0010
0000
0000
0000
0000
,
0100
0010
0000
0000
,
0001
0000
0000
1000
0000
0000
0000
0010
,
0000
0000
0000
0100
0000
0000
0000
0000
,
0001
0000
0000
1000
0000
0000
0000
0000
,
0220
0000
0000
0000
0000
0000
0000
0330
;

//---------------dance-single - Copied from----------------
#NOTES:
     dance-single:
     Copied from:
     Beginner:
     1:
     0.073135,0.133675,0.000000,0.000000,0.000000,45.000000,45.000000,0.000000,0.000000,0.000000,0.000000,0.073135,0.133675,0.000000,0.000000,0.000000,45.000000,45.000000,0.000000,0.000000,0.000000,0.000000:
0000
0000
0000
0000
,
0000
0000
0000
0000
,
0000
0000
0000
0000
,
0000
0000
0000
0000
,
0000
0000
0000
0001
0000
0000
0000
0000
,
0000
0000
0000
1000
0000
0000
0000
0000
,
0000
0000
0000
0000
,
0000
0000
0000
0000
,
0000
0000
0010
0000
,
0000
0000
0000
0000
,
0100
0000
0000
0000
,
0000
0000
0000
0000
,
0010
0000
0000
0000
,
0100
0000
0000
0000
,
0010
0000
0000
0000
,
0000
0000
0000
0000
,
1000
0000
0000
0000
,
1000
0000
0000
0000
,
1000
0000
0000
0000
,
1000
0000
0000
0000
,
0001
0000
0000
0000
,
0001
0000
0000
0000
,
0001
0000
0000
0000
,
0001
0000
0000
0000
,
0100
0000
0000
0010
0000
0000
0000
0100
,
0000
0000
0000
0010
0000
0000
0000
0000
,
0100
0000
0000
0010
0000
0000
0000
0100
,
0000
0000
0000
0000
,
0001
0000
0000
0000
0000
0000
0000
1000
,
0000
0000
0000
0000
,
0001
0000
0000
0000
,
1000
0000
0000
0000
,
0010
0000
0000
0000
,
0100
0000
0000
0000
,
0010
0000
0000
0000
,
0100
0000
0000
0000
,
0010
0000
0000
0000
,
0100
0000
0000
0000
,
0010
0000
0000
0000
,
0100
0000
0000
0000
,
0001
0000
0000
1000
0000
0000
0000
0001
,
0000
0000
0000
1000
0000
0000
0000
0000
,
0001
0000
0000
1000
0000
0000
0000
0001
,
0000
0000
0000
0000
,
0100
0000
0000
0000
0000
0000
0000
0010
,
0000
0000
0000
0000
,
0100
0000
0000
0000
,
0010
0000
0000
0000
;
