#TITLE:Sunset;
#SUBTITLE:;
#ARTIST:バイガンバーV;
#TITLETRANSLIT:;
#SUBTITLETRANSLIT:;
#ARTISTTRANSLIT:Baiganba V;
#GENRE:;
#CREDIT:SupremeX;
#BANNER:Sunset.png;
#BACKGROUND:Sunset-bg.jpg;
#LYRICSPATH:;
#CDTITLE:CDTitle.png;
#MUSIC:Sunset.ogg;
#OFFSET:-0.343672;
#SAMPLESTART:52.310001;
#SAMPLELENGTH:12.000000;
#SELECTABLE:YES;
#BPMS:0.000000=142.919998
;
#STOPS:
;
#BGCHANGES:28.000=rocket2.avi=1.000=0=0=1=====,
36.000=room2.avi=1.000=0=0=1=====,
44.000=rocket2.avi=1.000=0=0=1=====,
52.000=room2.avi=1.000=0=0=1=====,
60.000=gradius1.avi=1.000=0=0=1=====,
67.000=gradius2.avi=1.000=0=0=1=====,
74.000=gradius4.avi=1.000=0=0=1=====,
80.500=gradius1.avi=1.000=0=0=1=====,
87.500=gradius2.avi=1.000=0=0=1=====,
92.000=robot5.avi=1.000=0=0=1=====,
99.000=robot3.avi=1.000=0=0=1=====,
108.000=robot5.avi=1.000=0=0=1=====,
116.000=robot3.avi=1.000=0=0=1=====,
124.000=sun2r.avi=1.000=0=0=1=====,
140.000=room2.avi=1.000=0=0=1=====,
156.000=sun2r.avi=1.000=0=0=1=====,
172.000=room2.avi=1.000=0=0=1=====,
188.000=robot5.avi=1.000=0=0=1=====,
196.000=rocket2.avi=1.000=0=0=1=====,
203.500=Sunset-bg.jpg=1.000=0=0=1=====,
99999=-nosongbg-=1.000=0=0=0 // don't automatically add -songbackground-
;
#KEYSOUNDS:;
#ATTACKS:;

//---------------dance-single - ----------------
#NOTES:
     dance-single:
     :
     Beginner:
     1:
     0.082080,0.136865,0.000000,0.000000,0.000000,53.000000,53.000000,0.000000,0.000000,0.000000,0.000000,0.082080,0.136865,0.000000,0.000000,0.000000,53.000000,53.000000,0.000000,0.000000,0.000000,0.000000:
0000
0000
0000
0000
,
0000
0000
0000
0000
,
0000
0000
0000
0000
,
0000
0000
0000
0000
,
0000
0000
0000
0000
,
0000
0000
0000
0000
,
0000
0000
0000
0000
,
0100
0000
0001
0000
,
0010
0000
1000
0000
,
0010
0000
0100
0000
,
0001
0000
1000
0000
,
0100
0000
0001
0000
,
0010
0000
1000
0000
,
0100
0000
0010
0000
,
0001
0000
0000
0000
,
1000
0000
0000
0000
,
0100
0000
0000
0000
,
0010
0000
0000
0000
,
0001
0000
0000
0000
,
1000
0000
0000
0000
,
0100
0000
0000
0000
,
0010
0000
0000
0000
,
0001
0000
0000
0000
,
1000
0000
0000
0000
,
1000
0000
0000
0000
,
0100
0000
0000
0000
,
0100
0000
0000
0000
,
0001
0000
0000
0000
,
0001
0000
0000
0000
,
0010
0000
0000
0000
,
0010
0000
0000
0000
,
0100
0000
0000
0000
,
0100
0000
0000
0000
,
0010
0000
0000
0000
,
0010
0000
0000
0000
,
0001
0000
0000
0000
,
1000
0000
0000
0000
,
0001
0000
0000
0000
,
1000
0000
0000
0000
,
0100
0000
0000
0000
,
0001
0000
0000
0000
,
1000
0000
0000
0000
,
0100
0000
0000
0000
,
0010
0000
0000
0000
,
0010
0000
0000
0000
,
0100
0000
0000
0000
,
1000
0000
0000
0000
,
0100
0000
0000
0000
,
0010
0000
0000
0000
,
0001
0000
1000
0000
,
0001
0000
1000
0000
;

//---------------dance-single - ----------------
#NOTES:
     dance-single:
     :
     Easy:
     3:
     0.210622,0.284571,0.054204,0.086727,0.000000,136.000000,131.000000,5.000000,8.000000,0.000000,0.000000,0.210622,0.284571,0.054204,0.086727,0.000000,136.000000,131.000000,5.000000,8.000000,0.000000,0.000000:
0000
0000
0000
0000
,
0000
0000
0000
0000
,
0000
0000
0000
0000
,
0000
0000
0000
0000
,
0000
0000
0000
0000
,
0000
0000
0000
0000
,
0000
0000
0000
0000
,
1000
0001
0100
0010
,
1000
0001
0001
0000
,
0010
0100
0010
1000
,
0010
0100
1000
1000
,
0001
0100
0010
0100
,
0001
1000
0010
0010
,
1000
0001
0100
0010
,
0100
0100
0001
1000
,
0010
0100
0001
1000
,
0000
0001
1000
0000
,
0010
0100
0010
1000
,
0001
1000
0010
0100
,
0001
1000
0010
0000
,
1000
0001
0100
0000
,
0001
0010
1000
0000
,
0001
1000
0010
1000
,
0002
0000
0003
0000
,
2000
0000
0000
0000
0000
3000
0000
0000
,
0110
0000
0110
0000
,
0110
0000
0001
0000
,
2000
0000
3000
0000
,
0200
0000
0000
0000
0000
0300
0000
0000
,
0010
0000
0001
0000
,
0011
0000
0000
0000
,
0001
0010
0100
1000
,
0001
0010
0100
1000
,
0001
0000
1000
0000
,
0001
1000
0001
1000
,
1000
0100
0010
0001
,
0010
0100
1000
0001
,
1000
0010
0100
1000
,
1001
0000
0000
0000
,
0100
1000
0100
0010
,
0001
1000
0100
0010
,
0001
1000
0001
0100
,
0020
0000
0000
0030
0100
0000
0000
0000
,
0001
1000
0001
1000
,
0010
0100
0010
1000
,
0002
0000
0000
0000
0000
0000
0000
0003
,
1000
1000
0100
0100
,
0020
0000
0000
0000
,
0000
0000
0000
0000
0000
0000
0000
0030
,
0000
1000
0001
1000
,
0001
1000
0001
0000
,
0200
0000
0000
0000
,
0000
0000
0300
0000
;

//---------------dance-single - Copied from----------------
#NOTES:
     dance-single:
     Copied from:
     Medium:
     5:
     0.317481,0.398400,0.303543,0.140931,0.075886,205.000000,177.000000,28.000000,13.000000,0.000000,0.000000,0.317481,0.398400,0.303543,0.140931,0.075886,205.000000,177.000000,28.000000,13.000000,0.000000,0.000000:
0000
0000
0000
0000
,
0000
0000
0000
0000
,
0000
0000
0000
0000
,
0000
0000
0000
0000
,
0000
0000
0000
0000
,
0000
0000
0000
0000
,
0000
0000
0000
0000
,
1000
0001
0100
0010
,
1000
0001
1001
1001
,
0010
0100
1000
0001
,
0100
0010
1000
0001
,
0100
0010
1000
0001
,
0100
0010
0110
0110
,
0001
1000
0010
0100
,
1000
1010
0100
0101
,
1000
0000
0010
0000
0100
0000
0001
1000
,
0001
0100
0010
1000
,
0001
0100
0010
1000
,
1001
1010
0101
0011
,
1000
0000
0010
0000
0100
0001
0100
0000
,
0010
1000
0010
0000
0100
0001
0100
0000
,
1000
0001
0100
0010
,
1000
0010
1000
0010
0100
0000
0001
0000
,
2000
0001
3001
0010
,
0200
0010
0310
0001
,
2000
3010
0002
0103
,
0010
0000
0000
0100
0000
0000
1001
0000
0000
0000
0000
0000
0010
0000
0000
0000
,
2000
0001
3001
0010
,
0200
0010
0310
0001
,
1000
0001
1000
0010
,
1001
1010
0101
0000
,
1000
0000
0000
1000
0000
0000
0100
0000
0000
0100
0000
0000
0010
0000
0000
0010
,
0000
0000
0001
0000
1000
0000
0010
0100
,
0001
1000
0010
1000
,
0001
0000
0000
0000
0100
0000
0000
0000
0000
1010
0000
0000
1010
0000
0000
0000
,
0001
0000
0000
0001
0000
0000
0010
0000
0000
0010
0000
0000
0100
0000
0000
0100
,
0000
0000
1000
0000
0001
0100
0010
0000
,
1000
0001
0100
0010
,
2020
0000
3030
0000
,
0110
0000
0000
1001
0000
0000
0110
0000
,
0000
0000
0001
0000
1000
0010
0100
0000
,
0001
0000
0000
0000
1010
0000
0000
0000
0001
0000
0000
0001
0000
0000
0001
0000
,
1000
0000
0000
0000
0100
0000
0000
0000
0010
0000
0000
0101
0000
0000
0000
0000
,
1000
0000
0000
1000
0000
0000
0100
0000
0000
0100
0000
0000
0010
0000
0000
0010
,
0000
0000
1000
0001
0100
0010
1000
0000
,
0002
0010
0010
0013
,
1000
0000
0000
0000
0001
0000
0000
0100
0000
0000
0000
0000
1001
0000
0000
0000
,
0220
0000
0000
0000
,
0000
0000
0000
0000
0000
0000
0000
0330
,
0000
0001
1001
1000
,
1001
0001
1001
0000
,
0220
0000
0000
0000
,
0000
0000
0330
0000
;

//---------------dance-single - Copied from----------------
#NOTES:
     dance-single:
     Copied from:
     Hard:
     8:
     0.345357,0.455314,0.162612,0.184294,0.168033,223.000000,208.000000,15.000000,17.000000,0.000000,0.000000,0.345357,0.455314,0.162612,0.184294,0.168033,223.000000,208.000000,15.000000,17.000000,0.000000,0.000000:
0000
0000
0000
0000
,
0000
0000
0000
0000
,
0000
0000
0000
0000
,
0000
0000
0000
0000
,
0000
0000
0000
0000
,
0000
0000
0000
0000
,
0000
0000
0000
0000
,
1000
0001
1000
0010
0100
0000
0001
0000
,
1000
0000
0010
0000
0100
0000
0010
0000
1000
0000
0000
0001
0000
0000
0000
0000
,
1000
0001
1000
0010
0100
0001
0100
0000
,
1001
1010
0101
1001
,
1000
0010
0100
0001
0100
0001
1000
0000
,
0001
0000
0100
0000
0010
0000
0001
0000
1000
0000
0000
0001
0000
0000
0000
0000
,
1000
0010
0100
0001
1000
0010
1000
0000
,
0001
1001
0110
1100
,
0001
0100
0010
0100
0001
0000
1000
0000
,
0010
0100
0001
1000
0010
0000
0000
0000
,
0100
0010
1000
0001
0100
0000
0001
0000
,
1000
1010
0110
0101
,
0010
1000
0010
0100
0001
0000
0010
1000
,
0001
1000
0100
0001
0100
0000
0000
0000
,
0010
1000
0010
0100
0001
0100
0010
0000
,
1000
0000
0000
0000
0001
0000
0000
0001
0000
0000
0000
0000
0100
0000
0010
0000
,
2000
0000
0000
0000
0001
0000
0000
3001
0000
0000
0000
0000
0010
0000
0000
0000
,
0200
0000
0000
0000
0010
0000
0000
0310
0000
0000
0000
0000
0001
0000
0100
0000
,
0002
0013
2000
3100
,
1000
0000
0000
0010
0000
0000
1000
0000
0000
0000
0000
0000
0001
0000
0000
0000
,
0200
0000
0000
0000
0001
0000
0000
0301
0000
0000
0000
1000
0000
0000
1000
0000
,
0020
0000
0000
0000
0100
0000
0000
0130
0000
0000
0000
0010
0000
0000
0000
0000
,
1000
0000
0000
0000
0000
0000
0001
0100
0001
0000
0000
1000
0000
0000
0010
0000
,
1000
0000
0010
0200
0000
0000
0000
0000
0000
0000
0000
0000
0000
0300
0000
0000
,
0001
0000
0000
0001
0000
0000
1000
0000
0000
1000
0000
0000
0010
0000
0000
0010
,
0000
0000
1000
0100
0020
0000
0031
0000
,
0010
0000
0000
0000
0100
0000
0000
0000
1000
0000
0000
1000
0000
0000
0000
0000
,
0010
0000
0000
0000
0001
0000
0000
0000
1000
0000
0000
0010
0000
0000
0000
0000
,
0100
0000
0000
0001
0000
0000
1000
0000
0000
1000
0000
0000
0010
0000
0000
0010
,
0000
0000
0100
0010
0002
0000
0103
0000
,
1000
0010
0100
0101
,
2002
0000
3003
0000
,
0010
0000
0000
0100
0000
0000
0001
0000
0000
0001
0000
0000
0100
0000
0000
0010
,
0000
0000
1000
0010
0100
0000
0001
0100
,
0001
0000
0000
0000
1000
0000
0000
0000
0010
0000
0000
0010
0000
0000
0100
0000
,
0002
0000
0000
0000
0103
0000
0000
0000
0010
0000
0000
1000
0000
0000
0000
0000
,
0010
0000
0000
0100
0000
0000
0001
0000
0000
0100
0000
0000
0010
0000
0000
1000
,
0000
0000
0010
1000
0001
0100
0010
0000
,
2000
0010
0010
3010
,
0100
0000
0000
0000
1000
0000
0000
0001
0000
0000
0000
0000
1001
0000
0000
0000
,
0220
0000
0000
0000
,
0000
0000
0000
0000
0000
0000
0000
0330
,
0000
1000
0001
0100
,
0001
0000
0000
0000
1000
0000
0000
0000
0010
0000
0000
1000
0000
0000
2002
0000
,
0000
0000
0000
0000
,
0000
0000
3003
0000
;
