#TITLE:Sunny day;
#SUBTITLE:;
#ARTIST:センラ×蒼炎P;
#TITLETRANSLIT:;
#SUBTITLETRANSLIT:;
#ARTISTTRANSLIT:Senra × Ao-en P;
#GENRE:;
#CREDIT:SupremeX;
#BANNER:Sunnyday.png;
#BACKGROUND:Sunnyday-bg.png;
#LYRICSPATH:;
#CDTITLE:CDTitle.png;
#MUSIC:Sunny day.ogg;
#OFFSET:0.908526;
#SAMPLESTART:53.320000;
#SAMPLELENGTH:12.000000;
#SELECTABLE:YES;
#BPMS:0.000000=216.996002
;
#STOPS:
;
#BGCHANGES:35.500=sea1.avi=1.000=0=0=1=====,
52.000=highway1.avi=1.000=0=0=1=====,
68.000=car3.avi=1.000=0=0=1=====,
76.000=kangaroo1.avi=1.000=0=0=1=====,
84.000=car3.avi=1.000=0=0=1=====,
92.000=kangaroo1.avi=1.000=0=0=1=====,
100.000=ants1.avi=1.000=0=0=1=====,
108.000=fish1.avi=1.000=0=0=1=====,
116.000=ants1.avi=1.000=0=0=1=====,
124.000=fish1.avi=1.000=0=0=1=====,
132.000=clouds1.avi=1.000=0=0=1=====,
148.000=fish1.avi=1.000=0=0=1=====,
164.000=highway1.avi=1.000=0=0=1=====,
171.000=car3.avi=1.000=0=0=1=====,
179.500=highway1.avi=1.000=0=0=1=====,
193.500=Sunnyday-bg.png=1.000=0=0=1=====,
196.000=ants1.avi=1.000=0=0=1=====,
211.000=kangaroo1.avi=1.000=0=0=1=====,
228.000=ants1.avi=1.000=0=0=1=====,
243.000=kangaroo1.avi=1.000=0=0=1=====,
260.000=skywhale.avi=1.000=0=0=1=====,
320.000=Sunnyday-bg.png=1.000=0=0=1=====,
99999=-nosongbg-=1.000=0=0=0 // don't automatically add -songbackground-
;
#KEYSOUNDS:;
#ATTACKS:;

//---------------dance-single - ----------------
#NOTES:
     dance-single:
     :
     Beginner:
     2:
     0.115443,0.219429,0.000000,0.152883,0.000000,74.000000,74.000000,0.000000,14.000000,0.000000,0.000000,0.115443,0.219429,0.000000,0.152883,0.000000,74.000000,74.000000,0.000000,14.000000,0.000000,0.000000:
0000
0000
0000
0000
,
0000
0000
0000
0000
,
0000
0000
0000
0000
,
0000
0000
0000
0000
,
0000
0000
0000
0000
,
0000
0000
0000
0000
,
0000
0000
0000
0000
,
0000
0000
0000
0000
,
0000
0000
0000
0000
0000
0000
0000
0002
,
0000
0000
0000
0000
,
0000
0000
0000
0000
0000
0003
0000
0000
,
2000
0000
0000
0000
,
0000
0000
3000
0000
,
0200
0000
0000
0000
,
0000
0000
0000
0300
,
0020
0000
0000
0000
,
0000
0000
0000
0000
0000
0030
0000
0000
,
0000
1000
0000
1000
,
0000
0001
0000
0001
,
0000
0000
0000
0000
,
0000
0000
0000
0000
,
0000
1000
0000
1000
,
0000
0010
0000
0010
,
0000
0000
0000
0000
,
0000
0000
0000
0000
,
0000
0100
0000
0100
,
0000
0001
0000
0001
,
0000
0000
0000
0000
,
0000
0000
0000
0000
,
0000
1000
0000
0001
,
0000
1000
0000
0001
,
0000
0000
0000
0000
,
0000
0000
0000
0000
,
2000
0000
0000
0000
,
0000
0000
0000
0000
0000
3000
0000
0000
,
0000
0000
0200
0000
,
0000
0000
0000
0000
0000
0300
0000
0000
,
0000
0000
0002
0000
,
0000
0000
0000
0000
0000
0003
0000
0000
,
0000
0000
0020
0000
,
0000
0000
0030
0000
,
0000
1000
0000
0001
,
0000
1000
0000
0000
,
0001
0000
1000
0000
,
0010
0000
0100
0000
,
1000
0000
0001
0000
,
0100
0000
0010
0000
,
2000
0000
0000
0000
,
0000
0000
0000
0000
0000
3000
0000
0000
,
0000
0000
0000
1000
,
0000
0001
0000
1000
,
0000
0010
0000
0100
,
0000
0001
0000
0000
,
0000
1000
0000
0000
,
0100
0000
0000
0000
,
0001
0000
0000
0000
,
0000
0000
0000
0000
,
2000
0000
0000
0000
,
0000
0000
0000
0000
0000
3000
0000
0000
,
0100
0000
0000
0000
,
0000
0000
0000
0000
,
1000
0000
0010
0000
,
0001
0000
0100
0000
,
1000
0000
0010
0000
,
0100
0000
0000
0000
,
0001
0000
0001
0000
,
1000
0000
1000
0000
,
0001
0000
0100
0000
,
0010
0000
1000
0000
,
0100
0000
1000
0000
,
0001
0000
0100
0000
,
1000
0000
0001
0000
,
0010
0000
1000
0000
,
0200
0000
0000
0000
,
0000
0000
0000
0000
0000
0300
0000
0000
,
0002
0000
0000
0000
,
0000
0000
0003
0000
,
2000
0000
0000
0000
,
0000
0000
0000
0000
0000
3000
0000
0000
,
0020
0000
0000
0000
,
0000
0000
0000
0030
0000
0000
0000
0000
;

//---------------dance-single - ----------------
#NOTES:
     dance-single:
     :
     Easy:
     3:
     0.266766,0.435445,0.087362,0.076442,0.000000,171.000000,163.000000,8.000000,7.000000,0.000000,0.000000,0.266766,0.435445,0.087362,0.076442,0.000000,171.000000,163.000000,8.000000,7.000000,0.000000,0.000000:
0000
0000
0000
0000
,
0000
0000
0000
0000
,
0000
0000
0000
0000
,
0000
0000
0000
0000
,
0000
0000
0000
0000
,
0000
0000
0000
0000
,
0000
0000
0000
0000
,
0000
0000
0000
0000
,
0000
0000
0000
0000
,
1000
0000
0001
0000
,
1000
0000
0010
0000
,
0100
0000
1000
0000
,
0001
0000
0100
0000
,
0010
0000
1000
0000
,
0001
0000
0100
0000
,
0010
0000
1000
0000
,
0001
1000
0001
0000
,
1000
0000
0001
0000
,
0100
0000
0010
1000
,
0100
0001
1000
0010
,
0100
0100
0000
0000
,
1000
0000
0001
0000
,
0100
0000
0010
0000
,
1000
0000
0001
0000
,
0100
0010
1000
0000
,
0001
0000
0001
0000
,
0001
0000
1000
0000
,
0001
0000
0000
0000
1000
0000
0000
0010
,
0000
0100
0000
0001
0000
0000
0000
0000
,
1000
0000
0010
0000
,
1000
0000
0001
0000
,
0100
0000
1000
0000
,
0000
0001
0000
0100
0000
0000
0000
0000
,
0010
1000
0010
1000
,
0010
1000
0000
0000
,
0000
0001
0100
0001
,
0100
0001
0000
0000
,
0000
1000
0001
1000
,
0010
0100
0000
0000
,
0000
0001
1000
0001
,
0100
0010
0000
0000
,
1000
0000
0001
0000
,
1000
0000
0010
0000
,
0100
0000
0001
0000
,
1000
0000
0000
1000
,
0000
0001
0000
1000
,
0000
0010
0000
0200
,
0000
0000
0000
0000
,
0000
0000
0000
0300
0000
0000
1000
0000
,
0000
0000
0010
0000
0000
0100
0001
0000
,
0000
1000
0000
0000
0000
0000
0010
0000
,
0000
0100
0000
0001
,
0000
1000
0000
0020
,
0000
0030
1000
0000
0000
0200
0000
0000
,
0000
0300
0001
0000
0000
0000
2000
0000
,
0000
3000
0010
0000
0000
0000
0100
0000
,
0000
0000
0000
0000
0000
0000
0000
1000
,
0000
0001
0100
0000
0010
1000
0000
0000
,
0000
0001
0100
0000
0000
0000
0010
0000
,
1000
0010
0100
0001
,
0100
0000
0000
2000
,
0000
3000
0001
0000
0000
0200
0000
0000
,
0000
0300
0010
0000
0000
0000
2000
0000
,
3000
0001
0000
1000
,
0000
0000
0000
1000
,
0010
0100
0001
1000
,
0010
1000
0000
0001
,
0100
0001
1000
0010
,
0000
0000
0000
0100
,
1000
0010
0100
0001
,
0000
0000
0000
1000
,
0010
0100
0001
1000
,
0010
0100
0001
1001
,
0000
0010
0000
1010
,
0000
0001
0000
0101
,
0000
0010
0000
1010
,
0000
0100
0000
0101
,
0000
0010
0000
1010
,
0000
0100
0000
0101
,
0000
0010
0000
0110
;

//---------------dance-single - Copied from----------------
#NOTES:
     dance-single:
     Copied from:
     Medium:
     5:
     0.361928,0.436810,0.021840,0.131043,0.000000,232.000000,230.000000,2.000000,12.000000,0.000000,0.000000,0.361928,0.436810,0.021840,0.131043,0.000000,232.000000,230.000000,2.000000,12.000000,0.000000,0.000000:
0000
0000
0000
0000
,
0000
0000
0000
0000
,
0000
0000
0000
0000
,
0000
0000
0000
0000
,
0000
0000
0000
0000
,
0000
0000
0000
0000
,
0000
0000
0000
0000
,
0000
0000
0000
0000
,
0000
0000
0000
0000
,
0001
1000
0001
1000
,
0010
0100
0010
1000
,
0001
0100
0010
1000
,
0001
0100
0010
1000
,
2000
0010
0010
0010
,
0100
0100
0100
3001
,
0000
0002
0010
0010
,
0010
0100
0100
0103
,
0000
1000
0001
0100
,
0010
1000
0001
0100
,
0001
1000
0010
0100
,
0001
1000
0010
0100
,
0001
1000
0100
1000
,
0001
0100
0010
0000
,
0000
1000
0001
0100
,
0010
1000
0001
1001
,
0000
0010
0100
0010
,
1000
0001
0100
0000
,
0000
0001
0010
0001
,
1000
0100
1000
0010
,
0000
0100
0001
1000
,
0010
0100
0100
0000
,
0000
0001
1000
0010
,
0100
0001
1000
1001
,
0020
0000
1000
0000
,
1000
0000
0000
0000
1030
0000
0000
0200
,
0000
0000
0001
0000
,
0001
0000
0301
0000
,
0000
0000
0000
2000
0000
0000
0000
0000
,
0010
0000
3010
0000
,
0200
0000
0001
0000
,
0001
0000
0301
0000
,
1000
0100
1000
0001
,
0010
0001
0000
0000
,
1000
0010
0100
0001
,
1000
0001
0100
0000
,
0010
1000
0010
0100
,
0001
0000
1000
0000
0001
0000
0000
0200
,
0000
0000
0000
0000
,
0000
0000
0000
0000
0000
0300
0000
0000
,
0010
1000
0010
0100
,
0001
0100
0010
1000
,
0100
0010
0001
1000
,
0010
0100
0000
1000
,
0002
0000
0000
1000
1003
0000
0000
0200
,
0000
0000
0000
0010
0310
0000
0000
0000
,
1000
0001
0100
0010
,
1000
0000
0001
0000
,
1000
0010
0100
0001
,
1000
0010
0100
0010
,
1000
0001
0100
0010
,
1000
0001
0000
0100
,
0020
0000
0000
1000
1030
0000
0000
0200
,
0000
0000
0000
0001
0301
0000
0000
0000
,
0020
1000
1000
1000
,
1030
0000
0000
0000
,
0100
0001
0100
0010
,
1000
0010
0100
0000
,
0000
0000
0010
1000
,
0001
0100
0010
0000
,
0000
1000
0010
1000
,
0001
0100
0001
1000
,
0010
0000
0100
0001
,
1000
0100
1000
0000
,
0001
0001
0001
0100
,
0100
0010
0010
0010
,
1000
1000
0001
0100
,
0001
1000
0010
1000
,
0001
0010
0001
1000
,
0100
1000
0001
1000
,
0100
0000
0010
0000
0001
0000
1000
0010
,
0100
0000
0000
0000
;

//---------------dance-single - Copied from----------------
#NOTES:
     dance-single:
     Copied from:
     Hard:
     9:
     0.599054,0.742577,0.535092,0.305767,0.010920,384.000000,335.000000,49.000000,28.000000,0.000000,0.000000,0.599054,0.742577,0.535092,0.305767,0.010920,384.000000,335.000000,49.000000,28.000000,0.000000,0.000000:
0000
0000
0000
0000
,
0000
0000
0000
0000
,
0000
0000
0000
0000
,
0000
0000
0000
0000
,
0000
0000
0000
0000
,
0000
0000
0000
0000
,
0000
0000
0000
0000
,
0000
0000
0000
0000
,
0000
0000
0000
0000
0000
0000
0000
0010
,
0100
0000
0001
1000
1000
0000
0010
0100
,
0000
0001
1000
0000
0001
0100
0010
0000
,
1000
0001
0100
0001
1000
0000
0010
0100
,
0000
0001
1000
0000
0010
0000
0100
0000
,
0101
0000
0010
1000
0010
0000
0100
0001
,
0000
0100
0010
0000
1000
0100
1000
0000
,
0001
0010
0001
1000
0100
0000
1000
0001
,
0000
0100
0010
0000
1000
0001
1000
0010
,
0100
0001
1000
0010
,
0100
0001
0101
1000
,
1010
0000
0001
0100
0010
0100
0001
0010
,
0001
1000
0100
1000
0010
0100
0001
0000
,
1001
1000
1010
0100
,
0101
0000
0001
0000
1000
0000
0001
1000
,
0001
0000
0100
0010
0100
0001
0000
1000
,
1000
0000
0110
0000
0001
0010
0001
1000
,
0100
0000
1000
0000
0001
0100
0010
1000
,
0000
0001
0100
0000
0001
1000
0010
1000
,
0001
0000
0100
0001
0100
0000
0010
0000
,
1000
1001
0010
1010
,
0100
0000
0001
1000
0010
0100
0010
1000
,
0000
0001
0100
0000
0001
1000
0010
1000
,
0001
0000
0100
0010
0100
0000
0011
0000
,
1001
1000
1100
0110
,
0002
0000
0000
0000
2003
0000
0000
3001
,
0200
0001
0000
0000
0302
0000
0000
0000
,
2003
0000
0000
0000
3200
0000
0000
0300
,
0010
0100
0010
1000
0001
0000
0100
0000
,
0200
0000
0000
0000
0320
0000
0000
0030
,
2000
0010
0000
0000
3002
0000
0000
0000
,
0203
0000
0000
0000
0302
0000
0000
0003
,
2000
0100
0000
3001
0001
0100
0010
1000
,
0001
1000
1001
0010
,
1010
0000
0001
0000
0101
0000
1000
0020
,
0000
0030
0100
0002
0000
0003
1000
0000
,
1010
0000
0200
0000
0000
0300
0000
0010
,
0002
0000
0003
0010
0200
0000
0300
1000
,
0020
0000
0030
0100
0001
0000
0110
0000
,
2002
0000
0000
0000
,
0000
0000
0000
3003
0000
0000
0000
0000
,
0010
0000
0110
0000
0100
0000
0010
1000
,
0000
0001
0000
0100
0010
0000
0101
0000
,
1000
0000
0000
0000
1010
0000
1000
0002
,
0000
0000
0000
0100
0000
0100
0003
0000
0000
0000
0000
0000
1000
0000
0000
0000
,
0020
0000
0000
1000
1030
0000
0002
0200
,
0000
0300
0000
0100
0103
0000
0010
0000
,
1000
0000
0001
0100
0000
0011
0000
0110
,
0000
1000
0001
1000
0010
0100
0010
1000
,
0001
0000
0100
0000
0010
0000
1000
0100
,
0000
0010
0000
0001
0100
0000
0010
0000
,
0110
1000
1001
0100
,
0101
0000
0001
1000
0010
1000
0001
0010
,
0200
0000
0000
1000
1300
0000
0002
0200
,
0000
0300
0000
0100
0103
0000
0010
0000
,
1000
0000
0010
0100
0000
0001
0000
1001
,
0000
0010
1000
0001
0100
0010
0100
0000
,
0101
0000
1000
0010
1000
0000
0001
0100
,
0000
0001
1000
0000
0010
0000
0110
0000
,
0001
0010
0100
1000
0010
0000
1010
0000
,
0101
0000
0010
1000
0010
0100
0001
0100
,
0010
1000
1001
1000
,
1010
0000
0001
0000
0010
1000
0010
0100
,
0010
0000
0110
0000
0011
0000
1000
0010
,
0000
0100
0001
0000
1000
0100
0010
0001
,
0100
1001
0010
1010
,
0001
1001
0010
0110
,
0001
0011
0010
0110
,
0100
1100
1000
0101
,
0001
1010
0100
0110
,
0001
1001
0100
0011
,
0010
0000
0110
0000
1000
0001
1000
0010
,
0100
0000
0000
0000
;
