#TITLE:Sundrop (Remix ver.);
#SUBTITLE:;
#ARTIST:Yamajet;
#TITLETRANSLIT:;
#SUBTITLETRANSLIT:;
#ARTISTTRANSLIT:;
#GENRE:;
#CREDIT:SupremeX;
#BANNER:Sundrop (Remix ver.).png;
#BACKGROUND:Sundrop (Remix ver.)-bg.png;
#LYRICSPATH:;
#CDTITLE:CDTitle.png;
#MUSIC:Sundrop (Remix ver.).ogg;
#OFFSET:-0.021191;
#SAMPLESTART:25.670000;
#SAMPLELENGTH:12.000000;
#SELECTABLE:YES;
#BPMS:0.000000=150.000000
;
#STOPS:
;
#BGCHANGES:32.000=bubble2.avi=1.000=0=0=1=====,
48.000=cyber1.avi=1.000=0=0=1=====,
56.000=cyber2.avi=1.000=0=0=1=====,
64.000=frog2.avi=1.000=0=0=1=====,
80.000=dance10.avi=1.000=0=0=1=====,
96.000=night1.avi=1.000=0=0=1=====,
110.000=city3.avi=1.000=0=0=1=====,
128.000=night1.avi=1.000=0=0=1=====,
144.000=city3.avi=1.000=0=0=1=====,
160.000=dance6.avi=1.000=0=0=1=====,
176.000=bubble2.avi=1.000=0=0=1=====,
192.000=dance10.avi=1.000=0=0=1=====,
208.000=cyber2.avi=1.000=0=0=1=====,
224.000=frog2.avi=1.000=0=0=1=====,
240.000=light7.avi=1.000=0=0=1=====,
256.000=cyber1.avi=1.000=0=0=1=====,
272.000=bubble2.avi=1.000=0=0=1=====,
290.750=Sundrop (Remix ver.)-bg.png=1.000=0=0=1=====,
99999=-nosongbg-=1.000=0=0=0 // don't automatically add -songbackground-
;
#KEYSOUNDS:;
#ATTACKS:;

//---------------dance-single - ----------------
#NOTES:
     dance-single:
     :
     Beginner:
     2:
     0.121633,0.179559,0.084300,0.025290,0.000000,101.000000,91.000000,10.000000,3.000000,0.000000,0.000000,0.121633,0.179559,0.084300,0.025290,0.000000,101.000000,91.000000,10.000000,3.000000,0.000000,0.000000:
0000
0000
0000
0000
,
0000
0000
0000
0000
,
0000
0000
0000
0000
,
0000
0000
0000
0000
,
0010
0000
0000
0000
,
1000
0000
0000
0000
,
0001
0000
0000
0000
,
0100
0000
0000
0000
,
0001
0000
1000
0000
,
0001
0000
1000
0000
,
0001
0000
1000
0000
,
0001
0000
0000
0000
,
0100
0000
0010
0000
,
0100
0000
0010
0000
,
0100
0000
0010
0000
,
0000
0000
0000
0000
,
1000
0000
0010
0000
,
1000
0000
0001
0000
,
0100
0000
0001
0000
,
1000
0000
0010
0000
,
1000
0000
0001
0000
,
0010
0000
0100
0000
,
1000
0000
0001
0000
,
0010
0000
0100
0000
,
1000
0000
0001
0000
,
1000
0000
0000
0000
,
1000
0000
0001
0000
,
1000
0000
0000
0000
,
1000
0000
0010
0000
,
1000
0000
0001
0000
,
0100
0000
0001
0000
,
1000
0000
0001
0000
,
1000
0000
0010
0000
,
1000
0000
0001
0000
,
0100
0000
0001
0000
,
0000
0000
0000
0000
,
0100
0000
0100
0000
,
0010
0000
0010
0000
,
1000
0000
1000
0000
,
0001
0000
0001
0000
,
0200
0000
0000
0000
0000
0300
0000
0000
,
0000
0000
0000
0000
,
0002
0000
0000
0003
,
0000
0000
0000
0000
,
1000
0000
0001
0000
,
1000
0000
0000
0000
,
0010
0000
0000
0000
,
1001
0000
0000
0000
,
0110
0000
0000
0000
,
0000
0000
0000
0000
,
0200
0000
0000
0000
,
0000
0000
0300
0000
,
0010
0000
0000
0000
,
0100
0000
0000
0000
,
0001
0000
1000
0000
,
0001
0000
0000
0000
,
1010
0000
0000
0000
,
1010
0000
0000
0000
,
0101
0000
0000
0000
,
0101
0000
0000
0000
,
1001
0000
0000
0000
,
1001
0000
0000
0000
,
1100
0000
0000
0000
,
1100
0000
0000
0000
,
0010
0000
0000
0000
,
0010
0000
0000
0000
,
0010
0000
0000
0000
,
0010
0000
0000
0000
,
0100
0000
0000
0000
,
0100
0000
0000
0000
,
0100
0000
0000
0000
,
0100
0000
0000
0000
;

//---------------dance-single - ----------------
#NOTES:
     dance-single:
     :
     Easy:
     4:
     0.321544,0.550057,0.328770,0.033720,0.000000,267.000000,228.000000,39.000000,4.000000,0.000000,0.000000,0.321544,0.550057,0.328770,0.033720,0.000000,267.000000,228.000000,39.000000,4.000000,0.000000,0.000000:
0000
0000
0000
0000
,
0000
0000
0000
0000
,
0000
0000
0000
0000
,
0000
0000
0000
0000
,
1000
0000
0001
0000
,
1000
0000
0001
0000
,
1000
0000
0001
0000
,
1000
0000
0001
0000
,
0100
0100
0010
0010
,
1000
1000
0001
0001
,
0100
0100
0010
0010
,
1000
1000
0001
0001
,
0100
0100
0001
0001
,
0010
0010
0100
0100
,
1000
1000
0010
0010
,
0100
0100
0001
0001
,
1010
1010
0101
0101
,
1010
1010
1001
1001
,
0011
0011
1100
1100
,
0001
1000
0001
1000
,
0110
0110
1001
1001
,
0101
0101
1010
1010
,
0011
1100
0110
1001
,
1000
0001
1000
0001
,
0100
0010
0010
0010
,
1000
1000
0001
0100
,
0010
0010
1000
0001
,
1000
0000
0000
0000
,
0010
0010
1000
1000
,
0001
0001
0100
0100
,
0010
0000
1000
0000
,
0001
0000
1000
0000
,
0010
1000
0001
0100
,
0010
1000
0001
1000
,
0010
1000
0001
0100
,
0010
1000
0001
0100
,
0100
0000
0100
0000
,
0100
0000
0001
1000
,
0001
0000
0100
0000
,
1000
0000
0100
0000
,
0002
0000
1000
0000
1000
0003
0000
0000
,
0200
0000
0010
0000
0010
0300
0000
0000
,
0002
0000
0010
0000
0010
0003
0000
0000
,
2000
0000
0100
0000
0100
3000
0000
0000
,
0001
0000
1000
0000
,
0001
0000
1000
0000
,
0010
0000
1000
0000
0000
0001
0100
0001
,
0000
1000
1000
0010
,
0010
0000
0100
0000
,
0001
0000
0100
0000
,
0010
1000
0001
1000
,
0010
0100
0001
1000
,
0010
1000
0001
0001
,
1000
1000
0010
0100
,
0001
1000
0010
0100
,
0010
1000
1001
0000
,
0010
0010
0010
0010
,
0100
0100
0100
0100
,
0001
0001
0001
0001
,
1000
1000
1000
1000
,
0100
0100
0100
0100
,
0010
0010
0010
0010
,
0001
0001
0001
0001
,
1000
0010
1000
0001
,
0100
0001
1001
0000
,
0110
0000
1010
0000
,
0101
0000
0110
0000
,
1100
0000
0011
0000
,
0110
0000
1001
0000
,
0101
0000
1010
0000
,
0110
0001
1000
0001
,
1000
0001
1000
0001
,
0110
0000
1001
0000
;

//---------------dance-single - Copied from----------------
#NOTES:
     dance-single:
     Copied from:
     Medium:
     7:
     0.435951,0.490204,0.185460,0.000000,0.021075,362.000000,340.000000,22.000000,0.000000,0.000000,0.000000,0.435951,0.490204,0.185460,0.000000,0.021075,362.000000,340.000000,22.000000,0.000000,0.000000,0.000000:
0000
0000
0000
0000
,
0000
0000
0000
0000
,
0000
0000
0000
0000
,
0000
0000
0000
0000
,
1000
0000
0000
0000
0000
0000
0000
0000
0010
0000
0000
0100
0000
0000
0000
0000
,
0001
0000
0000
0000
0000
0000
0000
0000
1000
0000
0000
0010
0000
0000
0000
0000
,
0100
0000
0000
0000
0000
0000
0000
0000
0001
0000
0000
0100
0000
0000
0000
0000
,
0001
0000
0000
0000
0000
0000
0000
0000
1000
0000
0000
0100
0000
0000
0000
0000
,
1000
0000
0001
0000
0100
0010
1000
0000
,
0001
0000
1000
0000
0010
0100
0001
0000
,
1000
0000
0001
0000
0100
0010
1000
0000
,
0001
0000
1000
0000
0001
0100
0010
0000
,
1000
0000
0001
0000
1000
0100
1000
0000
,
0001
0000
0100
0000
0010
1000
0010
0000
,
0100
0000
0001
0000
1000
0100
1000
0000
,
0001
0000
0010
0000
0100
1000
0100
0000
,
0010
0001
1000
0000
0010
0100
0010
0000
,
0100
0001
1000
0000
0010
0100
0010
0000
,
1000
0100
1000
0000
0001
0010
0001
0000
,
0100
0010
0100
0000
0001
0000
0001
0000
,
1000
0010
1000
0000
0100
0001
0100
0000
,
1000
0100
1000
0000
0001
0010
0001
0000
,
1000
0100
1000
0000
0001
0100
0001
0000
,
1000
0010
1000
0000
0101
0000
1010
0000
,
0100
0001
0100
0010
,
1000
0010
0100
0001
,
0100
0010
1000
0010
,
0100
0001
1000
0010
,
1000
0000
0001
0000
0100
0000
0010
1000
,
0001
0100
0010
0100
,
0001
0010
0001
1000
,
0100
0000
1000
0000
0001
0000
0100
0010
,
0100
0000
0001
1000
0001
0000
1000
0100
,
1000
0000
0001
0010
0001
0000
1000
0010
,
1000
0000
0001
0100
0001
0000
0100
0000
,
0010
1000
0001
0100
,
0010
0010
1000
1000
,
0001
0001
0100
0100
,
0010
0010
1000
0001
,
1000
0000
0010
0000
0100
0000
0001
1000
,
0001
0000
0100
0010
0100
0000
0001
1000
,
1000
0000
0010
0100
0001
0000
1000
1000
,
0010
0000
0100
0001
0100
0000
0010
0010
,
1000
0000
0001
0001
0100
0000
0010
0000
,
1000
0001
0100
0010
,
0100
0001
0010
0001
,
1000
0000
0010
0100
0000
0001
0010
0001
,
0000
1000
0010
0100
,
0001
0000
1000
0100
1000
0000
0001
0010
,
0001
0000
0100
0010
0100
0000
0010
1000
,
0010
0000
0100
0001
0100
0000
0010
1000
,
0100
0000
0001
0100
0010
0000
1000
0100
,
1000
0001
0100
0001
,
1000
0010
1000
0001
,
1001
0100
0110
0001
,
1001
0010
0110
1000
,
0001
0100
0001
0000
1000
0010
1000
0000
,
0001
0010
0001
0000
1000
0100
1000
0000
,
0001
0010
0100
0000
1000
0010
0100
0000
,
0001
0010
0100
0000
1000
0000
0010
0000
,
0100
0010
0100
0000
0001
1000
0010
0000
,
0100
0001
0100
0000
0010
1000
0010
0000
,
0100
0001
1000
0000
0010
0100
0010
0000
,
1000
0001
1000
0001
,
0100
0010
0100
0000
0001
0000
1000
0000
,
0001
0100
0001
0000
1010
0000
0110
0000
,
0001
0100
0001
0000
1100
0000
0101
0000
,
0010
0100
0010
0000
0101
0000
1010
0000
,
0100
0010
0100
0000
0011
0000
1100
0000
,
0001
0100
0001
0000
1100
0000
0011
0000
,
1000
0010
1000
0000
0101
0000
1010
0000
,
0100
0001
0100
0000
1010
0000
1001
0000
,
0010
0000
0100
0000
0010
0000
0000
0000
1001
0000
0000
1001
0000
0000
0000
0000
;

//---------------dance-single - Copied from----------------
#NOTES:
     dance-single:
     Copied from:
     Hard:
     8:
     0.516638,0.551480,0.379350,0.067440,0.126450,429.000000,384.000000,45.000000,8.000000,0.000000,0.000000,0.516638,0.551480,0.379350,0.067440,0.126450,429.000000,384.000000,45.000000,8.000000,0.000000,0.000000:
0000
0000
0000
0000
,
0000
0000
0000
0000
,
0000
0000
0000
0000
,
0000
0000
0000
0000
,
0100
0000
0000
0000
0010
0000
0000
0000
1000
0000
0000
1000
0000
0000
0001
0000
,
0100
0000
0001
0000
0100
0000
0000
0000
0010
0000
0000
0010
0000
0000
0000
0000
,
1000
0000
0000
0000
0100
0000
0000
0000
1000
0000
0000
1000
0000
0000
0010
0000
,
0100
0000
0010
0000
0100
0000
0000
0000
0101
0000
0000
0002
0000
0000
0000
0000
,
1003
0100
1000
0000
0010
1000
0010
0000
,
0100
0010
0100
0000
0001
1000
0001
0000
,
1000
0100
0010
0000
0001
0010
0100
0000
,
1000
0001
0100
0000
0010
1000
0100
0000
,
0001
0010
0100
1000
0100
0010
0100
0000
,
0001
1000
0010
0100
0001
1000
0100
0000
,
0010
0001
0010
0100
0010
0001
0010
0000
,
0100
1000
0100
0010
0100
1000
0100
0000
,
0011
0000
0011
0000
1000
0100
1000
0000
,
0110
0000
0110
0000
0001
0100
0001
0000
,
1010
0000
1010
0000
0100
0010
0100
0000
,
0001
1000
0001
0000
1000
0100
1000
0000
,
0110
0000
0110
0000
0001
0010
0001
0000
,
0110
0000
0110
0000
1000
0010
1000
0000
,
0101
0000
1010
0000
0100
0010
0100
0000
,
0001
1000
0010
1000
0001
0100
0010
0000
,
2000
3100
0200
0310
,
0020
0000
0031
0000
1000
0100
0010
0001
,
2000
0000
0000
0000
3100
0000
0000
0000
1000
0000
0000
0100
0000
0000
0010
0000
,
0000
0000
0001
0000
0001
0000
0000
0000
1000
0000
0000
0100
0000
0000
0010
0000
,
0001
0000
0000
0010
0000
0000
0100
0000
1000
0000
0000
0100
0000
0000
0010
0000
,
0001
0000
0000
1000
0000
0000
0010
0000
1000
0000
0000
0001
0000
0000
1000
0000
,
0001
0000
0000
0100
0000
0000
0010
0000
0100
0000
0000
0001
0000
0000
1000
0000
,
0200
0000
0000
0000
0000
0000
1300
0000
0000
0000
0000
0000
0010
0100
0010
0000
,
0010
0000
0000
1000
0000
0000
0100
0000
0100
0000
0000
1000
0000
0000
0010
0000
,
0010
0000
0000
0100
0000
0000
0001
0000
0001
0000
0000
0010
0000
0000
0100
0000
,
0100
0000
0000
1000
0000
0000
0010
0000
0100
0000
0000
0001
0000
0000
0100
0000
,
0010
0000
0000
1000
0000
0000
0001
0000
0100
0000
0000
0010
0000
0000
1000
0000
,
1000
0000
0000
0001
0000
0000
0100
0000
0000
0000
0000
0000
0010
0000
0000
0000
,
0110
0010
0101
1000
,
0020
1000
1030
0001
,
0200
0000
0010
0000
0310
0000
0001
1000
,
0001
0000
1000
0100
1000
0000
0001
0010
,
0100
0000
1000
0100
0010
0000
0001
1000
,
0100
0000
0001
1000
0010
0000
1000
0010
,
1000
0000
0001
0100
0001
0000
1000
0100
,
0010
0000
0001
0010
0100
0000
1000
0001
,
0100
0000
0001
1000
0010
0000
1000
0100
,
1000
0000
0001
0010
0000
0100
1000
0100
,
0000
0011
0110
1100
,
0010
0001
0010
0000
0100
1000
0100
0000
,
0010
0001
0010
0000
0100
1000
0100
0000
,
0010
0001
0010
0000
1000
0001
0100
0000
,
0010
1000
0001
0000
1000
0000
0100
0000
,
1000
0001
1000
0010
,
1000
0000
0001
0010
0100
1000
0100
0010
,
0001
0000
0000
0000
1100
0000
0010
0010
,
0000
0001
1000
0000
0100
0000
0100
0000
,
0001
1000
0001
1000
0010
0100
0010
0000
,
1000
0100
1000
0100
0010
0100
0010
0000
,
0100
0001
0100
0001
1000
0001
1000
0000
,
0110
1001
0101
1010
,
0001
1000
0010
1000
0001
0100
0001
0000
,
1000
0100
1000
0001
1000
0100
1000
0000
,
0001
0100
0001
0100
0010
0100
0010
0000
,
1010
1010
0110
0110
,
0001
0000
0000
0000
1000
0000
0000
0000
0110
0000
0000
0101
0000
0000
0000
0000
,
0010
0000
1000
0000
0010
0000
0000
0000
0110
0000
0000
1010
0000
0000
0000
0000
,
0100
0000
0000
0000
0110
0000
0000
0000
1001
0000
0000
0101
0000
0000
0001
0000
,
0010
0000
0100
0000
1000
0000
0000
0000
1001
0000
0000
1100
0000
0000
0000
0000
,
0010
0000
0000
0000
0011
0000
0000
0000
0110
0000
0000
0110
0000
0000
1000
0000
,
0100
0000
0010
0000
0001
0000
0000
0000
0110
0000
0000
0110
0000
0000
1000
0000
,
0010
0000
0100
0000
0001
0000
0000
0000
1100
0000
0000
1100
0000
0000
0010
0000
,
0001
0010
0001
0010
0100
1000
0100
0010
,
0001
0000
0000
0000
1000
0000
0000
0000
0110
0000
0000
1001
0000
0000
0000
0000
;
