#TITLE:Spider Love;
#SUBTITLE:;
#ARTIST:雫シークレットマインド;
#TITLETRANSLIT:;
#SUBTITLETRANSLIT:;
#ARTISTTRANSLIT:Shizuku Secret Mind;
#GENRE:;
#CREDIT:SupremeX;
#BANNER:Spider Love.png;
#BACKGROUND:Spider Love-bg.png;
#LYRICSPATH:;
#CDTITLE:CDTitle.png;
#MUSIC:Spider Love.ogg;
#OFFSET:-0.082025;
#SAMPLESTART:65.540001;
#SAMPLELENGTH:12.000000;
#SELECTABLE:YES;
#BPMS:0.000000=186.979996
;
#STOPS:
;
#BGCHANGES:66.000=max2.avi=1.000=0=0=1=====,
82.000=fish2.avi=1.000=0=0=1=====,
98.000=water1.avi=1.000=0=0=1=====,
114.000=fish1.avi=1.000=0=0=1=====,
132.500=water1r.avi=1.000=0=0=1=====,
146.000=fish1.avi=1.000=0=0=1=====,
162.000=water3.avi=1.000=0=0=1=====,
177.500=max2.avi=1.000=0=0=1=====,
191.000=fish2.avi=1.000=0=0=1=====,
206.000=fish1.avi=1.000=0=0=1=====,
220.000=water2.avi=1.000=0=0=1=====,
238.000=fish2.avi=1.000=0=0=1=====,
252.000=water1.avi=1.000=0=0=1=====,
271.000=fish1.avi=1.000=0=0=1=====,
286.000=water2.avi=1.000=0=0=1=====,
302.000=fish2.avi=1.000=0=0=1=====,
316.000=water1r.avi=1.000=0=0=1=====,
334.000=Spider Love-bg.png=1.000=0=0=1=====,
99999=-nosongbg-=1.000=0=0=0 // don't automatically add -songbackground-
;
#KEYSOUNDS:;
#ATTACKS:;

//---------------dance-single - ----------------
#NOTES:
     dance-single:
     :
     Beginner:
     2:
     0.123503,0.185406,0.016951,0.042379,0.000000,102.000000,100.000000,2.000000,5.000000,0.000000,0.000000,0.123503,0.185406,0.016951,0.042379,0.000000,102.000000,100.000000,2.000000,5.000000,0.000000,0.000000:
0000
0000
0000
0000
,
0000
0100
0000
0000
,
0000
0000
0000
0200
,
0000
0000
0000
0300
,
0000
0000
0001
0000
,
0000
0000
0001
0000
,
0000
0000
0000
0002
,
0000
0000
0000
0003
,
0000
0000
0010
0000
,
0000
0000
0010
0000
,
0000
0000
1000
0000
,
0000
1000
0000
0000
,
0000
0000
0010
0000
,
0000
0000
0100
0000
,
0000
0000
0010
0000
,
0001
0000
1000
0000
,
0000
0000
0100
0000
,
0000
0000
0000
0010
0000
0000
0000
0000
,
0000
0000
0001
0000
,
0000
0000
0000
0100
0000
0000
0000
0000
,
0000
0000
1000
0000
,
0000
0000
0000
0010
0000
0000
0000
0000
,
0000
0000
0100
0000
,
0000
0000
0000
0001
0000
0000
0000
0000
,
0000
0000
0110
0000
,
0000
0000
1000
0000
,
0000
0000
0010
0000
,
0000
0000
0000
1000
0000
0000
0000
0000
,
0000
0000
0010
0000
,
0000
0000
0000
0001
0000
0000
0000
0000
,
0000
0000
0100
0000
,
0000
0000
0000
1000
0000
0000
0000
0000
,
0000
0000
0010
0000
,
0000
0000
0000
0001
0000
0000
0000
0000
,
0000
0000
0100
0000
,
0000
0000
0000
0100
0000
0000
0000
0000
,
0000
0000
0010
0000
,
0000
0000
0000
0010
0000
0000
0000
0000
,
0000
0000
1000
0000
,
0000
0000
0000
1000
0000
0000
0000
0000
,
0000
0000
0010
0000
,
0000
0000
0000
0000
,
0000
0100
0000
0000
,
0000
0000
0000
0000
,
0001
0000
0000
0000
,
0000
0000
0000
1000
,
0000
0000
0000
0000
,
0000
0000
0000
0020
,
0000
0000
0000
0000
,
0000
0030
0100
0000
,
0000
0000
0000
0000
,
0000
0000
1000
0000
,
0001
0000
1000
0000
,
0001
0000
1000
0000
,
0000
0000
0000
0000
,
0000
0000
0100
0000
,
0010
0000
0100
0000
,
0010
0000
0100
0000
,
0000
0000
0000
0000
,
0000
0000
0001
0000
,
1000
0000
0001
0000
,
1000
0000
0001
0000
,
1000
0000
0001
0000
,
0000
0000
0100
0000
,
0001
0000
0100
0000
,
0001
0000
0000
0000
1000
0000
0000
1000
,
0000
1000
0000
0000
,
0000
0000
0000
0100
,
0000
0010
0000
0100
,
0000
0010
0000
0100
,
0000
0001
0000
1000
,
0000
0001
0000
1000
,
0000
0001
0000
1000
,
0000
0010
0000
0100
,
0000
0010
0000
0100
,
0000
0010
0000
1000
,
0000
0001
0000
1000
,
0000
0001
0000
1000
,
0000
1000
0000
1000
,
0000
0001
0000
0001
,
0000
0001
0000
0001
,
0000
0100
0010
0000
,
0100
0000
0010
0000
,
0000
0000
0220
0000
,
0000
0000
0000
0000
,
0000
0000
0000
0000
,
0000
0000
0000
0000
,
0000
0000
0330
0000
;

//---------------dance-single - ----------------
#NOTES:
     dance-single:
     :
     Hard:
     8:
     0.364456,0.444976,0.177990,0.220369,0.000000,301.000000,280.000000,21.000000,26.000000,0.000000,0.000000,0.364456,0.444976,0.177990,0.220369,0.000000,301.000000,280.000000,21.000000,26.000000,0.000000,0.000000:
0000
0000
0000
0002
,
0000
0003
0100
0010
0100
0001
0000
0010
,
0000
1000
0000
0001
0000
0100
0020
0000
,
0000
0000
0000
0000
0000
0030
0000
0000
,
1000
0001
0200
0300
,
0001
0000
0100
0000
0010
1000
0000
0010
,
0000
0001
0000
1000
0000
0100
0020
0000
,
0000
0000
0000
0000
0000
0030
0000
0000
,
0001
0000
0100
0000
0002
0000
0000
0003
,
1000
0000
0010
0000
1000
0100
0000
0010
,
0000
0001
0000
0000
1000
0000
0001
0100
,
0000
0100
0000
0010
0000
0000
0000
0000
,
1000
0000
0010
0000
1000
0000
0001
0100
,
0000
0010
0000
0001
0000
1000
0000
0010
,
0000
0100
0000
0000
0001
0001
0000
0000
,
1000
1000
0000
0000
0010
0010
0000
0000
,
0000
0000
0000
0000
1000
0000
0001
0100
,
0001
0100
0001
1000
0000
0000
0000
0000
,
1000
0000
0001
0000
0001
0000
1000
0010
,
1000
0010
1000
0001
0000
0000
0100
0000
,
0010
0000
1000
0000
0002
0000
0000
0003
,
1000
0010
1000
0001
0000
0000
0000
0000
,
0100
0000
0010
0000
2000
0000
0000
3000
,
0001
0100
0001
1000
0000
0000
0000
0000
,
0001
0010
0100
1000
0010
0000
0000
0000
,
0000
0100
0010
1000
0010
0000
0000
0100
,
0000
0010
0000
0002
0000
0000
0003
2000
,
0000
0000
0000
0000
0000
0000
0000
3000
,
0000
0000
0010
0000
0200
0000
0300
0020
,
0000
0000
0000
0030
,
0000
0000
1000
0000
0100
0000
0000
0002
,
0000
0000
0000
0000
0000
0000
0000
0003
,
0000
0000
0000
0000
,
0000
0100
0010
0100
0001
0000
0000
0100
,
0000
0010
0000
2000
0000
0000
3000
0020
,
0000
0000
0000
0000
0000
0000
0000
0030
,
0000
0000
0000
0000
0100
0000
0001
0100
,
0000
0010
0000
1000
0000
0000
0010
0000
,
0001
0100
0000
0000
0010
0000
0100
0010
,
0000
1000
0000
0001
0000
0100
0000
0000
,
0001
1000
0000
0000
1001
0000
0000
1010
,
0000
0000
0110
0000
0000
1001
0000
0000
,
0100
0000
0101
0000
0000
1010
0000
0000
,
0110
0000
0000
1001
0000
0000
0001
0000
,
0011
0000
0000
1001
0000
0000
1100
0000
,
0000
0110
0000
0000
0001
0000
0101
0000
,
0000
1010
0000
0000
1001
0000
0000
0101
,
0000
0110
0000
2000
,
0000
0000
3001
0000
0100
0000
0010
1000
,
0000
0001
0000
0000
1000
0000
0000
0001
,
0000
0000
1000
0000
0010
0100
0010
0100
,
0010
0000
1000
0000
,
0001
0000
0001
0000
1000
0010
0000
0100
,
0000
0001
0000
1000
0000
0010
0200
0000
,
0001
0001
0301
0000
,
0010
1000
0002
0000
,
0103
0000
0010
0000
1000
0100
0000
0010
,
0000
0001
0000
0100
0000
0001
2000
0000
,
0100
0100
0100
3100
,
0001
0000
0010
0000
0200
0000
0000
0300
,
0010
0000
1000
0000
0000
0001
0100
0001
,
0000
1000
0000
0000
0001
0000
0100
0010
,
0000
1000
0000
0100
0000
0000
0000
0000
,
0001
0000
0100
0000
0010
0000
1000
0001
,
0000
1000
0000
0010
0000
0100
0000
0001
,
0000
1000
0000
0000
0101
0000
0000
1010
,
0000
0101
0000
0000
,
0010
0100
0000
0020
,
0000
0000
1030
0000
0100
0001
0000
0100
,
0000
0010
0000
1000
0000
0001
2000
0000
,
0010
0010
0010
3010
,
0100
0100
0002
0000
,
0103
0000
0010
0000
0100
0010
0000
1000
,
0000
0001
0000
1000
0000
1000
0002
0000
,
0100
0100
0100
0103
,
0010
0010
2000
0000
,
3100
0000
0010
0000
0001
0100
0000
0010
,
0000
1000
0000
0000
0010
0000
1000
0100
,
0000
0001
0000
0001
0000
0000
0000
0000
,
0010
0000
1000
0000
0001
0000
0100
0010
,
0000
1000
0000
0001
0000
0100
0000
0001
,
0000
1000
0000
0000
0010
0100
0000
0000
,
0001
1000
0000
0000
0010
0100
0000
0000
,
0001
1000
2002
0000
,
0000
0000
0000
0000
,
0000
0000
0000
0000
,
0000
0000
0000
0000
,
0000
0000
3003
0000
;

//---------------dance-single - ----------------
#NOTES:
     dance-single:
     :
     Easy:
     4:
     0.248218,0.333732,0.067806,0.135612,0.000000,205.000000,197.000000,8.000000,16.000000,0.000000,0.000000,0.248218,0.333732,0.067806,0.135612,0.000000,205.000000,197.000000,8.000000,16.000000,0.000000,0.000000:
0000
0000
0000
0000
,
0000
0100
0010
1000
,
0000
0001
0100
0020
,
0000
0000
0000
0000
0000
0030
0000
0000
,
1000
0001
0100
0000
,
0001
1000
0010
0000
,
0100
0000
0001
2000
,
0000
0000
0000
3000
,
0001
0100
0001
0000
,
0100
0010
1000
0010
,
0100
0000
0001
0100
,
0001
0100
0100
0000
,
0010
1000
0001
0100
,
0001
1000
0001
0100
,
0001
0000
0011
0000
,
0110
0000
0110
0000
,
0000
0000
1000
0000
,
0001
0001
0001
0000
,
0100
0010
1000
0000
,
0001
0001
0001
0000
,
0000
0000
0100
0000
,
0010
1000
1000
0000
,
0000
0000
0000
0000
,
1000
1000
1000
0001
,
0100
0010
0100
0000
,
0000
0000
0001
0000
0100
0000
0000
0010
,
0000
0000
0000
1000
0000
0000
0000
0020
,
0000
0000
0000
0000
0000
0000
0000
0030
,
0000
0000
0100
0000
0001
0000
0000
2000
,
0000
0000
0000
0000
0000
0000
0000
3000
,
0000
0000
0010
0000
0100
0000
0000
0002
,
0000
0000
0000
0000
,
0000
0003
0000
0000
0000
0000
0000
0000
,
0000
0000
0100
0000
0010
0000
0000
1000
,
0000
0000
0000
0001
0000
0000
0000
0200
,
0000
0000
0000
0000
0000
0000
0000
0300
,
0000
0000
1000
0010
,
0100
0001
1000
0000
,
0010
0000
0100
0010
,
1000
0001
0100
0000
,
0010
0000
0000
0000
1000
0000
0000
0001
,
0000
0000
1000
0000
0000
0001
0000
0000
,
0100
0000
0010
0000
0000
1000
0000
0000
,
0001
0000
0000
0100
0000
0000
0010
0000
,
0100
0000
0000
0001
0000
0000
1000
0000
,
0000
0001
0000
0000
1000
0000
0010
0000
,
0000
0100
0000
0000
0001
0000
0000
1000
,
0000
0010
0000
0000
0000
0000
0200
0000
,
0000
0300
0000
0000
0000
0000
0001
0000
,
0000
0100
0000
0000
0010
0000
0000
1000
,
0000
0010
0000
0000
,
0000
0000
1000
0000
,
0001
0100
0001
0100
,
0001
0100
0001
0200
,
0000
0000
0000
0000
0000
0300
0000
0000
,
0000
0000
0010
0000
,
1000
0010
1000
0010
,
1000
0010
1000
0020
,
0000
0000
0000
0000
0000
0030
0000
0000
,
0000
0000
1001
0000
,
0010
0100
0010
0100
,
0010
0000
0100
0000
,
0100
0000
0100
0000
,
0001
1000
0001
1000
,
0001
1000
0001
1000
,
1000
0000
0000
0000
0100
0000
0000
0010
,
0000
0100
0000
0000
,
0001
1000
0000
0020
,
0000
0030
0000
0000
0100
0000
0000
0000
,
0001
0000
1000
0002
,
0000
0000
0003
0000
,
0100
0000
0010
0000
0200
0000
0000
0300
,
0010
1000
0010
0100
,
0001
1000
0010
0200
,
0000
0000
0000
0000
0000
0300
0000
0000
,
0001
0000
1000
0000
0020
0000
0000
0030
,
0100
0000
0001
0000
1000
0000
0000
0001
,
0000
1000
0000
0000
0010
0000
0000
0100
,
0000
0010
0000
0100
0000
0000
0000
0000
,
0001
1000
0010
0100
,
0010
1000
0001
0100
,
1000
0000
1001
0000
,
1001
0000
1001
0000
,
0000
0000
0220
0000
,
0000
0000
0000
0000
,
0000
0000
0000
0000
,
0000
0000
0000
0000
,
0000
0000
0330
0000
;

//---------------dance-single - Copied from----------------
#NOTES:
     dance-single:
     Copied from:
     Medium:
     6:
     0.300283,0.407894,0.186466,0.194942,0.000000,248.000000,226.000000,22.000000,23.000000,0.000000,0.000000,0.300283,0.407894,0.186466,0.194942,0.000000,248.000000,226.000000,22.000000,23.000000,0.000000,0.000000:
0000
0000
0000
0000
,
0000
0000
0100
0000
0010
1000
0000
0001
,
0000
0100
0000
0010
0000
1000
0002
0000
,
0000
0000
0003
0000
,
1000
0000
0010
0000
0200
0000
0000
0300
,
0001
0000
1000
0000
0010
0100
0000
0001
,
0000
1000
0000
0010
0000
0100
0020
0000
,
0000
0000
0000
0000
0000
0030
0000
0000
,
1000
0000
0001
0000
0200
0000
0000
0300
,
0010
0000
1000
0000
0001
0100
0000
0010
,
0000
0100
0000
0000
0001
0000
1000
0010
,
0000
0100
0000
0110
0000
0000
0000
0000
,
0001
1000
0001
0100
,
0010
1000
0001
0100
,
0010
0000
1000
0000
,
0001
0000
0110
0000
,
0000
0000
1000
0000
,
0010
0100
0010
0100
0000
0000
0000
0000
,
0000
0000
0001
0000
,
0010
0100
0010
0100
0000
0000
0000
0000
,
0000
0000
1000
0000
,
0100
0010
0100
0010
0000
0000
0000
0000
,
0000
0000
0001
0000
,
0010
0100
0010
0100
0000
0000
0000
0000
,
0000
1000
0001
0000
,
0000
0000
1000
0000
0010
0000
0000
0100
,
0000
0001
0000
2000
0000
0000
3000
0020
,
0000
0000
0000
0030
,
0000
0000
0100
0000
0001
0000
0000
0200
,
0000
0000
0000
0000
0000
0000
0000
0300
,
0000
0000
0010
0000
1000
0000
0000
0002
,
0000
0000
0000
0000
,
0000
0003
0000
0000
,
0000
0000
1000
0000
0010
0000
0000
0100
,
0000
0001
0000
0000
0100
0000
0000
0020
,
0000
0000
0000
0000
0000
0000
0000
0030
,
0000
0000
0100
0010
,
0100
0010
0000
1000
,
0001
0000
0100
0010
,
0100
0010
0100
0000
,
0001
0000
0000
0000
1000
0000
0000
1010
,
0000
0000
0001
0000
0000
0101
0000
0000
,
0010
0000
1000
0000
0000
0001
0000
0000
,
0101
0000
0000
0010
0000
0000
1000
0000
,
1100
0000
0000
0010
0000
0000
0110
0000
,
0000
0001
0000
0000
0010
0000
0011
0000
,
0000
0100
0000
0000
1100
0000
0000
0010
,
0000
0110
0000
0002
,
0000
0003
0000
1000
,
0000
0010
0000
0000
1001
0000
0000
1001
,
0000
1001
0000
0000
,
0000
0000
1000
0010
,
1000
0001
0100
0010
,
1000
0001
0100
0220
,
0000
0000
0000
0000
0000
0330
0000
0000
,
0001
1000
1001
0000
,
0010
0000
0100
0000
0001
0100
0000
0010
,
0000
1000
0000
0001
0000
0100
0020
0000
,
0000
0000
0000
0000
0000
0030
0000
0000
,
0100
0001
2002
3003
,
0010
0000
0100
0000
0010
0100
0000
0001
,
0000
1001
0000
0000
0010
0000
1000
0000
,
0010
0100
0000
0000
,
0001
0010
0001
1000
,
0010
1000
0010
0100
,
0001
0000
0100
0000
1010
0000
0000
1010
,
0000
0000
1010
0000
0000
0000
0000
0100
,
0000
0001
0000
0200
,
0300
0000
0010
0000
1000
0001
0000
0100
,
0000
0010
0000
1000
0000
0001
0200
0000
,
0000
0000
0000
0000
0000
0300
0000
0000
,
0010
1000
2002
3003
,
0010
0000
0100
0000
0010
0100
0000
0001
,
0000
1000
0000
0001
0000
0100
0020
0000
,
0000
0000
0000
0000
0000
0030
0000
0000
,
1000
0000
0001
0000
0002
0000
0000
0003
,
1000
0000
0010
0000
0100
0010
0000
1000
,
0000
0000
0000
0000
0100
0000
0000
0001
,
0000
0010
0000
1000
0000
0000
0000
0000
,
0001
1000
0010
0100
,
0010
0100
0001
1000
,
0010
0000
0100
0000
0001
0001
0000
0000
,
1000
1000
0000
0000
0010
0010
0000
0000
,
0100
0010
2002
0000
,
0000
0000
0000
0000
,
0000
0000
0000
0000
,
0000
0000
0000
0000
,
0000
0000
3003
0000
;
