#TITLE:いつか王子様が(Remix Ver.);
#SUBTITLE:;
#ARTIST:-;
#TITLETRANSLIT:Someday My Prince Will Come (Remix Ver.);
#SUBTITLETRANSLIT:;
#ARTISTTRANSLIT:;
#GENRE:;
#CREDIT:SupremeX;
#BANNER:Someday My Prince Will Come (Remix Ver.).png;
#BACKGROUND:Someday My Prince Will Come (Remix Ver.)-bg.png;
#LYRICSPATH:;
#CDTITLE:CDTitle.png;
#MUSIC:Someday My Prince Will Come (Remix Ver.).ogg;
#OFFSET:-1.024971;
#SAMPLESTART:16.629999;
#SAMPLELENGTH:12.000000;
#SELECTABLE:YES;
#BPMS:0.000000=68.000000
,16.625000=168.000000
,161.000000=84.000000
,185.000000=168.000000
;
#STOPS:16.625000=0.800000
;
#BGCHANGES:17.000=heart12.avi=1.000=0=0=1=====,
29.000=heart8.avi=1.000=0=0=1=====,
41.000=heart6.avi=1.000=0=0=1=====,
53.000=heart11a.avi=1.000=0=0=1=====,
65.000=heart12.avi=1.000=0=0=1=====,
77.000=heart8.avi=1.000=0=0=1=====,
89.000=heart7.avi=1.000=0=0=1=====,
101.000=heart12.avi=1.000=0=0=1=====,
113.000=heart1.avi=1.000=0=0=1=====,
137.000=heart6.avi=1.000=0=0=1=====,
149.000=heart8.avi=1.000=0=0=1=====,
161.000=dancers3.avi=1.000=0=0=1=====,
164.500=dancers4.avi=1.000=0=0=1=====,
168.000=dancers3.avi=1.000=0=0=1=====,
173.000=heart7.avi=1.000=0=0=1=====,
185.000=text10.avi=1.000=0=0=1=====,
197.000=heart11a.avi=1.000=0=0=1=====,
209.000=heart1.avi=1.000=0=0=1=====,
221.000=heart8.avi=1.000=0=0=1=====,
233.000=heart6.avi=1.000=0=0=1=====,
245.000=heart12.avi=1.000=0=0=1=====,
256.000=Someday My Prince Will Come (Remix Ver.)-bg.png=1.000=0=0=1=====,
99999=-nosongbg-=1.000=0=0=0 // don't automatically add -songbackground-
;
#KEYSOUNDS:;
#ATTACKS:;

//---------------dance-single - ----------------
#NOTES:
     dance-single:
     :
     Hard:
     8:
     0.311818,0.582060,0.025985,0.346464,0.034646,252.000000,249.000000,3.000000,40.000000,0.000000,0.000000,0.311818,0.582060,0.025985,0.346464,0.034646,252.000000,249.000000,3.000000,40.000000,0.000000,0.000000:
0000
0000
0000
0000
,
0000
0000
0000
0000
,
0000
0000
0000
0000
,
0000
0000
0000
0000
,
0000
0001
1000
0010
,
0200
0001
0301
0020
,
0100
0000
0130
0000
0100
0001
1000
0001
,
0010
0100
2000
0000
0010
0000
3010
0000
,
0002
0100
0103
0220
,
0330
1000
0001
1000
,
0010
0200
0001
0301
,
0010
1000
0010
2000
,
0100
0100
3100
0010
,
0010
1000
0002
0100
,
0103
0010
0001
0200
,
0000
0000
0000
0300
0000
0001
0100
0001
,
0010
0100
2000
0000
0000
0000
3000
0000
,
0002
0000
0000
0003
1000
0000
0200
0000
,
0000
0000
0310
0000
0001
0010
0100
1000
,
0010
0100
0020
0000
0100
0000
0130
0000
,
0002
1000
1003
0200
,
0010
0310
0110
1000
,
0001
0000
0002
0000
0100
0000
0100
0003
,
2000
0000
3010
0200
,
0300
0001
0100
0010
2000
0000
0000
0000
,
3010
0100
0001
0010
,
2000
0000
3001
0020
,
0000
0000
0000
0000
0000
0000
0130
0100
,
0100
0100
0100
0000
0000
0000
0001
0000
,
0001
0000
1000
1000
,
0000
0010
0010
0000
,
0100
0100
0000
0001
,
0001
0000
1000
1000
,
0000
0010
0010
0000
,
0100
0100
0001
1000
,
0010
1000
0001
0100
,
0001
0100
0010
1000
,
0001
1000
0010
0100
,
0001
0100
0010
1000
,
0010
0000
0100
0000
0001
0000
1000
0010
,
0100
0001
1000
0000
0000
0010
0000
1000
,
0100
0000
0100
1000
0000
0000
0001
0000
,
0010
0100
0000
0100
1000
0000
0001
0100
,
0010
0000
1000
0000
0010
0000
0100
0001
1000
0000
0001
0000
0100
0010
1000
0000
,
0100
0000
0010
0000
0001
0100
0010
0000
1000
0000
0010
0000
0100
0000
0001
0100
,
0010
0000
1000
0000
0001
0000
1000
0100
0020
0000
0000
0000
0000
0000
0030
0001
,
0100
0010
1000
0001
0100
0000
0000
0000
0010
0000
0000
0000
0100
0000
0000
0000
,
0002
0010
0013
2000
,
0100
0000
3100
0000
0010
0000
0001
0010
,
0100
1000
0002
0000
0100
0000
0103
0000
,
2000
0010
3010
0200
,
0300
0010
1000
0001
,
0010
2000
0100
3100
,
0002
0000
0013
2000
,
3000
0010
0100
0010
0200
0000
0000
0000
,
0301
1000
0001
1000
,
0020
0000
0130
0002
,
0000
0000
0000
0003
0000
0100
0010
1000
,
0001
1000
0100
0000
0001
0000
1000
0000
,
0220
0330
0001
1000
,
0000
0010
0100
0010
0200
0000
0000
0300
,
0001
2000
0010
3010
,
0002
0000
0103
2000
,
0000
0000
0000
0000
0001
0001
0001
0001
,
3001
0000
0000
0000
;

//---------------dance-single - ----------------
#NOTES:
     dance-single:
     :
     Medium:
     6:
     0.232626,0.415757,0.060631,0.355126,0.000000,188.000000,181.000000,7.000000,41.000000,0.000000,0.000000,0.232626,0.415757,0.060631,0.355126,0.000000,188.000000,181.000000,7.000000,41.000000,0.000000,0.000000:
0000
0000
0000
0000
,
0000
0000
0000
0000
,
0000
0000
0000
0000
,
0000
0000
0000
0000
,
0000
0001
1000
0001
,
0200
0000
0310
0020
,
0000
0130
1000
0001
,
0001
2000
0000
3000
,
0002
0003
0100
0220
,
0330
1000
1000
0001
,
0010
1000
1000
1000
,
0001
0001
0001
0200
,
0000
0000
0300
0010
,
0100
0001
0001
0001
,
1000
1000
1000
0220
,
0000
0000
0000
0330
0000
0002
0000
0000
,
0000
0003
2000
0000
0000
0000
3000
0000
,
0002
0000
0000
0003
1000
0000
0200
0000
,
0000
0310
0001
1000
,
1000
0020
0000
0030
,
0002
0000
1003
0200
,
0000
0300
0010
1000
,
0001
1000
0001
1000
,
0020
0000
0130
0001
,
0000
0001
1000
0001
2000
0000
0000
0000
,
3100
0100
0010
0010
,
0200
0000
0000
0300
0001
0000
0020
0000
,
0000
0000
0000
0000
0000
0000
1030
0100
,
1000
0100
1000
0000
0000
0000
0000
0000
,
0001
0000
0000
1100
,
0000
0000
1000
0000
,
0000
0011
0000
0000
,
0100
0000
0000
1010
,
0000
0001
0001
0000
,
0100
0100
0000
0001
,
1000
0000
0001
1000
,
0000
0100
0010
0000
,
1000
0001
0000
0000
,
0000
0000
0000
0000
,
0000
0000
0000
0000
0000
0000
1000
0010
,
0100
0001
0010
0000
0000
1000
0000
0100
,
0010
0000
0010
0001
0000
0000
1000
0000
,
0001
0100
0000
0100
1000
0000
0001
0100
,
0010
1000
0001
0010
0001
0100
1000
1000
,
2000
0000
0000
3000
0001
0001
0001
0100
,
0100
0100
0010
0010
0020
0000
0000
0030
,
0100
0001
1000
0000
0010
0000
0100
0000
,
0002
0000
0103
2000
,
0000
3010
0001
1000
,
0010
0002
0000
0003
,
2000
0000
3000
0220
,
0330
0001
1000
0001
,
1000
0200
0000
0300
,
0002
0000
0013
2000
,
3000
0001
0010
0001
0200
0000
0000
0000
,
1300
0010
0001
1000
,
0020
0000
0000
0030
0001
0000
0200
0000
,
0000
0000
0000
0300
0000
0002
0000
0000
,
0000
0003
1000
0001
,
0220
0330
0001
1000
,
0000
0010
0100
0010
0200
0000
0000
0300
,
0001
2000
0010
3010
,
0002
0000
1003
2000
,
0000
0000
0000
3000
0001
0100
0001
0100
,
0001
0000
0000
0000
;

//---------------dance-single - ----------------
#NOTES:
     dance-single:
     :
     Easy:
     3:
     0.171995,0.249942,0.000000,0.216540,0.000000,139.000000,139.000000,0.000000,25.000000,0.000000,0.000000,0.171995,0.249942,0.000000,0.216540,0.000000,139.000000,139.000000,0.000000,25.000000,0.000000,0.000000:
0000
0000
0000
0000
,
0000
0000
0000
0000
,
0000
0000
0000
0000
,
0000
0000
0000
0000
,
0000
0001
1000
0001
,
2000
3000
0001
0001
,
0000
1000
1000
0000
,
0000
0010
0100
0010
,
0200
0300
0010
0010
,
0000
0100
0100
0001
,
1000
0010
0010
0100
,
0001
0001
1000
2000
,
0000
0000
3000
0001
,
0001
0100
0010
0100
,
0001
0100
0010
0002
,
0000
0000
0003
1000
,
1000
0000
0020
0000
0000
0030
0000
0000
,
0200
0000
0000
0300
0001
0000
0001
0000
,
0000
1000
1000
0000
,
0000
0000
0020
0000
0000
0030
0000
0000
,
0200
0000
0000
0300
0001
0000
0001
0000
,
0000
1000
1000
0010
,
0100
0001
0100
0010
,
0200
0000
0300
0002
,
0000
0003
0000
0000
0010
0000
0000
0000
,
1000
0001
0001
0010
,
0100
0000
1000
0020
,
0000
0000
0000
0030
,
0000
0000
0000
0000
,
0010
0000
0000
1000
,
0000
0000
0100
0000
,
0000
0001
0000
0000
,
1000
0000
0000
0010
,
0000
0000
0100
0000
,
0000
0001
0000
0000
,
1000
0000
0000
0010
,
0000
0000
1000
0000
,
0000
0001
0000
0000
,
0000
0000
0000
0000
,
0000
0000
1000
0001
,
1000
0000
0001
0000
0000
1000
0000
0000
,
0010
0000
0100
0100
0000
0000
0001
0000
,
0000
0010
0000
0000
1000
0000
0100
0100
,
0000
0000
0001
0000
0000
1000
0000
0000
,
0020
0000
0000
0030
0000
0000
1000
0000
,
0000
0100
0000
0000
0002
0000
0000
0003
,
0000
0000
2000
0000
0000
0000
0000
3000
,
0020
0000
0000
0030
0100
0000
0100
0000
,
0000
0001
0001
0000
,
0000
2000
0000
3000
,
0002
0000
0000
0003
0100
0000
0100
0000
,
0000
1000
1000
0010
,
0100
0001
0010
0001
,
2000
0000
0000
3000
0010
0000
0100
0000
,
0000
0000
0001
0000
0002
0000
0000
0003
,
0010
0010
0100
0010
,
0200
0000
0000
0300
0010
0000
0020
0000
,
0000
0000
0000
0000
0000
0030
0000
0000
,
0000
1000
1000
0001
,
0200
0000
0000
0300
0001
0000
0010
0000
,
0001
0000
0001
0000
0020
0000
0000
0030
,
0100
1000
1000
0010
,
0200
0000
0000
0300
0001
0000
2000
0000
,
0000
0000
0000
0000
,
0000
3000
0000
0000
0000
0000
0000
0000
;

//---------------dance-single - Copied from----------------
#NOTES:
     dance-single:
     Copied from:
     Beginner:
     2:
     0.092803,0.138856,0.000000,0.043308,0.000000,75.000000,75.000000,0.000000,5.000000,0.000000,0.000000,0.092803,0.138856,0.000000,0.043308,0.000000,75.000000,75.000000,0.000000,5.000000,0.000000,0.000000:
0000
0000
0000
0000
,
0000
0000
0000
0000
,
0000
0000
0000
0000
,
0000
0000
0000
0000
,
0000
0001
0000
0000
,
1000
0000
0000
0001
,
0000
1000
1000
0000
,
0000
0010
0000
0000
,
0100
0000
0010
0010
,
0000
0100
0100
0000
,
0000
0001
0000
0000
,
0001
0000
0000
2000
,
0000
0000
3000
0000
,
0000
0000
0001
0000
,
0001
0000
0000
2000
,
0000
0000
0000
3000
0000
0000
0000
0000
,
0000
0100
0000
0000
,
0010
0000
0000
0100
,
0000
0000
0010
0000
,
0000
1000
0000
0000
,
0001
0000
1000
1000
,
0000
0001
0001
0000
,
0000
0100
0000
0000
,
0010
0000
0000
0100
,
0000
0000
0010
0000
,
0000
1000
0000
0000
,
1000
0000
0000
0002
,
0000
0000
0000
0000
0000
0000
0000
0003
,
0000
0000
0000
0000
,
0100
0000
0000
0010
,
0000
0000
0100
0000
,
0000
0010
0000
0000
,
0000
0000
0000
0000
,
0000
0000
0000
0000
,
0000
1000
0000
0000
,
0001
0000
0000
1000
,
0000
0000
0001
0000
,
0000
1000
0000
0000
,
0000
0000
0000
0000
,
0000
0000
0000
0000
,
0000
1000
0000
0000
,
0001
0000
0000
1000
,
0000
0000
0001
0000
,
0000
0100
0000
0000
,
0010
0000
0000
0100
,
0000
0000
0010
0000
,
0000
1000
0000
0000
,
0001
0000
0000
1000
,
0000
0000
0001
0000
,
0000
0100
0000
0000
,
0010
0000
0100
0100
,
0000
0010
0010
0000
,
0000
1000
0000
0000
,
1000
0000
0000
0001
,
0000
0000
0001
0000
,
0000
0100
0000
0000
,
0010
0000
0000
0200
,
0000
0000
0300
0000
,
0000
0001
0000
0000
,
1000
0000
0000
0010
,
0000
0000
0100
0000
,
0000
0001
0000
0000
,
1000
0000
0000
0020
,
0000
0000
0000
0000
,
0000
0030
0000
0000
0000
0000
0000
0000
;
