#TITLE:Some day (instrumental);
#SUBTITLE:;
#ARTIST:NAOKI;
#TITLETRANSLIT:;
#SUBTITLETRANSLIT:;
#ARTISTTRANSLIT:;
#CREDIT:SupremeX;
#BANNER:Some day.png;
#BACKGROUND:Some day-bg.png;
#LYRICSPATH:;
#CDTITLE:CDTitle.png;
#MUSIC:Some day (instrumental).ogg;
#OFFSET:-0.090;
#SAMPLESTART:86.830;
#SAMPLELENGTH:12.000;
#SELECTABLE:YES;
#BPMS:0.000=155.000;
#STOPS:;
#BGCHANGES:32.000=smoke3.avi=1.000=0=0=1,
48.000=tunnel12.avi=1.000=0=0=1,
64.000=kaliedoscope6.avi=1.000=0=0=1,
80.000=smoke3.avi=1.000=0=0=1,
96.000=kaliedoscope6.avi=1.000=0=0=1,
112.000=room1.avi=1.000=0=0=1,
128.000=cloud00.avi=1.000=0=0=1,
144.000=skywhale.avi=1.000=0=0=1,
172.000=Some day-bg.png=1.000=0=0=1,
176.000=skywhale.avi=1.000=0=0=1,
208.000=water1.avi=1.000=0=0=1,
224.000=kaliedoscope6.avi=1.000=0=0=1,
240.000=tunnel12.avi=1.000=0=0=1,
255.000=Some day-bg.png=1.000=0=0=1,
99999=-nosongbg-=1.000=0=0=0 // don't automatically add -songbackground-
;

//---------------dance-single - ----------------
#NOTES:
     dance-single:
     :
     Hard:
     8:
     0.435,0.500,0.274,0.108,0.049: // measure 1
0000
0000
0000
0000
,  // measure 2
0000
0000
0000
0000
,  // measure 3
0000
0000
0000
0000
,  // measure 4
0000
0000
0000
0000
,  // measure 5
2000
0000
0000
3000
,  // measure 6
0002
0000
0000
0003
,  // measure 7
0200
0000
0000
0300
,  // measure 8
0020
0000
0000
0000
0000
0030
0000
0000
,  // measure 9
1000
0100
1000
0000
0010
0000
0010
0000
,  // measure 10
0100
0001
0100
0000
0010
0000
1000
0100
,  // measure 11
0010
0001
1000
0000
0100
0000
1000
0000
,  // measure 12
0001
0100
0010
0000
1000
0000
1000
0000
,  // measure 13
0001
0010
0100
0000
1000
0000
0010
0000
,  // measure 14
1000
0001
1000
0000
0100
0000
0100
0000
,  // measure 15
0010
1000
0001
0000
0100
0000
0001
0000
,  // measure 16
1000
0100
1000
0000
0001
0000
0010
0000
,  // measure 17
0100
1000
0100
0010
0001
0010
0100
0000
,  // measure 18
1000
0100
0010
0100
0010
0001
1000
0000
,  // measure 19
0010
0100
0001
1000
0010
0100
0010
0000
,  // measure 20
1000
1000
0001
0001
,  // measure 21
0110
0000
1000
0000
0000
0010
0100
0000
,  // measure 22
0001
0000
1000
0000
0000
0100
0010
0000
,  // measure 23
1000
0000
0001
0000
0000
1000
1000
0000
,  // measure 24
0010
0100
0010
0101
,  // measure 25
1000
0010
1000
0001
0000
0100
0100
0000
,  // measure 26
0010
1000
0001
1000
0000
0010
0010
0000
,  // measure 27
0100
0001
0100
0010
0000
1000
1000
0000
,  // measure 28
0100
0010
0001
1100
,  // measure 29
0001
0100
0001
1000
0100
0010
0001
0000
,  // measure 30
1000
0100
1000
0100
0010
0001
0010
0000
,  // measure 31
0100
1000
0100
0010
0000
0001
0010
0000
,  // measure 32
1100
1100
0011
0011
,  // measure 33
0200
0000
0000
0000
,  // measure 34
0000
0000
0300
0000
,  // measure 35
2002
0000
0000
0000
,  // measure 36
3003
0000
0000
0000
,  // measure 37
1000
0010
1000
0001
,  // measure 38
0110
0000
0000
1100
0000
0010
0001
0100
,  // measure 39
1000
0100
1000
0001
,  // measure 40
1000
0000
0010
0100
0001
1000
0100
0000
,  // measure 41
0100
0010
0010
1000
,  // measure 42
0110
0000
0000
0101
0000
0010
1000
0010
,  // measure 43
0100
0001
1000
0010
,  // measure 44
2002
0000
0000
0000
0000
0000
0000
3003
,  // measure 45
1000
0001
1000
0100
,  // measure 46
1100
0000
0000
0101
0000
0010
1000
0100
,  // measure 47
0010
0001
0001
1000
,  // measure 48
1010
0000
0000
0101
0000
1000
0010
1000
,  // measure 49
0001
0100
0100
0010
,  // measure 50
0110
0000
0000
1010
0000
0100
0001
0100
,  // measure 51
0010
0010
1000
1000
,  // measure 52
0100
0000
0010
0100
0010
0000
1000
0010
1000
0000
0001
0100
0001
0000
1000
0000
,  // measure 53
0100
0100
1000
1000
,  // measure 54
0020
0000
0000
0230
0000
0000
0301
0000
,  // measure 55
0001
1000
0001
0100
,  // measure 56
1001
1001
1001
1001
,  // measure 57
0010
0000
0100
0000
0001
0000
0100
0000
0010
0000
0000
1000
0000
0000
1000
0000
,  // measure 58
0000
0000
0100
0000
0010
0000
1000
0000
0001
0000
0000
0100
0000
0000
0100
0000
,  // measure 59
0000
0000
0001
0000
1000
0000
0100
0000
0010
0000
0000
0001
0000
0000
0001
0000
,  // measure 60
1000
0010
0100
0010
1000
0001
1000
0000
,  // measure 61
0010
0000
0000
0000
0110
0000
0000
0000
0100
0000
0000
0010
0000
0000
0110
0000
,  // measure 62
0000
0000
1000
0000
0001
0000
0100
0000
0010
0000
0000
1000
0000
0000
1100
0000
,  // measure 63
0000
0000
0001
0000
0100
0000
0001
0000
1000
0000
0000
1000
0000
0000
0110
0000
,  // measure 64
0001
0000
0000
0010
0000
0000
0100
0000
0000
0000
1000
0000
1001
0000
0000
0000
;

//---------------dance-single - ----------------
#NOTES:
     dance-single:
     :
     Easy:
     3:
     0.267,0.281,0.000,0.029,0.000:
0000
0000
0000
0000
,
0000
0000
0000
0000
,
0000
0000
0000
0000
,
0000
0000
0000
0000
,
1000
0000
0000
0000
,
0001
0000
0000
0000
,
0100
0000
0000
0000
,
0010
0000
0000
0000
,
1000
0001
0100
0100
,
0010
1000
1000
0000
,
0001
0100
0010
0010
,
1000
0001
1000
1000
,
0010
0100
0001
0001
,
0001
0010
0000
0000
,
1000
1000
0010
0000
,
0100
0100
0001
0000
,
1000
0010
1000
0010
,
0100
0001
0100
0001
,
1000
0100
1000
0100
,
0010
0001
0010
0001
,
0001
0001
1000
1000
,
0001
0001
1000
1000
,
0100
0100
0010
0010
,
0100
0100
0100
0100
,
0010
0010
1000
1000
,
0010
0010
0001
0001
,
0010
0010
0100
0100
,
0001
1000
0001
1000
,
0100
0100
0001
0001
,
0100
0100
1000
1000
,
0100
0100
0010
0010
,
1000
0001
1000
0001
,
0200
0000
0000
0000
,
0000
0000
0000
0000
,
0000
0000
0000
0000
,
0000
0300
0000
0000
,
1000
0001
1000
1000
,
0001
0001
1000
1000
,
0010
0010
0100
0100
,
0001
1000
0001
1000
,
1000
0001
0001
1000
,
1000
0010
0100
0010
,
1000
1000
0001
0001
,
1000
0001
1000
0000
,
0010
1000
0001
0100
,
0100
0100
0000
0000
,
0001
1000
0010
0100
,
0001
0001
0001
0000
,
1000
0010
0100
1000
,
0001
0001
0001
0000
,
0010
0100
1000
0001
,
0100
0100
0100
0000
,
0020
0000
0000
0000
,
0000
0030
0000
0000
0000
0000
0000
0000
,
2000
0000
0000
0000
0000
0000
0000
3000
,
0000
0000
0000
0000
,
0001
1000
0001
0001
,
1000
0001
1000
1000
,
0001
1000
0001
0001
,
1000
0001
1000
1000
,
0010
0100
0010
0010
,
0100
0010
0100
0100
,
0010
0100
0010
0001
,
0001
0001
0001
0001
;

//---------------dance-single - Copied from----------------
#NOTES:
     dance-single:
     Copied from:
     Medium:
     5:
     0.341,0.406,0.098,0.078,0.005:
0000
0000
0000
0000
,
0000
0000
0000
0000
,
0000
0000
0000
0000
,
0000
0000
0000
0000
,
0020
0000
0000
0030
,
0200
0000
0000
0000
0000
0300
0000
0000
,
0002
0000
0000
0000
0000
0003
0000
0000
,
2000
0000
0000
0000
0000
3000
0000
0000
,
0001
0001
1000
1000
,
0001
0001
1000
1000
,
0010
0010
0100
0100
,
0010
0010
0100
0100
,
1001
1001
0010
0010
,
0010
0100
0100
0001
,
1001
1001
0010
0010
,
0100
0100
1000
1000
,
0010
0000
1000
0000
0001
1000
0001
0000
,
0100
0000
0010
0000
1000
0010
1000
0000
,
0001
0000
0001
0000
0100
0001
0100
0000
,
0010
1000
0001
0001
,
0100
0010
0100
0000
0001
0000
0001
0000
,
1000
0010
1000
0000
0001
0000
0100
0000
,
0010
1000
0010
0000
0100
0000
0001
0000
,
1000
1010
0100
0101
,
0010
0010
1000
1000
,
0010
0010
0100
0100
,
0001
0001
1000
1000
,
0101
0101
0110
0110
,
1000
0010
1000
0000
0001
0000
0001
0000
,
1000
0100
1000
0000
0010
0000
0010
0000
,
0100
0010
0001
0000
1000
0010
1000
0000
,
0100
0010
1000
0001
,
0200
0000
0000
0000
,
0000
0000
0000
0000
0000
0300
0000
0000
,
0002
0000
0000
0000
,
0000
0003
0000
0000
,
1000
1000
0010
0010
,
0100
0100
0010
0010
,
1000
1000
0001
0001
,
0100
0100
0010
0010
,
1000
1000
0010
0100
,
0001
1000
0001
0100
,
0010
1000
0001
1000
,
0010
0010
0100
0100
,
0001
0100
0001
0000
0100
0000
0010
0000
,
1000
0010
1000
0000
0001
0000
0001
0000
,
0100
0001
0100
0000
0010
0000
1000
0000
,
0001
0100
0001
0000
0100
0000
0010
0000
,
1000
0010
1000
0000
0001
0000
0001
0000
,
0100
0010
0100
0000
0001
0000
1000
0000
,
0010
0100
0010
0000
1000
0010
1000
0000
,
0001
1000
0001
0100
,
0002
0000
0000
0000
,
0000
0003
0000
0000
,
2000
0000
0000
3000
,
0001
0001
0100
0100
,
0010
1000
0010
1000
,
0010
0100
0001
0100
,
0001
1000
0001
0100
,
0001
1000
0010
1000
,
0001
0100
0001
0000
0100
0000
0010
0000
,
1000
0001
1000
0000
0010
0000
0100
0000
,
0001
1000
0001
0000
0100
0000
0010
0000
,
1000
0000
0000
0001
0000
0000
1000
0000
0000
0000
0001
0000
1000
0000
0000
0000
;

//---------------dance-single - Copied from----------------
#NOTES:
     dance-single:
     Copied from:
     Beginner:
     2:
     0.158,0.250,0.098,0.059,0.000:
0000
0000
0000
0000
,
0000
0000
0000
0000
,
0000
0000
0000
0000
,
0000
0000
0000
0000
,
2000
0000
0000
3000
,
0200
0000
0000
0300
,
0020
0000
0000
0000
0000
0000
0000
0030
,
0002
0000
0000
0003
,
1000
0000
0000
0000
,
0000
0001
0000
0000
,
0000
1000
0000
0000
,
0000
0100
0000
0000
,
0001
0000
1000
0000
,
0001
0000
1000
0000
,
0010
0000
0100
0000
,
0010
0000
0100
0000
,
1000
0000
1000
0000
,
1000
0000
1000
0000
,
0001
0000
0001
0000
,
0100
0100
0010
0010
,
0000
0000
0000
0000
,
1001
0000
0000
0000
,
1010
0000
0000
0000
,
0001
0001
1000
1000
,
0001
0000
0001
0000
,
0001
0000
0001
0000
,
0001
0000
0001
0000
,
0100
0100
0010
0010
,
1001
0000
0000
0000
,
1001
0000
0000
0000
,
1001
0000
0000
0000
,
0100
0100
0010
0010
,
2000
0000
0000
0000
,
0000
0000
0000
0000
,
0000
0000
0000
0000
,
0000
0000
0000
3000
,
0001
0000
1000
0000
,
0101
0000
0000
0000
,
1000
0000
0001
0000
,
1010
0000
0000
0000
,
1000
0000
0001
0000
,
0101
0000
0000
0000
,
1000
0000
0001
0000
,
1010
0000
0000
0000
,
1000
0000
1000
0000
,
0100
0000
0100
0000
,
0010
0000
0010
0000
,
0001
0000
0001
0000
,
1000
0000
1000
0000
,
0100
0000
0100
0000
,
0010
0000
0010
0000
,
0001
0000
0001
0000
,
2000
0000
0000
0000
,
0000
0000
0000
0000
,
0000
0000
0000
3000
,
0001
0000
0001
0000
,
0100
0000
0100
0000
,
1000
0000
1000
0000
,
0001
0000
0001
0000
,
0010
0000
0010
0000
,
0100
0000
1000
0000
,
0001
0000
0010
0000
,
0100
0000
1000
0000
,
0001
0000
0000
1001
;
