#TITLE:September;
#SUBTITLE:;
#ARTIST:DJ Speedo;
#TITLETRANSLIT:;
#SUBTITLETRANSLIT:;
#ARTISTTRANSLIT:;
#GENRE:;
#CREDIT:SupremeX;
#BANNER:September.png;
#BACKGROUND:September-bg.png;
#LYRICSPATH:;
#CDTITLE:CDTitle.png;
#MUSIC:September.ogg;
#OFFSET:0.045488;
#SAMPLESTART:43.820000;
#SAMPLELENGTH:12.000000;
#SELECTABLE:YES;
#BPMS:0.000000=175.000000
;
#STOPS:
;
#BGCHANGES:32.000=sphere4.avi=1.000=0=0=1=====,
40.000=heart6.avi=1.000=0=0=1=====,
48.000=sphere4.avi=1.000=0=0=1=====,
54.500=heart6.avi=1.000=0=0=1=====,
63.000=highway2.avi=1.000=0=0=1=====,
75.000=film6.avi=1.000=0=0=1=====,
96.000=highway2.avi=1.000=0=0=1=====,
111.000=film6.avi=1.000=0=0=1=====,
128.000=lady3.avi=1.000=0=0=1=====,
136.000=lady4.avi=1.000=0=0=1=====,
144.000=lady5.avi=1.000=0=0=1=====,
160.000=lady3.avi=1.000=0=0=1=====,
168.000=lady4.avi=1.000=0=0=1=====,
176.000=lady5.avi=1.000=0=0=1=====,
191.000=September-bg.png=1.000=0=0=1=====,
192.000=sphere4.avi=1.000=0=0=1=====,
200.000=heart6.avi=1.000=0=0=1=====,
208.000=highway2.avi=1.000=0=0=1=====,
216.000=film6.avi=1.000=0=0=1=====,
224.000=lady3.avi=1.000=0=0=1=====,
232.000=lady4.avi=1.000=0=0=1=====,
240.000=lady5.avi=1.000=0=0=1=====,
248.000=lady5.avi=1.000=0=0=1=====,
256.000=lady3.avi=1.000=0=0=1=====,
264.000=lady4.avi=1.000=0=0=1=====,
272.000=lady5.avi=1.000=0=0=1=====,
280.000=lady5.avi=1.000=0=0=1=====,
286.000=September-bg.png=1.000=0=0=1=====,
99999=-nosongbg-=1.000=0=0=0 // don't automatically add -songbackground-
;
#KEYSOUNDS:;
#ATTACKS:;

//---------------dance-single - ----------------
#NOTES:
     dance-single:
     :
     Hard:
     8:
     0.451799,0.537567,0.295569,0.128080,0.000000,321.000000,291.000000,30.000000,13.000000,0.000000,0.000000,0.451799,0.537567,0.295569,0.128080,0.000000,321.000000,291.000000,30.000000,13.000000,0.000000,0.000000:
0000
0000
0000
0000
,
0000
0000
0000
0000
,
0000
0000
0000
0000
,
0000
0000
0000
0000
,
0100
0001
1000
0010
,
0000
0001
0100
0010
1000
0000
0001
0000
,
0100
0010
1000
0001
,
0000
0100
0001
1000
0010
0000
1000
0000
,
0001
0010
0100
1000
,
0101
0000
1001
0000
1000
0100
0010
0001
,
1000
0100
0010
0001
,
1010
0000
1001
0000
0001
0010
0100
1000
,
0001
0100
0010
1000
,
1001
0000
0101
0000
1000
0100
0010
0001
,
1000
0010
0100
0001
,
1001
0000
1010
0000
1000
0100
0010
0001
,
0100
0010
0000
0000
0000
0000
0000
0000
,
1000
0100
0010
0001
0000
0000
0000
0100
,
0010
0000
0000
0000
0000
0000
0000
0001
,
0010
0100
1000
0001
0000
0000
0100
0000
,
0010
0000
0000
0000
0000
0000
0000
1000
,
0100
0010
0001
0100
0000
0000
0010
1000
,
0001
0100
0010
1000
,
0001
0100
0010
1000
,
0001
0000
0000
0000
0000
0000
1000
0200
,
0000
0010
0000
1300
0000
0000
0100
1000
,
0000
0001
0000
0000
0000
0000
0010
0100
,
0001
1000
0000
0010
0000
0000
0100
0001
,
0010
0000
0000
0000
0000
0000
0000
0001
,
0100
1000
0010
0100
0000
0000
0001
0100
,
0000
0020
0000
1000
0000
1000
0000
1030
,
0000
1010
0000
0110
0000
0101
0000
0000
,
1000
0000
0010
0200
0000
0000
0300
0000
,
0001
0000
1000
0010
0100
0000
0100
0000
,
0001
0000
0100
0020
0000
0000
0030
0000
,
1000
0100
0010
0001
0100
0000
0010
0000
,
1000
0000
0010
0200
0000
0000
0300
0000
,
0001
0010
0100
1000
0010
0000
0100
0002
,
0010
1000
0010
1003
,
0001
1000
0000
1010
0000
1001
0000
0000
,
0001
0000
0100
0020
0000
0000
0030
0000
,
1000
0010
0100
0001
1000
0000
0010
0000
,
0100
0000
0001
0200
0000
0000
0300
0000
,
0001
0100
0010
1000
0001
0000
0100
0000
,
0010
0000
1000
0002
0000
0000
0000
0003
,
0100
0010
1000
0001
0100
0000
0010
2000
,
0100
0001
0100
3001
,
0100
1000
0010
1010
,
1000
0010
0100
0001
,
0000
1000
0100
0010
0001
0000
1001
0000
,
1000
0100
0010
0001
,
0000
1000
0010
0100
0001
0000
1000
0000
,
0001
0100
0010
1000
,
0000
0010
0001
0100
0000
0000
0000
0000
,
0002
0000
0100
0000
0010
0000
0100
0003
,
0010
0000
0001
0000
1000
0010
0100
0000
,
0001
0101
0010
0110
,
0001
0000
1001
0000
1000
0100
0010
0000
,
0110
0100
0101
0001
,
1010
0000
0110
0000
0001
0010
0100
0000
,
1100
1000
1010
0001
,
0100
0000
0110
0000
1000
0100
0010
0000
,
0101
0100
1100
1000
,
1010
0000
0101
0000
1000
0100
0010
0000
,
0001
0000
0001
0000
,
1000
0000
0010
0000
0100
0001
0010
0000
,
1000
0010
0100
0001
,
1000
0000
0010
0000
0100
0010
0001
0000
,
1000
0010
0100
0001
,
1000
0000
0010
0000
0100
0001
1000
0000
,
0001
0100
0010
1000
,
0001
0100
2002
0000
,
0000
0000
0000
3003
;

//---------------dance-single - ----------------
#NOTES:
     dance-single:
     :
     Medium:
     6:
     0.301199,0.394216,0.108375,0.177342,0.000000,214.000000,203.000000,11.000000,18.000000,0.000000,0.000000,0.301199,0.394216,0.108375,0.177342,0.000000,214.000000,203.000000,11.000000,18.000000,0.000000,0.000000:
0000
0000
0000
0000
,
0000
0000
0000
0000
,
0000
0000
0000
0000
,
0000
0000
0000
0000
,
0010
0100
0001
1000
,
0000
0010
1000
0001
,
0100
0010
1000
0001
,
0000
0100
0010
1000
,
0001
0010
0100
1000
,
0001
0100
0010
1000
,
0001
0010
0100
1000
,
0010
0001
0100
0010
,
1000
0001
0100
0010
,
1000
0001
0100
0010
,
1000
0001
0100
0010
,
1000
0001
0100
0010
,
1000
0000
0000
0000
,
2000
0000
0000
3010
0000
0000
0000
0100
,
0010
0000
0000
0000
,
0002
0000
0000
0103
0000
0000
0010
0000
,
0100
0000
0000
0000
0000
0000
0000
1000
,
0000
0010
0001
0100
0000
0000
0010
2000
,
0000
0000
0000
3000
,
0000
0000
0000
0000
,
0101
0000
0000
0000
0000
0000
0001
0100
,
0000
0010
0000
1000
0000
0000
0000
0010
,
0000
0100
0000
0000
0000
0000
0000
0000
,
0020
0000
0000
1030
0000
0000
0000
0000
,
1001
0000
0000
0000
,
0200
0000
0000
0301
0000
0000
0100
0001
,
0000
2000
0000
0000
0000
0000
0000
3000
,
0000
0010
0000
0100
0000
0001
0000
0000
,
1000
0000
0000
0200
0000
0000
0300
0000
,
0010
1000
0001
0101
,
0001
0000
0100
0020
0000
0000
0030
0000
,
1000
0010
0100
1010
,
1000
0000
0100
0002
0000
0000
0003
0000
,
0100
0000
0010
0000
1000
0000
0000
0020
,
0000
0000
0000
0030
,
0000
1000
0000
0010
0000
0100
0000
0000
,
0010
0000
0000
2000
0000
0000
3000
0000
,
0001
0100
0010
1010
,
1000
0000
0001
0200
0000
0000
0300
0000
,
0010
0100
0001
1000
,
0010
0000
0100
0002
0000
0000
0000
0003
,
1000
0000
0100
0000
0010
0000
0001
2000
,
0000
0000
0000
3000
,
0001
0100
0010
0110
,
1000
0000
1000
0000
,
0000
0010
0100
0000
,
0001
0000
0001
0000
,
0000
0010
0100
0001
1000
0000
0010
0000
,
0000
1000
0000
0001
,
0000
0100
0010
2000
0000
0000
0000
3000
,
0002
0000
0000
0000
0000
0000
0000
0003
,
0000
1000
0010
0100
,
0001
0010
0100
0001
,
1000
1001
1000
0010
,
0100
0001
0100
0010
,
1000
1010
0001
0100
,
0010
1000
0001
1000
,
0100
0110
1000
0010
,
0100
0001
1000
0100
,
0001
0101
0010
1000
,
0001
0000
0100
0000
,
0010
0000
0000
0000
1000
0000
0000
0001
,
0100
0000
0001
0000
,
1000
0000
0001
0100
,
0010
0000
1000
0001
,
1000
0000
0010
0000
0100
0000
0000
0001
,
1000
0010
0100
0001
,
1000
0010
2002
0000
,
0000
0000
0000
3003
;

//---------------dance-single - ----------------
#NOTES:
     dance-single:
     :
     Easy:
     3:
     0.209714,0.321986,0.009852,0.039409,0.000000,149.000000,148.000000,1.000000,4.000000,0.000000,0.000000,0.209714,0.321986,0.009852,0.039409,0.000000,149.000000,148.000000,1.000000,4.000000,0.000000,0.000000:
0000
0000
0000
0000
,
0000
0000
0000
0000
,
0000
0000
0000
0000
,
0000
0000
0000
0000
,
0001
0100
0010
1000
,
0000
0001
0010
0100
,
1000
0010
1001
0100
,
0000
0001
0000
0000
,
1000
0010
0100
0001
,
1000
0010
0100
0000
,
0010
1000
0001
0100
,
0010
1000
0001
0000
,
0100
0010
1000
0001
,
0100
0001
1000
0000
,
0010
1000
0001
0100
,
0010
1000
0001
0000
,
0100
0000
0000
0000
,
0001
0000
0000
1000
0000
0000
0000
0000
,
0010
0000
0000
0000
,
0100
0000
0000
0001
0000
0000
0000
0000
,
1000
0000
0000
0000
,
0010
0000
0000
1000
0000
0000
0000
0001
,
0000
0000
1000
0100
,
0010
0001
0100
0001
,
1000
0000
0000
0000
,
0010
0000
0100
0000
,
0001
0000
0000
0000
,
1000
0000
0000
0010
0000
0000
0000
0000
,
0100
0000
0000
0000
,
0001
0000
0000
1000
0000
0000
0000
0010
,
0000
0000
0000
0000
,
0000
0100
0000
0100
0000
0100
0000
0000
,
0001
0000
0000
1000
0000
0000
0000
0000
,
0010
0100
0001
0000
,
1000
0000
0000
0001
0000
0000
0000
0000
,
0100
0010
1000
0000
,
0001
0000
0000
1000
0000
0000
0000
0000
,
0010
0000
1000
0000
0100
0000
0000
0002
,
0000
0000
0000
0000
0000
0000
0000
0003
,
0000
0000
0000
0000
,
1000
0000
0000
0010
0000
0000
0000
0000
,
0100
0001
0010
1000
,
0100
0000
0000
0001
0000
0000
0000
0000
,
1000
0010
0100
0000
,
0001
0000
0000
1000
0000
0000
0000
0000
,
0001
0000
0100
0000
0010
0000
0000
2000
,
0000
0000
0000
0000
0000
0000
0000
3000
,
0000
0000
0000
0000
,
0001
0000
0100
0000
,
0000
0010
1000
0000
,
0001
0000
0100
0000
,
0000
0010
1000
0000
,
0100
0000
0010
0000
,
0000
0000
1000
0000
0000
0000
0000
0002
,
0000
0000
0000
0000
0000
0000
0000
0003
,
0000
0000
0000
0000
,
0100
0000
0010
0000
,
0000
0000
0000
0000
,
1000
0000
0001
0000
,
0100
0010
1000
0000
,
0001
0000
0100
0000
,
0000
0000
0000
0000
,
1000
0000
0001
0000
,
0100
0010
1000
0000
,
0001
0000
0100
0000
,
0010
1000
0100
0000
,
0001
0000
0010
0000
,
1000
0010
0100
0000
,
0001
0000
1000
0000
,
0010
0100
0001
0000
,
1000
0000
0010
0000
,
0100
0001
2000
0000
,
0000
0000
0000
0000
0000
3000
0000
0000
;

//---------------dance-single - Copied from----------------
#NOTES:
     dance-single:
     Copied from:
     Beginner:
     1:
     0.054891,0.107329,0.000000,0.009852,0.000000,39.000000,39.000000,0.000000,1.000000,0.000000,0.000000,0.054891,0.107329,0.000000,0.009852,0.000000,39.000000,39.000000,0.000000,1.000000,0.000000,0.000000:
0000
0000
0000
0000
,
0000
0000
0000
0000
,
0000
0000
0000
0000
,
0000
0000
0000
0000
,
0100
0000
0000
0000
,
0000
0000
0000
0000
,
0100
0000
0000
0000
,
0000
0000
0000
0000
,
0001
0000
0000
0000
,
0000
0000
0000
0000
,
0001
0000
0000
0000
,
0000
0000
0000
0000
,
0001
0000
0000
0000
,
0000
0000
0000
0000
,
0001
0000
0000
0000
,
0000
0000
0000
0000
,
1000
0000
0000
0000
,
0000
0000
0000
0000
,
1000
0000
0000
0000
,
0000
0000
0000
0000
,
1000
0000
0000
0000
,
0000
0000
0000
0000
,
1000
0000
0000
0000
,
0000
0000
0000
0000
,
0100
0000
0000
0000
,
0000
0000
0000
0000
,
0100
0000
0000
0000
,
0000
0000
0000
0000
,
0100
0000
0000
0000
,
0000
0000
0000
0000
,
0100
0000
0000
0000
,
0000
0000
0000
0000
,
0001
0000
0000
0000
,
0100
0000
0000
0000
,
0001
0000
0000
0000
,
0010
0000
0000
0000
,
0001
0000
0000
0000
,
0100
0000
0000
0000
,
0000
0000
0000
0000
,
0000
0000
0000
0000
,
1000
0000
0000
0000
,
0010
0000
0000
0000
,
1000
0000
0000
0000
,
0100
0000
0000
0000
,
1000
0000
0000
0000
,
0010
0000
0000
0000
,
0000
0000
0000
0000
,
0000
0000
0000
0000
,
0100
0000
0000
0000
,
0000
0000
0000
0000
,
0010
0000
0000
0000
,
0000
0000
0000
0000
,
1000
0000
0000
0000
,
0000
0000
0000
0000
,
0001
0000
0000
0000
,
0000
0000
0000
0000
,
0010
0000
0000
0000
,
0000
0000
0000
0000
,
0100
0000
0000
0000
,
0000
0000
0000
0000
,
0010
0000
0000
0000
,
0000
0000
0000
0000
,
0100
0000
0000
0000
,
0000
0000
0000
0000
,
0001
0000
0000
0000
,
0000
0000
0000
0000
,
1000
0000
0000
0000
,
0000
0000
0000
0000
,
0100
0000
0000
0000
,
0000
0000
0000
0000
,
0010
0000
0000
0000
,
0000
0000
0200
0000
,
0000
0000
0000
0000
0000
0300
0000
0000
;
