#TITLE:SWEET SENORITA;
#SUBTITLE:;
#ARTIST:PAPAYA;
#TITLETRANSLIT:SWEET SENORITA;
#SUBTITLETRANSLIT:;
#ARTISTTRANSLIT:;
#GENRE:;
#CREDIT:SupremeX;
#BANNER:Sweet Senorita.png;
#BACKGROUND:Sweet Senorita-bg.png;
#LYRICSPATH:;
#CDTITLE:CDTitle.png;
#MUSIC:Sweet Senorita.ogg;
#OFFSET:-0.562556;
#SAMPLESTART:14.271000;
#SAMPLELENGTH:12.000000;
#SELECTABLE:YES;
#BPMS:0.000000=140.000000
;
#STOPS:
;
#BGCHANGES:32.000=sun2.avi=1.000=0=0=1=====,
39.000=sun3.avi=1.000=0=0=1=====,
48.000=sun2.avi=1.000=0=0=1=====,
56.000=sun3.avi=1.000=0=0=1=====,
60.000=tropical1.avi=1.000=0=0=1=====,
68.000=text12.avi=1.000=0=0=1=====,
83.000=fish2.avi=1.000=0=0=1=====,
100.000=tropical2.avi=1.000=0=0=1=====,
116.000=surf1.avi=1.000=0=0=1=====,
124.000=sun1.avi=1.000=0=0=1=====,
132.000=text12.avi=1.000=0=0=1=====,
139.000=sun2.avi=1.000=0=0=1=====,
148.000=text12.avi=1.000=0=0=1=====,
156.000=sun3.avi=1.000=0=0=1=====,
164.000=text12.avi=1.000=0=0=1=====,
171.000=sun2.avi=1.000=0=0=1=====,
180.000=text12.avi=1.000=0=0=1=====,
188.000=sun3.avi=1.000=0=0=1=====,
196.000=tropical1.avi=1.000=0=0=1=====,
212.000=fish2.avi=1.000=0=0=1=====,
220.000=sun1.avi=1.000=0=0=1=====,
232.000=water1.avi=1.000=0=0=1=====,
246.000=Sweet Senorita-bg.png=1.000=0=0=1=====,
99999=-nosongbg-=1.000=0=0=0 // don't automatically add -songbackground-
;
#KEYSOUNDS:;
#ATTACKS:;

//---------------dance-single - ----------------
#NOTES:
     dance-single:
     :
     Hard:
     6:
     0.310480,0.400230,0.127310,0.290994,0.059108,239.000000,225.000000,14.000000,32.000000,0.000000,0.000000,0.310480,0.400230,0.127310,0.290994,0.059108,239.000000,225.000000,14.000000,32.000000,0.000000,0.000000:
0000
0000
0000
0000
,
0000
0000
0000
0000
,
0000
0000
0000
0000
,
0000
0000
0000
0000
,
0000
0000
0000
0000
,
0000
0000
0000
0000
,
0000
0000
0000
0000
,
0000
0000
0000
0000
,
1000
0000
0000
0000
0100
0000
0000
0000
0010
0000
0000
0000
0001
0000
0000
1000
,
0100
2000
0000
3000
0000
0000
0010
0100
,
0010
0000
1000
0000
0001
0000
0100
0010
,
2000
3001
0100
0001
,
1000
0000
0000
0000
0010
0000
0000
0000
1000
0000
0000
0000
0001
0000
0000
0100
,
0010
0200
0000
0300
0000
0000
0000
0000
,
0020
0000
0130
0001
0100
0010
1000
0100
,
1000
0010
0000
0101
,
0000
0100
0000
1010
,
0001
0000
0100
0000
0001
0010
0001
0000
,
0100
0110
0000
0010
,
1000
0000
0100
0010
0001
0100
1000
0010
,
1000
0000
0100
0000
0110
0000
0001
0100
,
0020
0000
0030
1000
0100
0000
0100
0010
,
0001
0000
0011
0000
0000
0000
1000
0100
,
1000
0000
0010
0100
0001
0000
1000
0000
,
1001
0000
0100
0010
,
0002
0000
0000
0000
0003
0000
0100
0010
,
1000
0000
0000
0100
0100
0000
0000
0010
,
0001
1000
1001
0101
,
1010
0000
0001
0100
,
0020
0000
0000
0030
0000
0000
1000
0010
,
0200
0000
0300
0001
0001
0000
0000
0000
,
1000
0100
0110
0011
,
2002
0000
0000
3003
,
0010
0000
0000
0000
0100
0000
0000
0000
0010
0000
0000
0000
1000
0000
0000
0001
,
0100
0002
0000
0003
0000
0000
1000
0100
,
1000
0000
0010
0000
0001
0100
0001
1000
,
2000
0000
0000
3000
0000
0010
0100
0000
,
0001
0000
0000
0000
0010
0000
0000
0000
0001
0000
0000
0000
0100
0000
0000
0010
,
1000
0020
0000
0000
0000
0030
0000
0000
,
0100
0000
0001
0010
0100
1000
0010
0100
,
0010
0000
1000
0001
1000
0000
0001
0000
,
0100
0000
0000
0000
0010
0000
0000
0000
1000
0000
0000
0000
0001
0000
0000
0100
,
0010
0200
0000
0300
0000
0000
0010
1000
,
0020
0000
0130
0000
0001
0010
0100
1000
,
0200
0000
0310
0000
0001
0100
0001
0000
,
1000
0000
0000
0000
0010
0000
0000
0000
1000
0000
0000
0000
0001
0000
0000
0100
,
0010
0200
0000
0000
0000
0300
0000
0000
,
0002
0000
1003
0010
0100
0010
1000
0010
,
0200
0001
0301
0010
,
2000
0100
3100
0020
,
0001
0031
0100
1000
,
0002
0100
0103
0010
,
2000
0010
3010
0100
,
0001
1000
0001
1000
0002
0000
0000
0000
0100
0000
0000
0000
0103
0000
0000
0000
,
2000
0000
0000
0000
0010
0000
0000
0000
3010
0000
0000
0000
0100
0000
0010
0100
,
0020
0000
0000
0000
1000
0000
0000
0000
1030
0000
0000
0000
0001
0000
0000
0010
,
0002
0100
0100
0103
,
0001
0010
0100
1000
,
0120
0000
0000
0000
,
2030
0000
0000
0000
,
3002
0000
0000
0000
0000
0000
0000
0013
0000
0000
0100
0000
0000
1000
0000
0000
,
0010
0000
0000
0100
0000
0000
0000
0000
2002
0000
0000
0000
0000
0000
0000
0000
,
0000
0000
0000
0000
0000
0000
0000
3003
;

//---------------dance-single - ----------------
#NOTES:
     dance-single:
     :
     Medium:
     4:
     0.196161,0.223701,0.009094,0.081842,0.000000,151.000000,150.000000,1.000000,9.000000,0.000000,0.000000,0.196161,0.223701,0.009094,0.081842,0.000000,151.000000,150.000000,1.000000,9.000000,0.000000,0.000000:
0000
0000
0000
0000
,
0000
0000
0000
0000
,
0000
0000
0000
0000
,
0000
0000
0000
0000
,
1000
1000
0001
1000
,
0010
0000
0000
0000
,
0001
0000
0100
0000
,
1000
0000
0000
0000
,
0001
0001
0001
0100
,
0010
0000
0000
1000
,
0010
1000
0001
0100
,
0001
0000
0000
0000
,
1000
1000
1000
0010
,
0100
0000
0000
0000
,
0001
0010
0100
0001
,
0100
0000
0000
1000
,
0000
0010
0000
0100
,
0001
0100
0001
0100
,
0001
0001
0000
1000
,
0010
1000
0010
1000
,
1000
0000
0000
0100
,
0010
0000
0100
0010
,
0100
0100
0000
0010
,
0100
0010
0100
0010
,
0010
0000
1000
0001
,
2000
0000
3000
0001
,
0100
0000
0000
0001
0001
0000
0000
0000
,
1000
0010
1000
0010
,
1000
0000
0010
0100
,
0002
0000
0003
0000
,
0010
0000
0000
1000
1000
0000
0000
0000
,
0100
0010
0100
0010
,
0200
0000
0000
0000
0000
0300
0000
0000
,
0001
0100
0001
0100
,
0100
0000
0000
1000
,
0010
1000
0010
1000
,
1000
0000
0000
0000
,
0100
0010
0100
0010
,
0010
0000
0000
0000
,
1000
0001
1000
0001
,
0001
0000
0000
0000
,
0100
0100
0010
0100
,
0002
0000
0000
0003
0000
0000
0000
0000
,
1000
0010
1000
0010
,
0010
0000
0000
0100
,
0001
0001
0001
1000
,
0020
0000
0000
0030
0000
0000
0000
0000
,
0001
0100
0001
1000
,
0001
0000
1000
0010
,
0200
0000
0000
0000
0000
0300
0000
0000
,
0010
0000
0001
1000
,
0020
0000
0000
0030
,
0100
0000
1000
0001
,
0100
0100
0000
0010
,
0010
0000
1000
1000
,
0002
0000
0000
0003
0100
0000
0010
0000
,
2000
0000
0000
3000
,
0001
0100
0001
0100
,
1000
0000
0000
0000
,
0010
0000
0000
0000
,
0100
0000
0000
0000
,
0010
0000
0110
0000
;

//---------------dance-single - ----------------
#NOTES:
     dance-single:
     :
     Easy:
     2:
     0.129908,0.195739,0.000000,0.000000,0.000000,100.000000,100.000000,0.000000,0.000000,0.000000,0.000000,0.129908,0.195739,0.000000,0.000000,0.000000,100.000000,100.000000,0.000000,0.000000,0.000000,0.000000:
0000
0000
0000
0000
,
0000
0000
0000
0000
,
0000
0000
0000
0000
,
0000
0000
0000
0000
,
0000
0000
0000
0000
,
0000
0000
0000
0000
,
0000
0000
0000
0000
,
0000
0000
0000
0000
,
0010
0000
0010
0000
,
0010
0000
0000
0000
,
0100
0000
0100
0000
,
0100
0000
0000
0000
,
0001
0000
0001
0000
,
0001
0000
0000
0000
,
1000
0000
1000
0000
,
1000
0000
0000
0001
,
0000
1000
0000
0000
,
0010
0100
0010
0000
,
0100
0000
0000
0000
,
0001
1000
0001
0000
,
1000
0000
0000
0010
,
0100
0000
0010
0000
,
0010
0000
0000
0100
,
0010
0000
0100
0000
,
0100
0000
0001
0000
,
1000
0000
0000
0000
,
0001
0000
0001
0000
,
1000
0000
0010
0000
,
1000
0000
0001
0000
,
0001
0000
0000
0000
,
0100
0000
0100
0000
,
0010
0000
1000
0000
,
0001
0000
0000
0000
,
1000
1000
1000
0010
,
0010
0000
0000
0000
,
0100
0000
0100
0000
,
0100
0000
0000
0000
,
0001
0001
0001
0100
,
0100
0000
0000
0000
,
0010
0000
1000
0000
,
0010
0000
0000
0000
,
1000
0000
1000
0000
,
0001
0000
0000
0000
,
0100
0000
0010
0100
,
0010
0000
0000
0000
,
1000
0000
1000
0000
,
0001
0000
0000
0000
,
0100
0010
0100
0100
,
0100
0000
0001
0000
,
0010
0000
0000
1000
,
0010
0000
0000
0100
,
0001
0000
0000
0000
,
1000
0000
0010
0000
,
0100
0100
0000
0001
,
0001
0000
1000
0001
,
1000
0000
0010
0000
,
0100
0000
0100
0000
,
0010
0000
0100
0000
,
0001
0000
0000
0000
,
1000
0000
0000
0000
,
0001
0000
0000
0000
,
1000
0000
0100
0000
;

//---------------dance-single - Copied from----------------
#NOTES:
     dance-single:
     Copied from:
     Beginner:
     1:
     0.057159,0.083803,0.000000,0.000000,0.004547,44.000000,44.000000,0.000000,0.000000,0.000000,0.000000,0.057159,0.083803,0.000000,0.000000,0.004547,44.000000,44.000000,0.000000,0.000000,0.000000,0.000000:
0000
0000
0000
0000
,
0000
0000
0000
0000
,
0000
0000
0000
0000
,
0000
0000
0000
0000
,
0000
0000
0000
0000
,
0000
0000
0000
0000
,
0000
0000
0000
0000
,
0000
0000
0000
0000
,
0001
0000
0000
0000
,
0000
0000
0000
0000
,
0001
0000
0000
0000
,
0000
0000
0000
0000
,
0100
0000
0000
0000
,
0000
0000
0000
0000
,
0100
0000
0000
0000
,
0000
0000
0000
0000
,
0000
0000
0000
0000
,
0010
0000
0000
0000
,
0010
0000
0000
0000
,
0000
0000
0000
0000
,
0000
0000
0000
0000
,
1000
0000
0000
0000
,
1000
0000
0000
0000
,
0000
0000
0000
0000
,
0000
0000
0000
0000
,
0001
0000
0000
0000
,
0100
0000
0000
0000
,
0001
0000
0000
0000
,
0100
0000
0000
0000
,
0000
0000
0000
0000
,
1000
0000
0000
0000
,
0010
0000
0000
0000
,
1000
0000
0000
0000
,
0001
0000
0000
0000
,
0001
0000
0000
0000
,
0100
0000
0000
0000
,
0100
0000
0000
0000
,
0010
0000
0000
0000
,
0010
0000
0000
0000
,
1000
0000
0000
0000
,
1000
0000
0000
0000
,
0001
0000
0000
0000
,
0001
0000
0000
0000
,
0100
0000
0000
0000
,
0100
0000
0000
0000
,
0010
0000
0000
0000
,
0010
0000
0000
0000
,
1000
0000
0000
0000
,
1000
0000
0000
0000
,
0001
0000
0000
0000
,
0100
0000
0000
0000
,
0001
0000
0000
0000
,
0100
0000
0000
0000
,
0010
0000
0000
0000
,
1000
0000
0000
0000
,
0010
0000
0000
0000
,
1000
0000
0000
0000
,
0001
0000
0000
0000
,
0100
0000
0000
0000
,
0001
0000
0000
0000
,
0100
0000
0000
0000
,
0000
0000
0000
0000
0000
0000
0000
0010
0000
0000
0000
0000
0000
0000
0000
0000
;
