#TITLE:STAY;
#SUBTITLE:~mod bouncy mix~;
#ARTIST:TOMOSUKE feat. emi;
#TITLETRANSLIT:;
#SUBTITLETRANSLIT:;
#ARTISTTRANSLIT:;
#GENRE:;
#CREDIT:SupremeX;
#BANNER:STAY.png;
#BACKGROUND:STAY-bg.png;
#LYRICSPATH:;
#CDTITLE:CDTitle.png;
#MUSIC:STAY ~mod bouncy mix~.ogg;
#OFFSET:-0.037399;
#SAMPLESTART:45.889999;
#SAMPLELENGTH:12.000000;
#SELECTABLE:YES;
#BPMS:0.000000=124.999992
;
#STOPS:
;
#BGCHANGES:16.000=rain3.avi=1.000=0=0=1=====,
24.000=rain2.avi=1.000=0=0=1=====,
32.000=wind1.avi=1.000=0=0=1=====,
42.000=12 Night.avi=1.000=0=0=1=====,
48.000=wind1.avi=1.000=0=0=1=====,
57.500=rain2.avi=1.000=0=0=1=====,
65.000=moon2.avi=1.000=0=0=1=====,
80.000=bubble1r.avi=1.000=0=0=1=====,
88.000=wind1.avi=1.000=0=0=1=====,
94.000=STAY-bg.png=1.000=0=0=1=====,
96.000=rain1.avi=1.000=0=0=1=====,
106.500=rain2.avi=1.000=0=0=1=====,
120.000=rain3.avi=1.000=0=0=1=====,
128.000=frog2.avi=1.000=0=0=1=====,
140.000=moon2.avi=1.000=0=0=1=====,
160.000=night1.avi=1.000=0=0=1=====,
168.000=wind1.avi=1.000=0=0=1=====,
176.000=STAY-bg.png=1.000=0=0=1=====,
99999=-nosongbg-=1.000=0=0=0 // don't automatically add -songbackground-
;
#KEYSOUNDS:;
#ATTACKS:;

//---------------dance-single - ----------------
#NOTES:
     dance-single:
     :
     Hard:
     6:
     0.307252,0.386919,0.139509,0.139509,0.023251,185.000000,173.000000,12.000000,12.000000,0.000000,0.000000,0.307252,0.386919,0.139509,0.139509,0.023251,185.000000,173.000000,12.000000,12.000000,0.000000,0.000000:
0000
0000
0000
0000
,
0000
0000
0000
0000
,
0000
0000
0000
0000
,
0000
0000
0000
0000
,
0020
0000
0000
0030
1000
0001
0001
0001
,
0000
0000
0100
0000
,
0002
0000
0000
0003
1000
0010
0100
0001
,
0000
0100
0010
0000
1000
0000
0001
0000
,
0110
0000
0000
1000
0010
0100
0010
1000
,
0000
0000
0001
0000
0100
0010
1000
0001
,
0000
0000
0100
0000
0010
1000
0100
1000
,
0000
0001
0010
0001
0100
0010
1000
0010
,
0100
0000
0001
0000
1000
0100
0010
0001
,
0000
0100
0100
0000
0010
1000
0001
1000
,
0000
0010
0010
0000
0100
0001
1000
0100
,
0000
0010
0000
0002
0000
0103
0010
2000
,
0000
3001
0010
0000
0100
1000
0100
0010
,
0000
0001
0001
0000
0100
0010
1000
0100
,
0010
0001
0100
0010
1000
0000
0010
0100
,
0000
1010
0000
0002
0000
0003
0000
0000
,
0200
0000
0300
0000
0010
0000
1000
0001
,
0000
0010
0001
0100
0010
1000
0100
0000
,
0010
0000
0000
0001
0100
0000
0000
0010
,
0010
0000
0000
1000
0000
0000
0001
0000
1000
0000
0000
0000
0000
0000
0010
0000
,
0100
0000
0010
0000
0000
1000
0001
0100
,
0000
0010
0000
1100
0000
0110
0000
0000
,
0001
0000
0101
0000
0000
1000
0100
1000
,
0000
0001
0100
0010
0000
1000
0000
0010
,
0000
0000
0000
0000
0100
0000
0000
0001
0000
0000
0101
0000
0000
0000
0000
0000
,
1000
0000
0000
0000
0010
0000
0000
0100
0000
0000
0110
0000
0000
0000
0000
0000
,
0001
0000
0000
0000
1000
0000
0000
0010
0000
0000
1010
0000
0000
0000
0000
0000
,
0001
0000
0100
0000
0001
0000
1000
0010
,
0100
0000
0110
0000
0000
1000
0001
1000
,
0000
0110
0000
0011
0000
0101
0000
2000
,
0010
0000
3010
0000
0000
0100
0001
0000
,
1000
0000
0010
0100
0000
0001
0000
2000
,
0000
0000
0000
3010
0000
0000
0000
0000
,
0100
0000
0000
0001
0000
1000
0000
0020
,
0000
0000
0000
0000
0000
0000
0000
0230
,
0000
0000
0010
0301
,
2000
0000
0000
3010
0000
0000
0100
0000
,
0002
0000
1000
0000
,
1003
0000
0000
0010
0000
0000
0100
0000
,
0001
0000
1000
0000
,
0010
0000
0000
0100
0000
0000
0000
0000
;

//---------------dance-single - ----------------
#NOTES:
     dance-single:
     :
     Medium:
     4:
     0.186012,0.257946,0.000000,0.023251,0.000000,112.000000,112.000000,0.000000,2.000000,0.000000,0.000000,0.186012,0.257946,0.000000,0.023251,0.000000,112.000000,112.000000,0.000000,2.000000,0.000000,0.000000:
0000
0000
0000
0000
,
0000
0000
0000
0000
,
0000
0000
0000
0000
,
0000
0000
0000
0000
,
1000
0000
0001
0000
,
0100
0000
0010
0000
,
1000
0000
0001
0000
,
0100
0000
0010
0000
,
1000
0000
0000
0000
0001
0000
0100
0010
,
0000
0000
1000
0000
0001
0000
0100
0010
,
0000
0000
1000
0000
0001
0000
0100
0010
,
0000
1000
0100
0010
,
0001
0000
1000
0000
0010
0000
0100
0010
,
0000
0000
1000
0000
0001
0000
0100
0010
,
0000
0000
1000
0000
0001
0000
0100
0010
,
0000
1000
0000
0001
0000
1000
0000
0010
,
0000
0100
0000
0000
0010
0000
0100
0010
,
0000
1000
1000
0000
0001
0000
0100
0000
,
0010
0000
1000
0000
0001
0000
0000
0100
,
0000
0001
0000
0100
0000
0000
0000
0000
,
0010
0000
0000
0000
1000
0000
0000
0010
,
0000
0100
0000
0010
0000
0000
0000
0000
,
0100
0000
0001
0000
,
0100
0000
0010
0000
,
1000
0000
0000
0000
0000
0001
0100
0000
,
0000
0010
0000
0100
0000
0010
0000
0100
,
0000
0001
0000
0000
,
1000
0000
0000
0010
0000
0000
0000
0100
,
0000
0000
0001
0000
0000
0000
0000
1000
,
0000
0000
0000
0010
0000
0000
0000
0100
,
0000
0000
0000
0001
0000
0000
0000
0000
,
0100
0010
0100
0010
,
1000
0000
0000
0000
0000
0001
0100
0001
,
0000
1000
0000
0010
0000
0100
0000
0001
,
0000
0000
0000
1000
,
0010
0000
0000
0100
0000
0000
0000
0001
,
0000
0000
0000
1000
0000
0000
0000
0000
,
0010
0000
0000
0100
0000
0000
0000
0002
,
0000
0000
0000
0000
0000
0003
0000
2000
,
0000
0000
0000
3000
,
0010
0000
0000
0100
0000
0000
0010
0000
,
0100
0000
0001
0000
,
1000
0000
0000
0001
0000
0000
0100
0000
,
0010
0000
1000
0000
,
0001
0000
0000
1000
0000
0000
0000
0000
;

//---------------dance-single - ----------------
#NOTES:
     dance-single:
     :
     Easy:
     2:
     0.129544,0.179036,0.000000,0.011626,0.000000,78.000000,78.000000,0.000000,1.000000,0.000000,0.000000,0.129544,0.179036,0.000000,0.011626,0.000000,78.000000,78.000000,0.000000,1.000000,0.000000,0.000000:
0000
0000
0000
0000
,
0000
0000
0000
0000
,
0000
0000
0000
0000
,
0000
0000
0000
0000
,
0010
0000
0100
0000
,
0010
0000
0100
0000
,
0001
0000
1000
0000
,
0001
0000
1000
0000
,
0010
0000
0000
0000
0100
0000
0000
0100
,
0000
0000
0000
0000
0010
0000
0000
0010
,
0000
0000
0000
0000
1000
0000
0000
0001
,
0000
1000
0000
0001
0000
1000
0000
0010
,
0000
0000
0000
0000
0100
0000
0000
0100
,
0000
0000
0000
0000
0001
0000
0000
0001
,
0000
0000
0000
0000
1000
0000
0000
0001
,
0000
0100
0000
0001
0000
0000
0000
0100
,
0000
0000
0000
0000
0010
0000
0000
0010
,
0000
0000
0000
0000
1000
0000
0000
1000
,
0000
0000
0010
0000
0100
0000
0000
0001
,
0000
1000
0000
0001
0000
0000
0000
0000
,
0100
0000
0000
0000
0010
0000
0000
0100
,
0000
0000
0000
0010
0000
0000
0000
0000
,
1000
0000
0001
0000
,
1000
0000
0001
0000
,
0100
0000
0000
0000
0000
0000
0000
0010
,
0000
0000
0000
1000
0000
0000
0000
0001
,
0000
0000
0000
0100
,
0000
0000
0010
0000
0000
0000
0000
0100
,
0000
0000
0000
0010
0000
0000
0000
0100
,
0000
0000
0000
0010
0000
0000
0000
1000
,
0000
0000
0000
0001
0000
0000
0000
1000
,
0000
0000
0000
0001
0000
0000
0000
0000
,
0100
0000
0000
0000
0000
0000
0000
0010
,
0000
0000
0000
1000
0000
0000
0000
1000
,
0000
0000
0000
0001
,
0100
0000
0000
0010
0000
0000
0000
1000
,
0000
0000
0000
0001
0000
0000
0000
0000
,
0100
0000
0100
0000
,
0200
0000
0000
0000
0000
0300
0000
0010
,
0000
0000
0000
0000
,
1000
0000
0000
0000
,
1000
0000
0000
0000
,
0001
0000
0000
0000
,
0001
0000
0100
0000
,
0010
0000
0000
0000
;

//---------------dance-single - Copied from----------------
#NOTES:
     dance-single:
     Copied from:
     Beginner:
     1:
     0.049825,0.074986,0.000000,0.000000,0.000000,30.000000,30.000000,0.000000,0.000000,0.000000,0.000000,0.049825,0.074986,0.000000,0.000000,0.000000,30.000000,30.000000,0.000000,0.000000,0.000000,0.000000:
0000
0000
0000
0000
,
0000
0000
0000
0000
,
0000
0000
0000
0000
,
0000
0000
0000
0000
,
1000
0000
0000
0000
,
0000
0000
0000
0000
,
0001
0000
0000
0000
,
0000
0000
0000
0000
,
1000
0000
0000
0000
,
0000
0000
0000
0000
,
0000
0010
0000
0000
,
0000
0000
0000
0000
,
0000
0100
0000
0000
,
0000
0001
0000
0000
,
0000
0100
0000
0000
,
0000
0000
0000
0000
,
0000
0010
0000
0000
,
0000
1000
0000
0000
,
0000
0000
0000
0000
0000
0000
0000
0010
,
0000
0000
0000
0000
,
0100
0000
0000
0000
,
0000
0000
0000
0000
,
0001
0000
0000
0000
,
0000
0000
0000
0000
,
1000
0000
0000
0000
,
0000
0000
0000
0000
0000
0000
0000
1000
,
0000
0000
0000
0000
,
0001
0000
0000
0000
,
0000
0000
0000
0000
,
0100
0000
0000
0000
,
0010
0000
0000
0000
,
0100
0000
0000
0000
,
0001
0000
0000
0000
,
0001
0000
0000
0000
0000
0000
0000
0001
,
0000
0000
0000
0000
,
0100
0000
0000
0000
,
0100
0000
0000
0000
,
0010
0000
0000
0000
,
0010
0000
0000
0000
,
0100
0000
0000
0000
,
0001
0000
0000
0000
,
1000
0000
0000
0000
,
0001
0000
0000
0000
,
1000
0000
0000
0000
;
