#TITLE:SPEED JAPAN;
#SUBTITLE:;
#ARTIST:WILDSIDE;
#TITLETRANSLIT:;
#SUBTITLETRANSLIT:;
#ARTISTTRANSLIT:;
#CREDIT:SupremeX;
#BANNER:SPEED JAPAN.png;
#BACKGROUND:SPEED JAPAN-bg.png;
#LYRICSPATH:;
#CDTITLE:;
#MUSIC:SPEED JAPAN.ogg;
#OFFSET:-0.020;
#SAMPLESTART:52.520;
#SAMPLELENGTH:12.000;
#SELECTABLE:YES;
#BPMS:0.000=169.000;
#STOPS:;
#BGCHANGES:32.000=grid1.avi=1.000=0=0=1,
40.000=grid3.avi=1.000=0=0=1,
48.000=grid1.avi=1.000=0=0=1,
56.000=grid3.avi=1.000=0=0=1,
64.000=light5.avi=1.000=0=0=1,
80.000=star3.avi=1.000=0=0=1,
96.000=SPEED JAPAN-bg.png=1.000=0=0=1,
99.000=warp.avi=1.000=0=0=1,
115.500=tripbox.avi=1.000=0=0=1,
132.000=warp.avi=1.000=0=0=1,
148.000=tripbox.avi=1.000=0=0=1,
163.500=light5.avi=1.000=0=0=1,
180.000=warp.avi=1.000=0=0=1,
195.500=star3.avi=1.000=0=0=1,
212.000=square2.avi=1.000=0=0=1,
216.000=pop.avi=1.000=0=0=1,
248.000=grid3.avi=1.000=0=0=1,
256.000=grid1.avi=1.000=0=0=1,
264.000=grid3.avi=1.000=0=0=1,
272.000=grid1.avi=1.000=0=0=1,
275.500=SPEED JAPAN-bg.png=1.000=0=0=1,
99999=-nosongbg-=1.000=0=0=0 // don't automatically add -songbackground-
;

//---------------dance-single - ----------------
#NOTES:
     dance-single:
     :
     Hard:
     9:
     0.589,0.583,0.349,0.030,0.080: // measure 1
0000
0000
0000
0000
,  // measure 2
0000
0000
0000
0000
,  // measure 3
0000
0000
0000
0000
,  // measure 4
0000
0000
0000
0000
,  // measure 5
0000
0000
0000
0000
,  // measure 6
1000
0100
1000
0010
0100
0010
1000
0000
,  // measure 7
0001
0010
0001
0010
0100
0000
1000
0100
,  // measure 8
0010
0001
0010
0100
1000
0100
0010
0000
,  // measure 9
0100
0000
0000
0000
1000
0010
0000
0010
1000
0000
0000
0000
0100
0000
0010
0000
,  // measure 10
0100
0001
0010
0001
1000
0100
0010
0001
,  // measure 11
0100
0000
0000
0000
0010
1000
0000
1000
0010
0000
0000
0000
0100
0000
0001
0000
,  // measure 12
0100
0010
1000
0100
0010
0100
0001
0010
,  // measure 13
0001
0000
0000
0000
1000
0010
0000
0010
1000
0000
0000
0000
0001
0000
0100
0000
,  // measure 14
0010
0100
0001
1000
0100
0010
0001
1000
,  // measure 15
0010
0000
0000
0000
0100
0001
0000
0001
0100
0000
0000
0000
0010
0000
1000
0000
,  // measure 16
0001
0100
0001
1000
0100
1000
0010
0000
,  // measure 17
0101
0000
1001
0000
1010
0000
0100
0001
,  // measure 18
0100
0010
1000
0001
0100
0010
1000
0000
,  // measure 19
0101
0000
1001
0000
1010
0000
0100
1000
,  // measure 20
0100
0001
0010
0001
0100
0010
0100
0000
,  // measure 21
1001
0000
1010
0000
0101
0000
0010
1000
,  // measure 22
0010
0100
0001
0100
0010
0100
1000
0000
,  // measure 23
0001
0010
0001
0100
0010
0000
1000
0100
,  // measure 24
0010
0001
0100
0000
0011
0000
0110
0000
,  // measure 25
2200
0000
0000
0000
0000
3300
0001
0001
,  // measure 26
0000
0100
0010
0100
0000
0001
0010
0001
,  // measure 27
0100
0010
1000
0010
0000
0100
0001
0100
,  // measure 28
0010
0000
1010
0000
1001
0000
0100
0001
,  // measure 29
1000
0000
1010
0000
0110
0000
0100
0001
,  // measure 30
0000
0010
1000
0010
0000
0100
0010
1000
,  // measure 31
0001
0010
0100
1000
0000
0010
0100
0010
,  // measure 32
1000
0000
1100
0000
0110
0000
0001
0010
,  // measure 33
0001
0000
1001
0000
1010
0000
0100
0001
,  // measure 34
0100
0000
0110
0000
1010
0000
0100
0010
,  // measure 35
0000
0100
0001
0000
1001
0000
0000
1000
,  // measure 36
0000
0001
0100
0010
0100
0000
0000
0001
,  // measure 37
0000
1000
0010
0100
0010
0000
0000
0000
,  // measure 38
0101
0000
1010
0000
0110
0000
0100
0001
,  // measure 39
0000
1000
0000
0010
0000
1000
0000
0001
,  // measure 40
0000
0100
0010
0100
1000
0000
0010
0100
,  // measure 41
0000
0001
0000
1000
0000
0001
0000
0100
,  // measure 42
0000
0010
1000
0010
0100
0000
0001
0010
,  // measure 43
0000
1000
0100
1000
0100
0000
0000
0001
,  // measure 44
0000
0010
0001
0010
0100
0000
1000
0001
,  // measure 45
0000
0100
0000
0110
0000
1000
0010
0000
,  // measure 46
0101
0000
0101
0000
0010
0000
1000
0100
,  // measure 47
0000
0001
0000
0110
0000
0001
0000
1000
,  // measure 48
0000
0010
0100
0010
1000
0000
0100
0010
,  // measure 49
0000
0001
0000
0110
0000
1000
0000
0001
,  // measure 50
0000
0100
0010
0100
0001
0000
1000
0001
,  // measure 51
0000
0100
0010
1000
0100
0000
0000
0001
,  // measure 52
0000
0100
0010
0100
0001
0000
0100
1000
,  // measure 53
0000
0100
0000
0010
0000
0001
0100
0000
,  // measure 54
0020
0000
0000
0000
0000
0030
0000
0000
,  // measure 55
1000
0000
0000
0000
0010
0100
0000
0100
0010
0000
1000
0000
0001
0000
1000
0000
,  // measure 56
0100
0010
0001
1000
0010
0100
0001
0000
,  // measure 57
1000
0000
0000
0000
0001
0010
0000
0010
0001
0000
0000
0000
0100
0000
0010
0000
,  // measure 58
0100
0001
1000
0010
0001
0100
0010
0000
,  // measure 59
1000
0000
0000
0000
0010
1000
0000
1000
0010
0000
0000
0000
0100
0000
1000
0000
,  // measure 60
0010
0100
0001
0010
1000
0001
1000
0000
,  // measure 61
0010
0000
0000
0000
0100
0001
0000
0001
0100
0000
0000
0000
0010
0000
0100
0000
,  // measure 62
1000
0001
0010
0001
0100
0010
0100
0000
,  // measure 63
1010
0000
0101
0000
0010
0000
1000
0100
,  // measure 64
0010
0100
0001
0010
0100
1000
0100
0000
,  // measure 65
0010
0000
0101
0000
1000
0000
0001
0100
,  // measure 66
0010
0100
1000
0010
0100
0001
0100
0000
,  // measure 67
0010
0000
0110
0000
0100
0000
0010
1000
,  // measure 68
0010
0100
0001
1000
0100
1000
0001
0000
,  // measure 69
0010
0100
1000
0001
1000
0000
0010
0100
;

//---------------dance-single - ----------------
#NOTES:
     dance-single:
     :
     Medium:
     7:
     0.484,0.549,0.299,0.030,0.000:
0000
0000
0000
0000
,
0000
0000
0000
0000
,
0000
0000
0000
0000
,
0000
0000
0000
0000
,
0000
0000
0000
0000
,
0001
1000
0100
1000
,
0001
0100
0001
0100
0010
0000
1000
0010
,
1000
0010
0100
0001
0100
0001
1000
0000
,
0100
0010
0010
0001
,
0001
1000
1000
0100
,
0110
0001
0001
0100
,
0100
0010
0010
1000
,
1001
0100
0100
0010
,
0010
0001
0001
1000
,
1100
0010
0010
0001
,
0001
0100
0100
0010
,
1100
0000
1100
0000
0110
0000
0001
0001
,
0010
0100
1000
0010
,
0110
0000
0110
0000
1010
0000
0001
0001
,
0100
0010
1000
0100
,
0011
0000
0011
0000
0101
0000
1000
1000
,
0010
0100
0010
1000
,
0001
0010
0001
0100
0010
0000
1000
1000
,
0001
0100
0001
0010
,
2200
0000
0000
0000
0000
3300
0001
0001
,
0000
0100
0100
0100
0000
0010
1000
0010
,
0100
0010
1000
0010
0000
0100
0010
0001
,
1000
0000
0010
0000
1000
0000
0001
0001
,
0100
0000
0110
0000
0110
0000
1000
1000
,
0000
0010
0010
0010
0000
0100
0100
0100
,
0001
0010
0100
1000
0000
0010
0010
0010
,
1000
0000
1100
0000
1100
0000
0010
0010
,
0001
0000
1000
0000
0001
0000
0100
0100
,
0010
0000
1000
0000
0001
0000
0010
0100
,
0000
0100
1000
0000
1001
0000
0000
0010
,
0000
1000
0100
1000
0100
0000
0000
0010
,
0000
0001
0100
0001
0100
0000
0000
0000
,
0010
0000
1000
0000
0010
0000
0100
0010
,
0000
1000
0000
0100
0000
0010
0000
0001
,
0000
0100
0010
0100
0010
0000
1000
0100
,
0000
0010
0000
0001
0000
0100
0000
0001
,
0000
0000
1000
0000
0100
0000
0010
0010
,
0000
0001
0100
0001
0100
0000
0000
0010
,
0000
0000
1000
0000
0001
0000
1000
0100
,
0000
0010
0000
0011
0000
1000
1000
0000
,
0010
0000
0100
0000
0001
0000
0010
0010
,
0000
1000
0000
0010
0000
1000
0000
0001
,
0010
0100
1000
0010
0100
0000
1000
1000
,
0000
0001
0000
0010
0000
0001
0000
0100
,
1000
0001
0100
0001
1000
0000
0001
0010
,
0000
0100
1000
0100
1000
0000
0000
0001
,
0000
0100
0100
0100
0010
0000
1000
0001
,
0000
0100
0000
0010
0000
1000
0001
0000
,
0200
0000
0000
0000
0000
0300
0000
0000
,
0010
1000
0010
0100
,
0001
0000
1000
0000
0010
0100
0010
0000
,
1000
0001
0001
0100
,
0110
0110
0110
1000
,
0001
0100
0010
0100
,
0001
0000
1000
0000
0001
0100
0010
0000
,
1000
0001
0001
0100
,
0100
0001
0010
0001
1000
0010
1000
0000
,
0101
0000
0101
0000
0101
0000
1000
0100
,
0000
0011
0000
0011
0000
0011
0000
1000
,
0001
0100
0001
1000
0001
0000
0100
0010
,
1000
0001
0100
0010
,
1000
0000
0001
0000
1000
0000
0001
0001
,
0000
0100
0000
0110
0000
0110
0000
0001
,
1000
0010
0100
0001
1000
0000
0010
0100
;

//---------------dance-single - ----------------
#NOTES:
     dance-single:
     :
     Easy:
     4:
     0.340,0.343,0.070,0.020,0.000:
0000
0000
0000
0000
,
0000
0000
0000
0000
,
0000
0000
0000
0000
,
0000
0000
0000
0000
,
0001
0010
0100
1000
,
0001
0100
0001
0100
,
0010
1000
0010
0100
,
0001
1000
0010
0100
,
0001
0000
1001
0000
,
1010
0001
0010
0100
,
1000
0000
1001
0000
,
0110
1000
0010
1000
,
0001
0000
0110
0000
,
1001
0100
0010
0001
,
0100
0000
0110
0000
,
0001
0010
0100
1000
,
0001
0000
0001
0000
0100
0000
0010
0100
,
0000
0000
0000
0000
,
1000
0000
0100
0000
1000
0000
0001
0100
,
0000
0000
0000
0000
,
1000
0000
0010
0000
1000
0000
0010
0100
,
0000
0000
0000
0000
,
0001
0000
0100
0000
0001
0000
1000
0010
,
0000
0100
0001
1000
,
0020
0000
0000
0000
0000
0030
0000
0100
,
0000
0000
0000
0010
0000
0000
0000
0000
,
1000
0100
0000
0010
,
0001
0000
0100
0000
0010
0000
1000
1000
,
0001
0000
0100
0000
0010
0000
1000
0100
,
0000
0010
0001
0100
,
0010
0000
1000
0001
0000
0000
1000
0000
,
0010
0010
0010
0001
,
0010
0000
0100
0000
1000
0000
0010
1000
,
0001
0000
0100
0000
0010
0000
0000
0100
,
0000
0000
0010
0000
1000
0000
0000
0001
,
0000
0000
0100
0000
0010
0000
0000
1000
,
0000
0010
0100
0000
,
0001
0000
0001
0000
1000
0000
0010
0100
,
0000
0001
0000
0001
0000
0001
0000
0000
,
1000
0000
0100
0000
0010
0000
0001
0010
,
0000
0100
0000
0100
0000
0100
0000
1000
,
0000
0000
0010
0000
0100
0000
0000
0001
,
0000
0000
1000
0000
0001
0000
0000
0100
,
0000
0000
0010
0000
0100
0000
0010
1000
,
0000
0001
0000
0100
0000
0010
0100
0000
,
0001
0000
0001
0000
1000
0000
0010
0100
,
0000
0001
0000
0001
0000
0001
0000
1000
,
0000
0000
0100
0000
0010
0000
0001
0100
,
0000
1000
0000
1000
0000
1000
0000
0000
,
0010
0100
0010
0000
,
1000
0000
0001
0000
1000
0000
0000
0010
,
0000
0000
0100
0000
0010
0000
0000
1000
,
0000
0010
0000
0100
0000
0001
2000
0000
,
0000
0000
0000
0000
0000
3000
0000
0000
,
0001
1000
0010
0100
,
0010
1000
0001
0100
,
0010
1000
0001
0100
,
0010
1000
1000
1000
,
0010
0100
0001
1000
,
0010
0100
0001
1000
,
0010
0100
0010
1000
,
0100
0001
0001
0001
,
1000
0000
0010
0000
1000
0000
0001
0001
,
0000
0100
0000
0010
0000
1000
0000
0000
,
0001
0000
0100
0000
0010
0000
1000
0100
,
0000
0010
0001
0010
,
0100
0000
1000
0000
0010
0000
0100
0001
,
0000
0010
0000
0010
0000
0010
0000
0010
,
0100
0000
1000
0000
0010
0000
0100
0001
;

//---------------dance-single - Copied from----------------
#NOTES:
     dance-single:
     Copied from:
     Beginner:
     2:
     0.094,0.138,0.020,0.000,0.000:
0000
0000
0000
0000
,
0000
0000
0000
0000
,
0000
0000
0000
0000
,
0000
0000
0000
0000
,
0010
0000
0000
0000
,
0000
0000
0000
0000
,
1000
0000
0000
0000
,
0000
0000
0000
0000
,
0001
0000
0000
0000
,
0001
0000
0000
0000
,
0100
0000
0000
0000
,
0100
0000
0000
0000
,
0010
0000
0000
0000
,
0010
0000
0000
0000
,
1000
0000
0000
0000
,
1000
0000
0000
0000
,
0001
0000
0000
0000
,
0010
0000
0000
0000
,
0100
0000
0000
0000
,
1000
0000
0000
0000
,
0001
0000
0000
0000
,
0010
0000
0000
0000
,
0100
0000
0000
0000
,
1000
0000
0000
0000
,
0110
0000
0000
0000
,
0001
0000
0000
0000
,
1000
0000
0000
0000
,
0001
0000
0000
0000
,
1000
0000
0000
0000
,
0010
0000
0000
0000
,
0100
0000
0000
0000
,
0010
0000
0000
0000
,
0100
0000
0000
0000
,
0001
0000
0000
0000
,
0001
0000
0000
0000
,
0001
0000
0000
0000
,
0001
0000
0000
0000
,
1000
0000
0000
0000
,
1000
0000
0000
0000
,
0100
0000
0000
0000
,
0100
0000
0000
0000
,
0010
0000
0000
0000
,
0010
0000
0000
0000
,
0001
0000
0000
0000
,
0001
0000
0000
0000
,
1000
0000
0000
0000
,
1000
0000
0000
0000
,
0100
0000
0000
0000
,
0100
0000
0000
0000
,
0010
0000
0000
0000
,
0010
0000
0000
0000
,
0001
0000
0000
0000
,
0001
0000
0000
0000
,
0110
0000
0000
0000
,
1000
0000
0000
0000
,
1000
0000
0000
0000
,
0100
0000
0000
0000
,
0100
0000
0000
0000
,
0010
0000
0000
0000
,
0010
0000
0000
0000
,
0001
0000
0000
0000
,
0001
0000
0000
0000
,
1000
0000
0000
0000
,
0100
0000
0000
0000
,
0010
0000
0000
0000
,
0001
0000
0000
0000
,
1000
0000
0000
0000
,
0100
0000
0000
0000
,
0010
0000
0000
0000
,
0001
0000
0000
0000
;
