#TITLE:SOMEDAY-00.prologue-;
#SUBTITLE:;
#ARTIST:TЁЯRA;
#TITLETRANSLIT:;
#SUBTITLETRANSLIT:;
#ARTISTTRANSLIT:TERRA;
#GENRE:;
#CREDIT:SupremeX;
#BANNER:SOMEDAY -00.prologue-.png;
#BACKGROUND:SOMEDAY -00.prologue--bg.png;
#LYRICSPATH:;
#CDTITLE:CDTitle.png;
#MUSIC:SOMEDAY -00.prologue-.ogg;
#OFFSET:-2.235164;
#SAMPLESTART:61.419998;
#SAMPLELENGTH:12.000000;
#SELECTABLE:YES;
#BPMS:0.000000=85.000000
,20.000000=170.000000
,84.000000=85.000000
,116.000000=170.000000
,272.000000=160.000000
;
#STOPS:
;
#BGCHANGES:-0.000=SOMEDAY -00.prologue.avi=1.000=1=1=0,
99999=-nosongbg-=1.000=0=0=0 // don't automatically add -songbackground-
;
#KEYSOUNDS:;
#ATTACKS:;

//---------------dance-single - ----------------
#NOTES:
     dance-single:
     :
     Beginner:
     2:
     0.113832,0.141274,0.000000,0.016262,0.000000,98.000000,98.000000,0.000000,2.000000,0.000000,0.000000,0.113832,0.141274,0.000000,0.016262,0.000000,98.000000,98.000000,0.000000,2.000000,0.000000,0.000000:
0000
0000
0000
0000
,
0000
0000
0000
0000
,
0000
0000
0000
0000
,
0000
0000
0000
0000
,
0000
0000
0000
0000
,
0100
0000
0100
0000
,
0010
0000
0010
0000
,
1000
0000
1000
0000
,
0001
0000
0001
0000
,
0010
0000
1000
0000
,
0010
0000
1000
0000
,
0010
0000
1000
0000
,
0001
0000
0100
0000
,
0010
0000
1000
0000
,
0010
0000
0100
0000
,
0001
0000
1000
0000
,
0100
0000
0010
0000
,
0001
0000
1000
0000
,
0001
0000
0100
0000
,
1000
0000
0010
0000
,
0200
0000
0000
0000
0000
0000
0000
0300
,
0000
0000
1000
0000
,
0001
0000
1000
0000
,
0001
0000
1000
0000
,
0001
0000
0100
0000
,
0001
0000
1000
0000
,
0001
0000
1000
0000
,
0100
0000
0010
0000
,
0100
0000
0010
0000
,
1000
0000
1000
0000
,
1000
0000
1000
0000
,
1000
0000
1000
0000
,
1000
0000
1000
0000
,
0001
0000
0001
0000
,
0001
0000
0001
0000
,
0001
0000
0001
0000
,
0001
0000
0000
0000
,
0100
0000
0100
0000
,
0100
0000
0100
0000
,
0100
0000
0100
0000
,
0100
0000
0100
0000
,
0010
0000
0010
0000
,
0010
0000
0010
0000
,
0010
0000
0010
0000
,
0010
0000
0000
0000
,
0200
0000
0000
0000
,
0000
0000
0000
0000
,
0000
0000
0000
0000
,
0300
0000
0000
0000
,
0010
0000
0000
0000
,
0001
0000
0000
0000
,
1000
0000
0000
0000
,
0100
0000
0000
0000
,
0010
0000
0000
0000
,
0001
0000
0000
0000
,
1000
0000
0000
0000
,
0100
0000
0000
0000
,
0001
0000
0000
0000
,
0010
0000
0000
0000
,
0100
0000
0000
0000
,
1000
0000
0000
0000
,
0001
0000
0000
0000
,
0010
0000
0000
0000
,
0100
0000
0000
0000
,
1000
0000
0000
0000
,
0010
0000
0000
0000
,
0100
0000
0000
0000
,
0010
0000
0000
0000
,
0100
0000
0000
0000
,
0000
0000
1000
0000
;

//---------------dance-single - ----------------
#NOTES:
     dance-single:
     :
     Hard:
     8:
     0.423967,0.536841,0.406544,0.081309,0.097570,365.000000,315.000000,50.000000,10.000000,0.000000,0.000000,0.423967,0.536841,0.406544,0.081309,0.097570,365.000000,315.000000,50.000000,10.000000,0.000000,0.000000:
0000
0000
0000
0000
,
0000
0000
0000
0000
,
0000
0000
0000
0000
,
0000
0000
0000
0000
,
0000
0000
0000
0000
,
0001
0000
1000
0010
0000
0100
0000
0010
,
1000
0100
0010
0001
0100
0000
0000
0010
,
1000
0000
0001
0100
0000
0010
0000
1000
,
0200
0000
0000
0310
0001
0000
0000
0000
,
1000
0000
0010
0100
0000
0001
0000
1000
,
0010
1000
0100
0010
0001
0000
0000
0010
,
1000
0000
0001
0100
0000
0010
0000
1000
,
0002
0000
1003
0000
,
0010
0000
0000
0100
0000
0000
0010
0000
1000
0000
0000
0100
0000
0000
1000
0000
,
0001
0000
0000
0010
0000
0000
0001
0000
1000
0000
0000
0000
0000
0000
0010
0100
,
0010
0000
0000
0000
0000
0000
0100
0010
0100
0000
0000
0001
0000
0000
1000
0000
,
0001
0000
0000
0100
0000
0000
0001
0000
1001
0000
0000
0000
0000
0000
0000
0000
,
0100
0000
0000
0010
0000
0000
1000
0000
1010
0000
0000
0000
0000
0000
0001
0100
,
0001
1000
0010
1000
,
0001
0000
0000
0100
0000
0000
0001
0000
0101
0000
0000
0000
0000
0000
0000
1000
,
0010
2000
0000
0000
0000
0000
0000
0000
0000
0000
0000
0000
0000
0000
3000
0000
,
0001
0000
0100
0000
0001
0000
1000
0000
1010
0000
0000
1001
0000
0000
0000
0000
,
0100
0000
0010
0000
1000
0000
0001
0000
0100
0000
0000
0010
0100
0000
0000
0000
,
0001
0000
0100
0000
0010
0000
1000
0000
0001
0000
0000
0101
0000
0000
0100
0000
,
0010
0000
0000
0110
0000
0000
1000
0000
1001
0000
0000
0000
0000
0000
0000
0000
,
0100
0000
0010
0000
1000
0000
0001
0000
0100
0000
0000
1010
0000
0000
1000
0000
,
1001
0000
0000
0001
0000
0000
1000
0000
0010
0000
0000
1000
0001
0000
0000
0000
,
0010
0000
0100
0000
0001
0000
0100
0000
0010
0000
0000
1000
0000
0000
1010
0000
,
1000
0001
0100
0010
0110
0001
1000
0010
,
0100
0001
1000
0001
0100
0010
1000
0010
,
0110
0000
0000
0101
0000
0010
1000
0001
,
0100
0101
1010
0110
,
1001
0000
0000
0010
0110
0000
0000
0000
,
0001
1000
0010
1000
0001
0100
0010
0100
,
0101
0000
0000
1010
0000
0001
0010
0100
,
1000
0101
1010
0110
,
1001
0000
0000
0000
,
1100
0110
0011
1001
,
0120
0000
0000
0130
0000
0001
0010
1000
,
1010
0101
1001
0110
,
2000
0000
3000
0001
0100
0000
0000
0000
,
0010
0100
1000
0100
0010
0001
0100
0001
,
0201
0000
0000
0310
0000
1000
0010
1000
,
0001
0101
1010
0110
,
1001
0000
0000
0001
0000
0000
1000
0000
0000
0000
0010
0000
0100
0000
0000
0000
,
0001
1000
0001
0100
,
0002
0000
0003
1000
0000
0000
0010
0000
,
2000
0000
3000
0100
0000
0000
0010
0000
,
1001
0100
0110
1001
,
0200
0000
0000
0301
0000
0000
0110
0000
,
2000
0000
3000
0010
0000
0000
1000
0000
,
0001
0000
0100
0001
0000
0000
1000
0000
,
1010
0000
0001
0100
0010
1000
0001
0100
,
0010
0000
0100
0101
0000
0000
1000
0000
,
0010
0000
1000
1010
0000
0000
0100
0000
,
0001
0000
0100
0010
0000
1000
0001
0000
,
0100
0010
1000
0001
0100
0010
1000
0000
,
0010
0000
0100
0001
0000
0000
1000
0000
,
0010
0000
1000
0001
0000
0000
0100
0000
,
0010
0000
0000
1000
0001
0000
1000
0000
,
1001
0000
0010
0000
,
0100
0000
0001
1000
0000
0000
0001
0000
,
1000
0000
0010
0100
0000
0000
0001
0000
,
1000
0000
0010
1000
0000
0000
0110
0000
,
0101
0000
0010
0100
,
0001
0000
1000
0010
0100
0001
0100
0010
,
0000
1000
0010
1000
0001
0100
0010
0100
,
0001
0010
0001
1000
0010
1000
0001
0010
,
0001
0000
0100
0000
0000
0010
0000
0000
1000
0000
0000
0010
0000
0000
0100
0000
,
0000
0001
0000
0000
1000
0000
0000
0000
1001
0000
0000
0000
0000
0000
0000
0000
;

//---------------dance-single - ----------------
#NOTES:
     dance-single:
     :
     Medium:
     5:
     0.296196,0.395211,0.195141,0.113832,0.065047,255.000000,231.000000,24.000000,14.000000,0.000000,0.000000,0.296196,0.395211,0.195141,0.113832,0.065047,255.000000,231.000000,24.000000,14.000000,0.000000,0.000000:
0000
0000
0000
0000
,
0000
0000
0000
0000
,
0000
0000
0000
0000
,
0000
0000
0000
0000
,
0000
0000
0000
0000
,
1000
0000
0010
0100
0000
0100
0000
0000
,
0001
1000
1001
0000
,
0100
0010
1000
0001
,
0200
0000
0300
0010
1000
0000
0000
0000
,
0001
0000
0010
0100
0000
0100
0000
0001
,
1000
0010
1001
0000
,
0100
0000
0010
0001
0000
0100
0000
0001
,
1000
0000
0000
0001
1000
0000
0000
0000
,
0010
0000
0000
0010
0000
0000
0000
0000
0100
0000
0000
0100
0000
0000
0000
0000
,
0001
0000
0000
0001
0000
0000
0000
0000
1000
0000
0000
0000
0000
0000
0000
0010
,
0100
0010
0000
0000
0000
0000
0000
0000
1000
0000
0000
0000
0100
0000
0000
0000
,
1000
0000
0000
0001
0000
0000
0100
0000
0010
0000
0000
0000
0000
0000
0000
0000
,
2000
0000
3000
0010
0100
0000
0000
0000
,
0001
0010
0100
1000
,
0020
0000
0030
1000
1001
0000
0000
0000
,
0220
0000
0000
0000
0000
0000
0000
0330
,
1000
0000
0000
0000
0001
0000
0000
0000
0100
0000
0000
0110
0000
0000
0000
0000
,
0001
1000
0001
0011
,
1000
0000
0000
0000
0010
0000
0000
0000
1000
0000
0000
0001
0000
0000
0000
0000
,
0100
0000
0000
0001
0000
0000
0000
0000
1100
0000
0000
0000
0001
0000
0000
0000
,
0010
0000
0000
0000
0100
0000
0000
0000
1010
0000
0000
1000
0000
0000
0010
0000
,
0100
0000
0000
0000
0001
0000
0000
0000
1000
0000
0000
0001
1000
0000
0000
0000
,
0010
0100
0010
1000
0001
0000
1000
0000
,
0010
0000
0100
0000
0001
0010
0001
1000
,
0100
0010
0001
1000
,
0100
0000
0000
0011
0000
0000
1000
0000
,
0010
0100
0001
0100
,
0010
0000
0000
1000
1100
0000
0000
0000
,
0001
0100
0001
1000
,
0010
0000
0000
1010
0000
0000
0100
0000
,
0001
0100
0010
1000
,
2200
0000
0000
0000
0000
3300
0000
0000
,
0001
0010
0100
1000
,
1010
0000
0000
0101
0000
0000
0010
0000
,
1000
0010
0100
0010
,
1000
0000
0000
0010
0100
0000
0000
0000
,
0001
0010
0001
1000
,
1010
0000
0000
0101
0000
0000
1000
0000
,
0010
1000
0001
0100
,
2002
0000
0000
3003
,
0010
0100
0010
1000
,
0100
0000
1000
0001
0000
0000
0010
0000
,
1000
0000
0010
0100
0000
0000
0001
0000
,
2002
0000
0000
0000
0000
3003
0000
0000
,
0100
0000
0100
0010
0000
0000
1000
0000
,
0001
0000
0001
0100
0000
0000
0010
0000
,
1000
0000
1000
0010
0000
0000
0100
0000
,
0101
0000
0000
0000
,
1000
0000
1000
0100
0000
0000
0010
0000
,
0001
0000
0001
0010
0000
0000
0100
0000
,
1000
0000
1000
0100
0000
0000
0010
0000
,
1001
0100
0110
0001
,
0101
0000
0000
1000
0000
0000
0010
0000
,
1000
0000
0001
0100
0000
0000
0001
0000
,
1000
0000
0000
0100
0010
0000
0001
0000
,
0200
0000
0000
0000
0000
0300
0000
0000
,
0001
0000
1000
0010
0000
0000
0100
0000
,
0001
0000
0001
1000
0000
0000
0100
0000
,
0010
0000
0010
1000
0000
0000
0100
0000
,
0022
0000
0000
0000
0000
0000
0000
0033
,
1000
0000
0010
0100
,
0010
1000
0001
1000
,
0000
0010
0000
0000
0000
0000
0000
0000
0000
0000
0000
0100
0000
0000
0000
0000
0000
0000
0000
0010
0000
0000
0000
0000
0000
0000
0000
1000
0000
0000
0000
0000
,
0000
0001
0000
0100
0000
0001
0000
1000
,
0000
0000
0001
0000
0000
0000
0000
1001
0000
0000
0000
0000
0000
0000
0000
0000
;

//---------------dance-single - ----------------
#NOTES:
     dance-single:
     :
     Easy:
     3:
     0.242765,0.282548,0.040654,0.040654,0.016262,209.000000,204.000000,5.000000,5.000000,0.000000,0.000000,0.242765,0.282548,0.040654,0.040654,0.016262,209.000000,204.000000,5.000000,5.000000,0.000000,0.000000:
0000
0000
0000
0000
,
0000
0000
0000
0000
,
0000
0000
0000
0000
,
0000
0000
0000
0000
,
0000
0000
0000
0000
,
1000
0010
1000
0001
,
0100
0010
0100
0000
,
0001
1000
0010
0100
,
0001
1000
0001
0000
,
0100
0010
0100
0001
,
0010
0001
1000
0000
,
0100
1000
0010
0100
,
0001
0000
1000
0000
,
0001
0100
0001
1000
,
0100
1000
0010
0000
,
0100
0000
0001
0100
,
0010
0000
1001
0000
,
0100
0001
1000
0000
,
0010
0100
0001
1000
,
0010
0000
0100
0000
,
0020
0000
0000
0030
,
1000
0100
0010
0001
,
1000
0100
0010
0001
,
0100
0001
1000
0100
,
1000
0001
0010
0001
,
0100
0010
0100
0001
,
1000
0001
0100
0010
,
0100
0001
1000
0001
,
0010
0000
0100
0000
2000
0000
0000
3000
,
0001
0000
0100
0000
,
0010
0000
1000
0000
,
0010
0000
0100
0000
,
0001
0000
1000
0000
,
0110
0000
0001
0000
,
0100
0000
0010
0000
,
1000
0000
0001
0000
,
0100
0000
0010
0000
,
1000
0010
0100
0001
,
1000
0000
0000
0010
0000
0000
0100
0000
,
0001
0100
0010
1000
,
0010
0000
0100
0000
,
0001
0010
0001
1000
,
0100
0000
0000
0010
0000
0000
0001
0000
,
1000
0100
1000
0001
,
0010
0001
1000
0100
,
1000
0001
0010
0100
,
1001
0000
0100
0010
,
0110
0000
1000
0000
,
0010
0100
0001
0100
,
0010
1000
0010
1000
,
0100
1000
0001
0010
,
0001
1000
0010
0100
,
0001
0000
0000
0000
,
1000
0100
1000
0001
,
0010
0001
0100
0010
,
0100
0001
1000
0010
,
0200
0000
0000
0000
0000
0300
0000
0000
,
0001
1000
0010
0100
,
0001
1000
0010
0100
,
0001
1000
0001
0100
,
0020
0000
0030
0000
,
1000
0001
0010
0100
,
1000
0001
0100
0010
,
0100
1000
0010
0100
,
0002
0000
0000
0000
0000
0003
0000
0000
,
1000
0000
0010
0000
,
0100
0000
0001
0000
,
0000
1000
0000
0000
0000
0000
0000
0000
0000
0100
0000
0000
0000
0000
0000
0000
0000
1000
0000
0000
0000
0000
0000
0000
0000
0001
0000
0000
0000
0000
0000
0000
,
0100
0010
1000
0100
,
1000
0001
1001
0000
;
