#TITLE:Pop the track;
#SUBTITLE:;
#ARTIST:J-Mi & Midi-D feat. Hanna Stockzell;
#TITLETRANSLIT:;
#SUBTITLETRANSLIT:;
#ARTISTTRANSLIT:;
#CREDIT:SupremeX;
#BANNER:pop the track.png;
#BACKGROUND:pop the track-bg.png;
#LYRICSPATH:;
#CDTITLE:CDTitle.png;
#MUSIC:Pop the track.ogg;
#OFFSET:-2.364;
#SAMPLESTART:56.290;
#SAMPLELENGTH:12.000;
#SELECTABLE:YES;
#BPMS:0.000=160.000;
#STOPS:;
#BGCHANGES:-7.000=Pop The Track.avi=1.000=1=1=0,
99999=-nosongbg-=1.000=0=0=0 // don't automatically add -songbackground-
;

//---------------dance-single - ----------------
#NOTES:
     dance-single:
     :
     Beginner:
     2:
     0.156,0.148,0.000,0.192,0.000:
0000
0000
0000
0000
,
0000
0000
0000
0000
,
0000
0000
0000
0000
,
0000
0000
0000
0000
,
1000
0000
0010
0000
,
0002
0000
0000
0000
0000
0003
0000
0000
,
0010
0000
1000
0000
,
0200
0000
0000
0000
0000
0300
0000
0000
,
0001
0000
0010
0000
,
2000
0000
0000
0000
0000
3000
0000
0000
,
0100
0000
0010
0000
,
0001
0000
1000
0000
,
0010
0000
0100
0000
,
2000
0000
0000
0000
0000
3000
0000
0000
,
0001
0000
0100
0000
,
0002
0000
0000
0003
,
0010
0000
1000
0000
,
0200
0000
0000
0000
0000
0300
0000
0000
,
0002
0000
0000
0003
,
1000
0000
1000
0000
,
0010
0000
0100
0000
,
0001
0000
1000
0000
,
0010
0000
0000
0000
,
1000
0000
0000
0000
,
0001
0000
1000
0000
,
0010
0000
0100
0000
,
1000
0000
0000
0000
,
0001
0000
0000
0000
,
0010
0000
0010
0000
,
1000
0000
1000
0000
,
0010
0000
0010
0000
,
0001
0000
0001
0000
,
0100
0000
0100
0000
,
0100
0000
1000
0000
,
0002
0000
0000
0003
,
2000
0000
0000
0000
0000
3000
0000
0000
,
0010
0000
0100
0000
,
2000
0000
0000
3000
,
0001
0000
1000
0000
,
0001
0000
0100
0000
,
0010
0000
1000
0000
,
0002
0000
0000
0003
,
1000
0000
0010
0000
,
0100
0000
0001
0000
,
1000
0000
0010
0000
,
2000
0000
0000
0000
0000
3000
0000
0000
,
0100
0000
0001
0000
,
0100
0000
0010
0000
,
1000
0000
0001
0000
,
2000
0000
0000
0000
0000
3000
0000
0000
,
0010
0000
0100
0000
,
0001
0000
0001
0000
,
1000
0000
1000
0000
,
0020
0000
0000
0000
0000
0030
0000
0000
,
0100
0000
0100
0000
,
0002
0000
0000
0003
,
0010
0000
0010
0000
,
2000
0000
0000
0000
0000
3000
0000
0000
,
0200
0000
0000
0000
0000
0300
0000
0000
,
0002
0000
0000
0000
0000
0003
0000
0000
,
1000
0000
1000
0000
,
0020
0000
0000
0030
,
0100
0000
0100
0000
,
0002
0000
0000
0000
0000
0003
0000
0000
,
0010
0000
0010
0000
,
2000
0000
0000
3000
,
0200
0000
0000
0300
,
0001
0000
1000
0000
,
0001
0000
0000
0000
;

//---------------dance-single - ----------------
#NOTES:
     dance-single:
     :
     Easy:
     4:
     0.276,0.314,0.026,0.235,0.000:
0000
0000
0000
0000
,
0000
0000
0000
0000
,
0000
0000
0000
0000
,
0000
0000
0000
0000
,
1000
1000
0010
0100
,
0002
0000
0000
0000
0000
0003
0000
0000
,
1000
0010
0100
0001
,
2000
0000
0000
0000
0000
3000
0000
0000
,
0010
0100
0001
1000
,
0020
0000
0000
0000
0000
0030
0000
0000
,
2000
0000
0010
0000
,
0001
0000
0000
0000
0010
3000
0000
0000
,
0010
0100
1000
0001
,
0200
0000
0000
0300
,
0010
1000
0001
0100
,
0200
0000
0000
0300
,
0001
0010
1000
0001
,
0020
0000
0000
0030
,
2000
0000
0000
3000
,
0001
1000
0001
1000
,
0010
0100
1000
0010
,
0100
0001
0100
0100
,
0001
1000
0001
0100
,
0001
1000
0010
0010
,
0100
0001
1000
0010
,
1000
0100
0010
0001
,
1000
0001
0100
0100
,
0010
1000
0001
0001
,
0000
0000
1000
0010
,
0100
0001
1000
0010
,
0100
0001
1000
0010
,
0100
0001
1000
0001
,
0200
0300
0010
1000
,
0001
0100
0010
1000
,
0002
0000
0000
0000
0000
0000
0000
0003
,
2000
0000
0000
0000
0000
3000
0000
0000
,
1001
0001
0001
1000
,
0002
0000
0000
0003
,
1000
0010
1000
0001
,
0100
1000
0001
0000
,
1001
0001
0001
1000
,
2000
0000
0000
0000
0000
3000
0000
0000
,
0010
0100
0001
0000
,
1000
0010
0100
0001
,
1000
0001
0100
1000
,
0002
0000
0000
0003
,
1000
0010
0200
0300
,
0001
0001
0001
0000
,
1000
0010
0100
1000
,
0020
0000
0000
0030
,
0100
0001
2000
3000
,
0001
0001
0001
0000
,
1000
0001
0100
0010
,
2000
0000
0001
0000
0001
3000
0010
0000
,
0100
0010
1000
0001
,
0002
0100
0100
0103
,
1000
0010
0100
0001
,
0200
0010
0010
0310
,
0001
0010
0100
1000
,
0020
0000
0000
0030
,
1000
1000
1000
0001
,
0200
0000
0000
0000
0000
0300
0000
0000
,
0001
0001
0001
0010
,
2000
0000
0000
0000
0000
3000
0000
0000
,
0100
0100
0001
0100
,
0020
0000
0000
0000
0000
0030
0000
0000
,
2000
0000
0000
3000
,
0001
1000
0001
1001
,
0020
0000
0000
0000
,
0000
0000
0000
0030
,
0200
0000
0000
0000
,
0000
0000
0000
0000
,
0310
0000
0000
0000
;

//---------------dance-single - Copied from----------------
#NOTES:
     dance-single:
     Copied from:
     Medium:
     5:
     0.332,0.342,0.026,0.244,0.000:
0000
0000
0000
0000
,
0000
0000
0000
0000
,
0000
0000
0000
0000
,
0000
0000
0000
0000
,
0100
0000
0001
0000
1000
0000
0010
0100
,
0002
0000
1000
0000
1000
0000
1000
0003
,
0010
0100
0000
1000
0000
1000
0000
0001
,
0100
0010
1000
0010
,
0100
0001
0000
1000
0000
1000
0000
0010
,
0200
0001
0001
0301
,
0002
1000
1000
1003
,
0020
0100
0100
0130
,
1000
0001
0000
0100
0000
0010
0000
1000
,
0002
0100
0100
0103
,
1000
0010
0000
0100
0000
0001
0000
1000
,
0020
0100
0100
0130
,
1000
0001
0000
0100
0000
0010
0000
1000
,
0002
1000
1000
1003
,
0020
0100
0100
0130
,
1000
0001
1000
0001
,
0010
1000
0010
1000
,
0001
0100
1000
0010
,
0100
0100
0001
0001
,
1000
1000
0010
0010
,
1000
0100
0010
0001
,
1000
0001
1000
0001
,
0100
0100
0010
0010
,
1000
0001
0010
1000
,
0001
0001
0001
0001
,
1000
0001
0010
0100
,
2000
0000
0000
3000
0001
0000
0001
0000
,
0200
0310
0001
0010
,
2000
3001
0010
0100
,
1000
0100
0010
0001
,
2000
0000
0000
3000
,
0002
0000
0000
0000
0000
0003
0000
0000
,
1000
0001
0100
1000
,
0002
1000
1000
1003
,
0010
0100
1000
0000
,
0001
0001
1001
0000
,
0010
0100
1000
0010
,
0200
0000
0000
0300
,
0001
0010
1000
0000
,
0010
0100
1001
0000
,
0010
0010
0010
0010
,
0002
1000
1000
1003
,
0100
0100
0100
0100
,
0001
1000
0001
1000
,
0010
0100
0001
1000
,
0002
1000
1000
1003
,
0010
0100
1000
0010
,
0100
0001
1001
0000
,
0010
0100
0010
1000
,
0002
0000
0000
0000
0000
0003
0000
0000
,
1000
0010
0100
0001
,
2000
0010
0010
3010
,
0001
0100
1000
0001
,
0200
0000
0000
0000
0000
0300
0000
0000
,
0002
0000
0000
0003
,
2000
0000
0000
0000
0010
3000
0000
0000
,
0001
0100
0010
1000
,
0002
0100
0100
0103
,
0010
1000
0010
0100
,
0002
0100
0100
0103
,
1000
0010
0100
0001
,
2000
0000
0010
0000
0010
3000
0010
0000
,
0200
0000
0000
0000
0000
0000
0000
0300
,
0001
1000
0001
1000
,
0020
0000
0000
0000
,
0000
0000
0000
0030
,
0200
0000
0000
0000
0000
0000
0000
0300
,
0000
0000
0000
0001
0000
0000
0000
0000
;

//---------------dance-single - Copied from----------------
#NOTES:
     dance-single:
     Copied from:
     Hard:
     7:
     0.438,0.466,0.000,0.331,0.000:
0000
0000
0000
0000
,
0000
0000
0000
0000
,
0000
0000
0000
0000
,
0000
0000
0000
0000
,
1000
0000
0001
0000
0100
0010
1000
0000
,
0002
0100
0100
0103
,
1000
0001
0000
0100
0000
0001
1000
0000
,
0020
0100
0100
0130
,
0001
1000
0000
0010
0000
1000
0000
0001
,
0200
0010
0010
0310
,
0002
0000
0100
0000
0100
0000
0100
0003
,
2000
0010
0010
3010
,
0010
0100
0000
0001
0000
0100
0000
0010
,
2000
0001
0001
3001
,
0100
0010
0000
1000
0000
0001
0000
1000
,
0020
0100
0100
0130
,
0001
1000
0000
0010
0000
0100
0000
0010
,
0200
0010
0010
0310
,
0002
0100
0100
0103
,
1000
0001
1000
1000
,
0001
0001
0100
0100
,
0001
0010
0100
1000
0010
0100
0001
0000
,
1000
0010
1000
0001
0100
0001
0100
0000
,
0010
1000
0010
1000
0001
0100
0001
0000
,
1000
0010
0100
0001
0010
0001
0100
0000
,
0010
1000
0100
0010
0001
0100
0010
0000
,
1000
0000
1000
0000
0001
0100
0001
0000
,
1000
0100
0010
0001
0100
0010
1000
0000
,
0001
0000
1000
0000
0010
0100
0010
1000
,
0001
1000
0010
0000
0100
0000
0100
0001
,
2000
0000
0000
3000
0001
0000
0100
0001
,
0200
0310
0010
1000
,
0001
0000
1000
0000
0010
0100
0010
1000
,
0001
1000
0010
0000
0100
0000
1000
0000
,
0002
1000
1000
1003
,
0200
0010
0310
0000
,
0001
0100
0001
1000
0010
1000
0001
0100
,
0002
0100
0100
0103
,
1000
0000
0010
0200
0000
0000
0300
0000
,
0001
0100
0001
0000
,
1000
0010
0100
0001
1000
0010
0100
0000
,
0002
0100
0100
0103
,
1000
0000
0001
2000
0000
0000
3000
0000
,
0001
0100
0001
0000
,
2000
0000
0010
0000
0010
0000
0010
3000
,
0002
0000
0100
0000
0100
0000
0100
0003
,
0200
0010
0010
0310
,
0002
1000
2003
3000
,
0200
0000
0001
0000
0001
0000
0001
0300
,
0002
0100
0100
0100
,
0100
0103
0020
0030
,
2000
0010
3010
0000
,
0010
1000
0010
0100
0001
1000
0010
0100
,
0002
0100
0100
0103
,
1000
0010
0100
0010
0100
0001
1000
0000
,
0020
0100
0100
0130
,
1000
0001
1000
0010
0100
0001
0100
0001
,
0200
0010
0010
0310
,
0020
0000
1000
0000
1000
0000
1000
0030
,
2000
0001
0001
3001
,
0010
0100
0001
1000
0010
0100
0001
1000
,
0002
0100
0100
0103
,
0010
0100
0010
1000
0001
0100
0010
1000
,
0002
1000
1000
1003
,
0010
0100
0001
1000
0001
0100
0010
0001
,
2000
0001
0001
3001
,
0020
0100
0100
0130
,
0001
1000
0001
1000
,
0002
0000
0000
0000
0000
0000
0000
0003
,
0200
0000
0000
0000
0000
0000
0000
0300
,
0020
0000
0000
0000
,
0000
0000
0000
1030
0000
0000
0000
0000
;

//---------------dance-single - Copied from----------------
#NOTES:
     dance-single:
     Copied from:
     Challenge:
     9:
     0.645,0.746,0.235,0.192,0.266: // measure 1
0000
0000
0000
0000
,  // measure 2
0000
0000
0000
0000
,  // measure 3
0000
0000
0000
0000
,  // measure 4
0000
0000
0000
0000
,  // measure 5
1000
0000
0010
0000
0100
0000
0001
0000
0000
1000
0000
0000
0001
0000
0100
0010
,  // measure 6
0100
0000
0010
0100
0010
0000
1000
0010
1000
0000
0010
1000
0010
0000
0000
0000
,  // measure 7
0100
0001
0000
0101
0000
0001
1000
0000
,  // measure 8
0001
0100
0001
0000
0100
0001
0100
0000
0010
0100
0010
0000
0100
0010
0100
0000
,  // measure 9
0001
1000
0000
0001
0000
0110
0000
1000
,  // measure 10
0001
0100
0010
0000
0100
0010
1000
0000
0001
0100
0010
0000
0100
0000
0001
0000
,  // measure 11
1000
0010
1000
0000
0010
1000
0010
0000
0100
0001
0100
0000
0001
0000
1000
0000
,  // measure 12
0010
0100
0010
0000
0100
0010
0100
0000
0010
1000
0010
0000
1000
0010
1000
0000
,  // measure 13
0001
0100
0000
0001
0000
1001
0000
0010
,  // measure 14
1000
0100
1000
0000
0100
1000
0001
0000
0100
0001
0100
0000
0001
0100
0001
0000
,  // measure 15
0100
0010
0000
1000
0000
0110
0000
0001
,  // measure 16
0100
0010
0100
0000
0010
0100
0010
0000
1000
0010
1000
0000
0010
1000
0010
0000
,  // measure 17
0100
0001
0000
1000
0000
1010
0000
0100
,  // measure 18
0001
0100
0001
0000
0100
0001
0100
0000
0010
1000
0010
0000
1000
0000
0000
0000
,  // measure 19
0001
0100
0010
0000
0001
0100
0010
0000
0001
0100
0010
0000
0100
0001
0100
0000
,  // measure 20
0010
1000
0100
0010
0001
0100
0001
0000
,  // measure 21
0010
1100
0110
0011
,  // measure 22
1000
0100
0010
0001
0100
0010
1000
0000
,  // measure 23
0010
1000
0010
0100
0001
0100
0001
0000
,  // measure 24
1000
0100
0010
0001
0100
0010
1000
0000
,  // measure 25
1100
0000
1010
0000
0001
0100
0001
0000
,  // measure 26
1000
0010
1000
0010
0100
0001
0100
0000
,  // measure 27
0101
0000
1001
0000
1000
0010
1000
0000
,  // measure 28
0010
0100
0010
0000
0100
0010
0100
0000
0010
1000
0010
0000
1000
0000
0000
0000
,  // measure 29
0110
0000
0001
0000
1000
0010
0100
0001
,  // measure 30
0100
0010
1000
0000
1100
0000
0100
0001
,  // measure 31
0202
0000
0000
0303
1000
0000
0010
1000
,  // measure 32
0002
0100
0103
0100
0001
1000
0010
0100
,  // measure 33
0002
0000
0003
0000
1000
0100
0010
0001
,  // measure 34
0100
0001
1000
0000
0101
0000
1010
0000
,  // measure 35
0002
0100
0100
0100
0100
0100
0103
0000
,  // measure 36
2000
0010
0010
0010
0010
0010
3010
0000
,  // measure 37
0100
0001
0100
0010
1000
0001
1000
0001
,  // measure 38
0200
0010
0010
0010
0010
0010
0310
0000
,  // measure 39
0001
0000
1000
0020
0000
0000
0030
0000
,  // measure 40
1000
0100
0010
0001
0100
0000
0000
0000
,  // measure 41
0001
1000
0010
0100
0001
1000
0010
0000
,  // measure 42
2000
0001
0001
0001
0001
0001
3001
0000
,  // measure 43
0100
0000
0010
0200
0000
0000
0300
0000
,  // measure 44
0001
0010
0100
1000
0010
0000
0000
0000
,  // measure 45
1000
0000
0100
0000
0010
0000
0001
0100
,  // measure 46
0200
0010
0010
0310
,  // measure 47
0001
1010
0110
0101
,  // measure 48
0002
1000
1000
1000
2003
0000
3000
0000
,  // measure 49
0010
0100
0010
0100
0010
1000
0010
0100
,  // measure 50
0002
0100
0100
1000
,  // measure 51
0100
0000
0103
0020
0000
0000
0030
0000
,  // measure 52
1000
0100
0010
0001
0100
0000
0000
0000
,  // measure 53
0010
1000
0010
0100
0001
1000
0010
0100
,  // measure 54
0001
0100
0001
0000
0100
0001
0100
0000
0010
1000
0010
0000
1000
0000
0001
0000
,  // measure 55
1000
0010
0100
0010
0100
0001
1000
0000
,  // measure 56
0010
0100
0010
0000
0100
0010
0100
0000
0010
1000
0010
0000
0100
0000
0000
0000
,  // measure 57
0001
0010
0100
1000
0010
0100
0010
1000
,  // measure 58
0010
0100
0010
0000
0100
0010
0100
0000
0001
0100
0001
0000
0100
0000
0010
0000
,  // measure 59
1000
0010
1000
0000
0010
1000
0010
0000
1000
0010
1000
0000
0010
0000
0100
0000
,  // measure 60
0020
1000
1000
1030
,  // measure 61
0100
0001
0100
0010
1000
0010
0100
0001
,  // measure 62
1000
0010
1000
0000
0010
1000
0010
0000
0100
0001
0100
0000
0001
0000
1000
0000
,  // measure 63
0010
0100
0010
1000
0001
0100
0010
1000
,  // measure 64
0001
0100
0001
0000
0100
0001
0100
0000
0010
1000
0010
0000
1000
0000
0000
0000
,  // measure 65
0010
0100
0010
1000
0001
0100
0010
1000
,  // measure 66
0010
0100
0010
0000
0100
0010
0100
0000
0001
1000
0001
0000
1000
0000
0010
0000
,  // measure 67
1000
0001
1000
0000
0010
1000
0010
0000
0100
0001
0100
0000
0001
0000
0000
0000
,  // measure 68
1010
0101
0110
1001
,  // measure 69
0220
0000
0000
0000
0000
0000
0000
0330
,  // measure 70
0022
0000
0000
0000
0000
0000
0000
0033
,  // measure 71
2002
0000
0000
0000
,  // measure 72
0000
0003
0000
3001
0000
0000
0000
0000
;
