#TITLE:NIGHT FEELIN';
#SUBTITLE:;
#ARTIST:マセラティ渚;
#TITLETRANSLIT:;
#SUBTITLETRANSLIT:;
#ARTISTTRANSLIT:LUVRAW + PellyColo;
#GENRE:;
#CREDIT:SupremeX;
#BANNER:NIGHTFEELINjp-bn.png;
#BACKGROUND:NIGHTFEELIN-bg.png;
#LYRICSPATH:;
#CDTITLE:CDTitle.png;
#MUSIC:NIGHT FEELIN'.ogg;
#OFFSET:-0.635425;
#SAMPLESTART:48.299999;
#SAMPLELENGTH:12.000000;
#SELECTABLE:YES;
#BPMS:0.000000=121.699989
;
#STOPS:
;
#BGCHANGES:18.000=light5.avi=1.000=0=0=1=====,
34.000=bear1.avi=1.000=0=0=1=====,
50.000=bear3.avi=1.000=0=0=1=====,
58.000=dance12.avi=1.000=0=0=1=====,
66.000=silhouette2.avi=1.000=0=0=1=====,
72.500=dance11.avi=1.000=0=0=1=====,
85.500=beads3.avi=1.000=0=0=1=====,
93.500=NIGHTFEELIN-bg.png=1.000=0=0=1=====,
100.000=bear3.avi=1.000=0=0=1=====,
104.500=bear1.avi=1.000=0=0=1=====,
108.500=silhouette2.avi=1.000=0=0=1=====,
113.500=dance12.avi=1.000=0=0=1=====,
117.000=dance11.avi=1.000=0=0=1=====,
128.500=bear3.avi=1.000=0=0=1=====,
136.500=bear1.avi=1.000=0=0=1=====,
148.500=silhouette2.avi=1.000=0=0=1=====,
157.000=dance12.avi=1.000=0=0=1=====,
169.000=heart7.avi=1.000=0=0=1=====,
178.000=boy7.avi=1.000=0=0=1=====,
186.000=heart7.avi=1.000=0=0=1=====,
194.000=boy7.avi=1.000=0=0=1=====,
201.750=NIGHTFEELIN-bg.png=1.000=0=0=1=====,
99999=-nosongbg-=1.000=0=0=0 // don't automatically add -songbackground-
;
#KEYSOUNDS:;
#ATTACKS:;

//---------------dance-single - ----------------
#NOTES:
     dance-single:
     :
     Beginner:
     2:
     0.109812,0.146682,0.000000,0.029191,0.000000,79.000000,79.000000,0.000000,3.000000,0.000000,0.000000,0.109812,0.146682,0.000000,0.029191,0.000000,79.000000,79.000000,0.000000,3.000000,0.000000,0.000000:
0000
0000
0000
0000
,
0000
0000
0000
0000
,
0000
0000
0000
0000
,
0000
0000
0000
0000
,
0000
0000
0000
1000
,
0000
0001
0000
1000
,
0000
0001
0000
0100
,
0000
0100
0000
0001
,
0000
1000
0000
0010
,
0000
0010
0000
0000
,
0000
0000
1000
0000
,
0001
0000
1000
0000
,
0100
0000
0000
0001
,
0000
0001
0000
0010
,
0000
0001
0000
1000
,
0000
1000
0000
0000
,
0000
0000
0100
0000
,
0001
0000
0100
0000
,
1000
0000
0100
0000
,
0001
0000
0100
0000
,
1000
0000
0010
0000
,
1000
0000
0010
0000
,
0100
0000
0010
0000
,
1000
0000
0002
0000
,
0000
0003
0000
0000
1000
0000
0000
0000
,
1000
0000
0100
0000
,
0100
0000
1000
0000
,
1000
0000
0001
0000
,
0001
0000
0100
0000
,
0100
0000
0010
0000
,
0010
0000
0200
0000
,
0000
0000
0000
0000
,
0300
0000
0000
1000
,
0001
1000
0000
0000
,
0000
0000
0010
1000
,
0010
0000
0000
0000
,
0000
0000
0100
0001
,
0100
0000
0000
0000
,
0000
0000
1000
1000
,
1000
0000
0001
0001
,
0001
0000
0000
0000
,
0000
0000
0100
0100
,
0100
0000
0020
0000
,
0000
0000
0030
0000
,
0000
1000
0000
1000
,
0000
0001
0000
0001
,
0000
0000
0000
1000
,
0000
1000
0000
0001
,
0000
0001
0000
0100
,
0000
0001
0000
0010
,
0000
1000
0000
0000
;

//---------------dance-single - ----------------
#NOTES:
     dance-single:
     :
     Easy:
     4:
     0.239084,0.294460,0.077841,0.019460,0.004865,172.000000,164.000000,8.000000,2.000000,0.000000,0.000000,0.239084,0.294460,0.077841,0.019460,0.004865,172.000000,164.000000,8.000000,2.000000,0.000000,0.000000:
0000
0000
0000
0000
,
0000
0000
0000
0000
,
0000
0000
0000
0000
,
0000
0000
0000
0000
,
0000
0000
0100
1000
,
0001
0100
1000
0001
,
0100
1000
0001
0010
,
1000
0001
0010
1000
,
0001
0100
0001
1000
,
0010
0100
0100
0001
,
1000
0001
0010
1000
,
0001
0100
0001
1000
,
0100
0001
1000
0010
,
1000
0001
0100
0001
,
1000
0010
0100
1000
,
0001
0100
0010
1000
,
0001
0000
0100
0100
,
0001
0001
1000
1000
,
0010
0010
0001
0001
,
0100
0100
1000
1000
,
0000
0000
0100
0010
,
1000
0001
0010
0100
,
1000
0001
0100
0010
,
1000
0001
0100
0100
,
0010
0010
1001
0010
,
1000
0100
0001
1000
,
0010
0001
1001
0010
,
0100
1000
0001
0100
,
0001
1000
0010
1010
,
0001
0100
0001
1000
,
0010
0100
0001
0101
,
0001
1001
0001
1001
,
0010
0100
1000
1000
,
0001
0100
0001
1000
,
0100
0001
0100
1001
,
0010
0100
1000
0001
,
0100
0001
1000
1000
,
0001
0001
0100
0001
,
1000
0001
1000
0100
,
0001
0100
0001
0100
,
1000
0020
0000
0000
,
0030
1000
0001
0100
,
0001
0200
0000
0000
,
0000
0300
0000
0000
1000
0000
0000
0000
,
0010
0000
0001
0000
,
0100
0000
0001
0000
,
1000
0000
0000
0001
,
0000
0010
0000
1000
,
0000
0100
0000
0001
,
1000
0001
0100
0001
,
1000
0000
0000
0000
0010
0000
0000
1001
0000
0000
0000
0000
0000
0000
0000
0000
;

//---------------dance-single - Copied from----------------
#NOTES:
     dance-single:
     Copied from:
     Hard:
     8:
     0.354457,0.392613,0.068111,0.184873,0.009730,255.000000,248.000000,7.000000,19.000000,0.000000,0.000000,0.354457,0.392613,0.068111,0.184873,0.009730,255.000000,248.000000,7.000000,19.000000,0.000000,0.000000:
0000
0000
0000
0000
,
0000
0000
0000
0000
,
0000
0000
0000
0000
,
0000
0000
0000
0000
,
0000
0000
0000
0000
0001
0100
0001
1000
,
0000
0000
0010
0100
0010
1000
0001
0010
,
0200
0000
0000
1300
0000
0000
0001
0000
1000
0000
0000
0000
1001
0000
0000
0000
,
0100
0010
0100
0000
0001
1000
0010
0100
,
0001
1000
0010
1000
1000
0000
0001
0000
,
1000
0100
1000
0001
0000
1100
0000
0000
,
0000
1000
0001
1000
0020
0000
0100
0000
,
0100
0000
0130
0000
0001
0000
0001
2000
,
0000
0000
3100
1000
0100
0000
0110
0000
,
0001
0001
0000
1000
0010
1000
0001
0100
,
0010
1000
0010
0000
1000
0100
1000
0001
,
0100
0001
1000
0100
0000
0100
1000
0000
,
0001
0100
0001
0000
1000
0010
0100
0001
,
0100
0010
1000
0001
0000
0110
0000
0000
,
0000
1000
0100
0010
0002
0000
1003
0001
,
1000
0000
0100
0010
0000
0010
0200
0000
,
0000
0300
1001
0000
0000
0000
0010
0000
,
0100
0100
0000
0001
0001
0000
1000
0100
,
0100
0000
1000
0000
0001
0010
0100
1000
,
0100
1000
0000
0200
1000
0000
1300
0000
,
0001
0100
0001
2000
0000
0000
3100
0000
,
1000
0000
0001
1000
0010
0100
0010
1000
,
0001
0000
1000
0020
0100
0000
0130
0000
,
0010
0000
1000
0010
1000
0000
0100
1000
,
0000
0010
1000
0010
0200
0000
0001
0000
,
0301
0000
1000
0000
0001
1000
0100
1000
,
0001
0100
0010
1000
,
0000
0000
1000
2000
0000
0020
0000
3030
,
0000
0100
0001
0100
0000
0000
2002
0000
,
3003
0000
0100
1000
0100
0000
0010
0001
,
0000
1000
0010
1000
0100
1000
0010
0000
,
0000
1000
0001
0010
0100
1000
0100
1000
,
0000
0100
0100
2000
0000
0000
3001
0000
,
0000
0100
0010
0100
0001
0000
1000
0010
,
0000
1000
0001
0200
0000
0000
0000
0000
,
0300
0000
0010
0000
0100
0001
0100
0010
,
0020
0000
2030
0000
3100
0000
0000
0100
,
0000
0000
0020
0000
0031
0100
0001
0010
,
0100
2000
0100
3100
,
0010
0001
0010
0000
0100
1000
0100
0010
,
0001
0000
1000
0000
0010
0000
0100
0001
,
1000
0001
0100
0000
0001
1000
0010
1000
,
0001
0000
1000
0000
0000
0100
0100
1000
,
0001
0010
0010
0000
0100
1000
0100
1000
,
1000
0000
0100
0000
0000
0010
0001
1000
,
0100
0010
0001
0000
1000
0100
1000
0000
,
0010
0000
0000
0000
0100
0000
0000
1001
0000
0000
0000
0000
0000
0000
0000
0000
;

//---------------dance-single - Copied from----------------
#NOTES:
     dance-single:
     Copied from:
     Medium:
     6:
     0.289125,0.294460,0.000000,0.019460,0.004865,208.000000,208.000000,0.000000,2.000000,0.000000,0.000000,0.289125,0.294460,0.000000,0.019460,0.004865,208.000000,208.000000,0.000000,2.000000,0.000000,0.000000:
0000
0000
0000
0000
,
0000
0000
0000
0000
,
0000
0000
0000
0000
,
0000
0000
0000
0000
,
0000
0000
0000
1000
,
0001
0000
0100
0000
0001
1000
0001
0000
,
0100
0001
0100
0010
,
1000
0001
0100
0010
,
1000
0010
1000
0001
,
1000
0010
0100
0000
0001
0000
1000
0000
,
0010
0000
0100
0000
0001
1000
0010
1000
,
0010
0100
0001
0010
,
0010
0100
0100
1000
,
1000
0000
0010
0000
0100
0001
1000
0000
,
0010
0100
1000
0000
0001
0000
0100
0000
,
0001
0100
0010
1000
,
0001
0000
1000
0000
0010
0100
0001
0000
,
1000
0001
0100
0010
0100
0000
0001
0000
,
1000
0000
0001
0000
1000
0010
0100
0000
,
0001
0100
0001
0000
1000
0000
0010
0000
,
1000
0000
0010
0000
0100
0001
0100
0000
,
0010
1000
0010
0000
0100
0000
0001
0000
,
1000
1000
0001
0100
,
0010
0100
0010
0000
1000
0001
1000
0000
,
0001
0100
0001
0000
1000
0000
0001
0000
,
0100
0010
1000
0001
,
1000
1000
0001
0100
,
0010
1000
0001
0100
,
0001
1000
0001
1000
,
0010
0100
0001
1000
,
0001
0100
0010
0100
,
0001
1000
0020
0100
,
0100
0130
0000
1000
,
0001
0100
0001
1000
,
0001
0000
0100
0000
0001
1000
0001
0000
,
0100
0100
0001
1000
,
0001
0000
1000
0100
0010
0000
1000
0000
,
0001
0000
1000
0000
0001
0100
0001
0000
,
1000
0010
1000
0000
0001
0000
0100
0000
,
0100
0100
0001
1000
,
0100
0010
0200
0000
0001
0000
0301
0000
,
1000
0000
0001
0000
0100
0010
1000
0000
,
0001
0100
0001
0000
1000
0000
0001
0000
,
0100
0010
1000
0001
,
0100
0001
1000
0010
,
1000
0001
0100
0010
,
1000
0001
1000
0000
0010
0000
0100
0000
,
0001
0001
1000
1000
,
0010
0010
1000
0001
,
0100
0000
0010
0000
1000
0001
1000
0000
,
0010
0000
0000
0000
0100
0000
0000
0001
0000
0000
0000
0000
0000
0000
0000
0000
;
