#TITLE:Midnight Yoghurt;
#SUBTITLE:(女SPY☆お色気ゴーゴー脱出大作戦);
#ARTIST:SIMON MAN;
#TITLETRANSLIT:Midnight Yoghurt;
#SUBTITLETRANSLIT:(ONNA SPY OIROKE GO-GO DASSHUTSU DAISAKUSEN);
#ARTISTTRANSLIT:;
#GENRE:;
#CREDIT:SupremeX;
#BANNER:Midnight Yoghurt.png;
#BACKGROUND:Midnight Yoghurt-bg.png;
#LYRICSPATH:;
#CDTITLE:CDTitle.png;
#MUSIC:Midnight Yoghurt.ogg;
#OFFSET:-1.203415;
#SAMPLESTART:6.160000;
#SAMPLELENGTH:12.000000;
#SELECTABLE:YES;
#BPMS:0.000000=181.899994
;
#STOPS:
;
#BGCHANGES:16.000=12 Night.avi=1.000=0=0=1=====,
32.000=frog2.avi=1.000=0=0=1=====,
48.000=sun2.avi=1.000=0=0=1=====,
64.000=room2.avi=1.000=0=0=1=====,
80.000=text12.avi=1.000=0=0=1=====,
96.000=12 Night.avi=1.000=0=0=1=====,
112.000=frog2.avi=1.000=0=0=1=====,
131.000=Midnight Yoghurt-bg.png=1.000=0=0=1=====,
136.000=wave145.avi=1.000=0=0=1=====,
178.000=12 Night.avi=1.000=0=0=1=====,
194.000=frog2.avi=1.000=0=0=1=====,
211.000=sun2.avi=1.000=0=0=1=====,
226.000=room2.avi=1.000=0=0=1=====,
242.000=wave145.avi=1.000=0=0=1=====,
260.250=Midnight Yoghurt-bg.png=1.000=0=0=1=====,
99999=-nosongbg-=1.000=0=0=0 // don't automatically add -songbackground-
;
#KEYSOUNDS:;
#ATTACKS:;

//---------------dance-single - ----------------
#NOTES:
     dance-single:
     :
     Hard:
     8:
     0.472388,0.632166,0.259350,0.162094,0.048628,306.000000,282.000000,24.000000,15.000000,0.000000,0.000000,0.472388,0.632166,0.259350,0.162094,0.048628,306.000000,282.000000,24.000000,15.000000,0.000000,0.000000:
0000
0000
0000
0000
,
0000
0000
0000
0000
,
0000
0000
0000
0000
,
0000
0000
0000
0010
,
2000
0000
3000
0001
0010
0000
0000
0100
,
0000
1000
0000
0100
1000
0100
0010
0001
,
0100
0010
0100
0000
0001
0010
0000
0100
,
0000
1100
0000
0010
0000
0100
0010
0000
,
1000
0000
0010
0001
0000
0000
0100
0010
,
0000
1000
0000
0001
0010
0100
1000
0010
,
0100
0001
0100
0000
0010
1000
0000
1001
,
0000
0100
0000
0010
0000
0011
0000
0000
,
0100
0000
1000
0010
1000
0000
0000
0101
,
0000
1010
0000
0001
0100
0001
0010
0100
,
1000
0100
0010
0000
0001
1000
0000
0110
,
0000
1000
0000
0001
0000
0100
0001
0000
,
0100
0000
0010
1000
0000
0001
0000
0100
,
0000
1010
0000
0001
0010
0100
1000
0010
,
0100
0001
0100
0000
0010
0010
0000
1000
,
0000
0000
0100
0000
0000
0000
1000
0000
0000
0000
0000
0000
0000
0010
0100
0010
,
0000
0000
0000
1000
0000
0000
0000
0101
,
0000
1010
0000
0000
0100
0000
0001
0000
,
1000
0000
0010
0000
0100
0001
0000
1000
,
0000
0010
0100
0001
0100
0010
1000
0001
,
0200
0000
0001
0000
0000
0300
0001
0000
,
1000
0010
0100
0001
,
1000
0100
0010
0001
0100
0010
1000
0010
,
0100
1001
0000
0100
,
0002
0000
0000
0003
1000
0000
1000
0000
,
0010
0000
0100
0001
0100
0010
1000
0010
,
0100
0001
0000
0000
0000
0000
0100
0010
,
0000
0000
0000
0000
1000
0100
1000
0010
,
0100
0000
0001
0000
0000
0000
0100
0010
,
0000
0000
0000
0000
,
2000
0000
0000
0000
3002
0000
0000
0003
,
2000
0000
3000
0000
0001
0001
0000
0120
,
0000
0000
0000
0000
0230
0000
0000
0300
,
0001
1000
0100
0010
0100
0001
0000
0000
,
2000
0000
0000
3000
0002
0000
0000
0003
,
0200
0000
0000
0300
0000
0010
0000
1001
,
0000
0000
0001
0000
,
0100
0001
1000
0100
,
0010
0000
0001
0000
1000
0100
0010
0001
,
0100
0000
0000
0000
0010
0000
0000
0000
1000
0000
0000
0001
0000
0000
0100
0000
0000
0010
0000
0000
1000
0000
0000
0001
0000
0000
0100
0000
0000
0010
0000
0000
,
1000
0000
0001
0000
1001
0000
0100
0010
,
0000
0000
0000
0100
0000
0010
0000
1000
,
0100
1000
0010
0100
0001
0010
0100
0000
,
1000
1000
0000
0100
0000
0110
0000
0001
,
0000
0010
0100
0000
2000
0000
0000
3001
,
0000
0000
0100
0000
0010
0000
0000
1000
,
0100
0010
0001
0100
0010
0100
0001
0000
,
1000
0010
0000
0100
0000
1100
0000
0110
,
0000
0001
1000
0000
0010
0000
0200
0000
,
0000
0000
0300
0010
0000
1000
0000
0001
,
0010
0100
1000
0010
0100
0001
1000
0000
,
0010
0100
0000
0001
0000
1001
0000
1000
,
0000
0010
0100
0000
0002
0000
0000
0000
,
0000
0000
0003
0100
0000
0010
0000
1000
,
0010
1000
0001
0010
0100
1000
0010
0000
,
0100
0010
0000
1000
0000
1001
0000
0001
,
0000
0010
0100
0000
1100
0000
0100
0000
,
0110
0010
0011
0001
,
0101
0100
0110
0010
,
1010
0000
1000
0000
0001
0010
0100
1000
,
0010
0000
0100
0000
0001
0000
1000
0000
0020
0000
0000
0000
0030
0000
0100
0001
,
0100
0000
0000
0000
;

//---------------dance-single - ----------------
#NOTES:
     dance-single:
     :
     Medium:
     5:
     0.291769,0.351203,0.010806,0.064838,0.000000,189.000000,188.000000,1.000000,6.000000,0.000000,0.000000,0.291769,0.351203,0.010806,0.064838,0.000000,189.000000,188.000000,1.000000,6.000000,0.000000,0.000000:
0000
0000
0000
0000
,
0000
0000
0000
0000
,
0000
0000
0000
0000
,
0000
0000
0000
0001
,
0100
0000
0001
0000
0000
0000
0000
1000
,
0000
0010
0000
0000
1000
0000
0001
0000
,
0100
0000
0001
0000
1000
0010
0000
0100
,
0000
0100
0000
0001
0000
1000
0000
0000
,
0010
0000
0000
0000
0000
0000
0000
1000
,
0000
1000
0000
0000
0001
0000
0100
0000
,
0010
0100
0010
0000
1000
0000
0000
0001
,
0000
0100
0000
0001
0000
1000
0010
0000
,
0100
0002
0000
0000
,
0000
0003
1000
0010
,
1000
0000
0001
0000
0100
0001
0000
1000
,
0000
0010
0000
0100
0000
0001
0100
0000
,
0020
0000
0000
0000
0000
0000
0030
1000
,
0000
1000
0000
0000
0001
0000
0100
0000
,
0010
0000
1000
0000
0001
0100
0000
0001
,
0000
1000
0000
0010
0000
0000
0000
0000
,
0100
0000
0000
0000
0001
0000
0000
0100
,
0000
0100
0000
0000
0010
0000
0000
0000
,
1000
0000
0010
0000
,
1000
0000
0001
0100
,
0001
0000
0000
1000
,
0100
0010
0001
0100
,
0010
0000
1000
0000
0001
0000
1000
0010
,
1000
0000
0000
0000
,
0001
0000
0100
0000
,
0001
0000
1000
0010
,
0100
0100
0000
0000
0000
0000
0001
0001
,
0000
0000
0100
0100
,
0010
0010
0000
0000
0000
0000
1000
1000
,
0000
0000
0000
0000
,
0001
0000
1000
0000
,
0010
0100
0001
0000
,
1000
0000
0001
0000
,
0100
0010
1000
0001
,
0100
0000
0001
0000
,
1000
0000
0010
0000
,
0100
0001
1000
0010
,
0100
0001
1000
0010
,
0100
0001
1000
0010
,
1000
0001
0000
0000
0100
0100
0000
0000
,
0010
1000
0010
0000
,
0100
0000
0000
0001
0000
0001
0000
0000
,
1000
0010
1000
0001
,
0100
0001
0000
1000
0000
0010
0000
1000
,
0000
0001
0100
0000
0020
0000
0000
0000
,
0000
0030
0000
1000
0000
1000
0000
0000
,
0001
0010
0100
2000
,
0000
0000
0000
3000
,
0000
0000
0010
0200
,
0000
0000
0000
0001
0000
0301
0000
0000
,
1000
0010
0100
0000
,
0001
1000
0000
0010
0000
0100
0000
0001
,
0000
1000
0010
0000
2000
0000
0000
0000
,
0000
0000
0000
0001
0000
3001
0000
0000
,
0100
0001
1000
0010
,
0100
0001
0000
1000
0000
0010
0000
1000
,
0000
0001
0100
0000
0010
0000
0000
0000
,
1000
0000
0001
0000
,
0100
0010
1000
0100
,
0010
0001
0100
0010
,
1000
0001
0000
0000
,
1001
0000
0000
0000
;

//---------------dance-single - ----------------
#NOTES:
     dance-single:
     :
     Easy:
     3:
     0.242369,0.280963,0.010806,0.021613,0.000000,157.000000,156.000000,1.000000,2.000000,0.000000,0.000000,0.242369,0.280963,0.010806,0.021613,0.000000,157.000000,156.000000,1.000000,2.000000,0.000000,0.000000:
0000
0000
0000
0000
,
0000
0000
0000
0000
,
0000
0000
0000
0000
,
0000
0000
0000
0010
,
0100
0000
0000
0000
0001
0000
0000
1000
,
0000
1000
0000
0000
0010
0000
0100
0000
,
0010
0000
0000
0000
1000
0000
0000
0001
,
0000
0100
0000
0001
0000
0000
0000
0000
,
1000
0000
0000
0000
0010
0000
0000
0100
,
0000
0100
0000
0000
0001
0000
1000
0000
,
0001
0000
0100
0000
0010
0000
0000
1000
,
0000
0001
0000
0100
0000
0000
0000
0000
,
0010
2000
0000
0000
,
0000
3000
0000
0000
0001
0000
0001
0000
,
0100
0000
0010
0000
1000
0000
0000
0001
,
0000
0100
0000
0001
0000
0000
0000
0000
,
1000
0000
0000
0010
0000
0000
0000
0100
,
0000
0100
0000
0000
0001
0000
1000
0000
,
0001
0000
0100
0000
0010
0000
0000
1000
,
0000
1000
0000
0010
0000
0000
0000
0000
,
0100
0000
0001
0000
,
1000
0000
0010
0000
,
0100
0000
0001
0000
,
1000
0000
0001
0000
,
0100
0010
0000
1000
,
0100
0010
0001
0000
,
1000
1000
1000
1000
,
1000
0000
0000
0001
,
0100
0000
0010
0000
,
1000
0000
0001
0000
,
0100
0000
0000
0010
,
0000
0000
1000
0001
,
1000
0000
0000
0001
,
0000
0000
0000
0000
,
0100
0000
0100
0000
,
0010
0000
0010
1000
,
0001
0000
0001
0000
,
0100
0000
0010
0000
,
1000
0000
1000
0000
,
0001
0000
0100
0010
,
1000
0000
0001
0000
,
1000
0000
0010
0000
,
0100
0000
0001
0000
,
1000
0000
0001
0000
,
0100
0020
0000
0000
,
0030
0000
0000
0100
0000
0100
0000
0000
,
0001
1000
0001
0100
,
0010
0000
0000
1000
0000
1000
0000
0001
,
0000
0000
0100
0000
,
0010
0000
0000
1000
0000
1000
0000
0000
,
0001
0100
0010
1000
,
0001
0000
0000
0100
0000
0010
0000
0100
,
0000
0000
0001
0000
,
1000
0000
0000
0010
0000
0010
0000
0000
,
0100
0001
1000
0001
,
0100
0000
0000
0010
0000
0010
0000
1000
,
0000
1000
0000
0000
0001
0000
0000
0000
,
0100
0000
0000
0010
0000
0010
0000
0000
,
1000
0001
1000
0001
,
0100
0000
0000
0010
0000
1000
0000
0000
,
0001
0000
1000
0000
,
0010
0000
0100
0000
,
0001
0000
1000
0000
,
0001
0000
0100
0000
,
0010
0000
0000
0000
,
1001
0000
0000
0000
;

//---------------dance-single - Copied from----------------
#NOTES:
     dance-single:
     Copied from:
     Beginner:
     1:
     0.069469,0.105361,0.000000,0.000000,0.000000,45.000000,45.000000,0.000000,0.000000,0.000000,0.000000,0.069469,0.105361,0.000000,0.000000,0.000000,45.000000,45.000000,0.000000,0.000000,0.000000,0.000000:
0000
0000
0000
0000
,
0000
0000
0000
0000
,
0000
0000
0000
0000
,
0000
0000
0000
0000
,
0010
0000
0000
0000
,
0000
0000
0000
0000
,
0100
0000
0000
0000
,
0000
0000
0000
0000
,
0010
0000
0000
0000
,
0000
0000
0000
0000
,
0100
0000
0000
0000
,
0000
0000
0000
0000
,
0001
0000
0000
0000
,
0000
0000
0000
0000
,
1000
0000
0000
0000
,
0000
0000
0000
0000
,
0001
0000
0000
0000
,
0000
0000
0000
0000
,
1000
0000
0000
0000
,
0000
0000
0000
0000
,
0010
0000
0000
0000
,
0010
0000
0000
0000
,
0010
0000
0000
0000
,
0010
0000
0000
0000
,
0100
0000
0000
0000
,
0100
0000
0000
0000
,
0100
0000
0000
0000
,
0100
0000
0000
0000
,
0001
0000
0000
0000
,
0000
0000
0000
0000
,
1000
0000
0000
1000
,
0000
0000
0001
0000
,
0000
0000
0000
0001
,
0000
0000
0000
0000
,
0100
0000
0000
0000
,
0100
0000
0000
0000
,
0010
0000
0000
0000
,
0010
0000
0000
0000
,
0100
0000
0000
0000
,
0100
0000
0000
0000
,
0010
0000
0000
0000
,
0010
0000
0000
0000
,
1000
0000
0000
0000
,
1000
0000
0000
0000
,
0001
0000
0000
0000
,
0000
0000
0000
0001
0000
0000
0000
0000
,
0000
0000
0000
0000
,
0000
0000
0000
0100
0000
0000
0000
0000
,
0000
0000
0000
0000
,
0000
0000
0000
0001
0000
0000
0000
0000
,
0000
0000
0100
0000
,
0000
0000
0000
0000
,
0000
0000
0000
1000
,
0000
0000
0000
0000
,
0000
0000
0001
0000
,
0000
0000
0000
0000
,
0000
0000
1000
0000
,
0000
0000
0000
0000
,
0000
0000
0001
0000
,
0000
0000
0000
0000
,
0000
0000
0100
0000
,
0000
0000
0100
0000
,
0000
0000
0010
0000
,
0000
0000
0010
0000
,
0000
0000
0000
0000
,
1000
0000
0000
0000
;
