#TITLE:Meet My Friend (B4 ZA Beat Mix);
#SUBTITLE:;
#ARTIST:Eddy Huntington;
#TITLETRANSLIT:;
#SUBTITLETRANSLIT:;
#ARTISTTRANSLIT:;
#GENRE:;
#CREDIT:SupremeX;
#BANNER:Meet my Friend.PNG;
#BACKGROUND:Meet my Friend-bg.PNG;
#LYRICSPATH:;
#CDTITLE:CDTitle.png;
#MUSIC:Meet my Friend.ogg;
#OFFSET:-0.020485;
#SAMPLESTART:18.620001;
#SAMPLELENGTH:12.000000;
#SELECTABLE:YES;
#BPMS:0.000000=154.000000
;
#STOPS:
;
#BGCHANGES:16.000=heart2.avi=1.000=0=0=1=====,
24.000=heart4.avi=1.000=0=0=1=====,
32.000=heart2.avi=1.000=0=0=1=====,
40.000=heart4.avi=1.000=0=0=1=====,
48.000=heart1.avi=1.000=0=0=1=====,
64.000=Kaliedoscope6.avi=1.000=0=0=1=====,
80.000=heart4.avi=1.000=0=0=1=====,
96.000=bear4.avi=1.000=0=0=1=====,
104.000=Kaliedoscope6.avi=1.000=0=0=1=====,
112.000=bear4.avi=1.000=0=0=1=====,
120.000=Kaliedoscope6.avi=1.000=0=0=1=====,
126.500=heart1.avi=1.000=0=0=1=====,
136.000=bear4.avi=1.000=0=0=1=====,
142.500=heart1.avi=1.000=0=0=1=====,
150.500=bear4.avi=1.000=0=0=1=====,
160.000=Kaliedoscope6.avi=1.000=0=0=1=====,
192.000=heart2.avi=1.000=0=0=1=====,
200.000=heart4.avi=1.000=0=0=1=====,
208.000=heart2.avi=1.000=0=0=1=====,
216.000=heart4.avi=1.000=0=0=1=====,
223.000=Meet my Friend-bg.PNG=1.000=0=0=1=====,
99999=-nosongbg-=1.000=0=0=0 // don't automatically add -songbackground-
;
#KEYSOUNDS:;
#ATTACKS:;

//---------------dance-single - ----------------
#NOTES:
     dance-single:
     :
     Hard:
     9:
     0.501761,0.533463,0.292694,0.000000,0.033772,312.000000,286.000000,26.000000,0.000000,0.000000,0.000000,0.501761,0.533463,0.292694,0.000000,0.033772,312.000000,286.000000,26.000000,0.000000,0.000000,0.000000:
0000
0000
0000
0000
,
0000
0000
0000
0000
,
0000
0000
0000
0000
,
0000
0000
0000
0000
,
0100
0010
1000
0001
0100
0010
1000
0001
,
0100
1000
0010
0100
0001
1000
0010
0100
,
0001
1000
0100
0010
0001
1000
0010
0000
,
0101
1000
1010
0101
,
0001
0100
0010
1000
0001
0100
0010
1000
,
0001
0000
1000
0100
0010
0001
1000
1000
,
0001
0010
0100
1000
0010
0100
0001
0000
,
1001
0010
0101
1010
,
1000
0000
0000
0000
0001
0000
0000
0100
0000
0000
0000
0000
0010
0000
1000
0000
,
0100
0000
0000
0000
0010
0000
0000
0001
0000
0000
0000
0000
0000
0000
0000
0000
,
1000
0010
0100
0001
,
1001
0010
0100
0000
,
0001
0000
0000
0000
1000
0000
0000
0100
0000
0000
0000
0000
0001
0000
0000
0000
,
1000
0000
0000
0000
0010
0000
0000
0100
0000
0000
0000
0000
0000
0000
0000
0000
,
1000
1001
0010
1000
,
0110
0101
1010
1001
,
0001
0000
0100
0000
0010
1000
0100
0000
,
0010
0000
1000
0000
0001
0100
0010
0000
,
1000
0000
0001
0000
0100
0010
1000
0000
,
0001
0000
0100
0000
0010
0100
0001
0000
,
1000
0100
0010
0001
0000
1000
1000
1000
,
0001
0010
0100
1000
0000
0001
0001
0001
,
1000
0000
1010
0000
0101
0000
0010
0100
,
0000
0001
1000
0000
0001
0000
1000
0000
,
0001
0010
0100
1000
0000
0001
1000
0100
,
0010
0001
1000
0010
0000
0100
0100
0100
,
0001
1000
0010
0100
0001
0000
1000
0100
,
0010
0000
0100
0010
0001
1000
0100
1000
,
0000
0001
0100
0000
0000
0001
0010
0001
,
0000
1000
0010
0000
0100
0000
0010
1000
,
0001
0000
0001
0000
0100
0010
1000
0001
,
0001
0000
1000
0000
0001
1000
0010
1000
,
0000
0010
0100
0000
0000
0001
0100
0001
,
0000
0100
0010
0000
1000
0001
0100
0000
,
0010
0000
0010
0000
0001
0000
1000
0010
,
0100
0001
1000
0010
0100
0001
1000
0000
,
0010
0000
0000
0000
0001
0000
0000
0100
0000
0000
0000
0000
0010
0000
0000
0000
,
1000
0001
0010
0100
1000
0000
0000
0000
,
0010
0100
0001
1000
,
0110
1001
0101
0010
,
1000
0000
0000
0000
0010
0000
0000
0100
0000
0000
0000
0000
0001
0000
0000
0000
,
1000
0100
0010
0001
0100
0000
0000
0000
,
0001
1000
0010
0100
,
0001
1010
0101
0110
,
0001
0100
0010
1000
0001
0100
0010
0000
,
1000
0100
0010
0001
1000
0010
0100
0001
,
1000
0100
0001
0010
0100
1000
0010
0100
,
0001
1010
0101
1010
,
0001
0100
0010
1000
0001
0100
0000
0001
,
0010
0100
1000
0010
0001
1000
0010
0100
,
0001
0010
0100
1000
0010
0001
0010
0100
,
1000
0101
1010
1001
;

//---------------dance-single - ----------------
#NOTES:
     dance-single:
     :
     Medium:
     6:
     0.376321,0.407942,0.225149,0.011257,0.039401,234.000000,214.000000,20.000000,1.000000,0.000000,0.000000,0.376321,0.407942,0.225149,0.011257,0.039401,234.000000,214.000000,20.000000,1.000000,0.000000,0.000000:
0000
0000
0000
0000
,
0000
0000
0000
0000
,
0000
0000
0000
0000
,
0000
0000
0000
0000
,
0001
0010
0100
1000
,
0010
0100
0001
1000
,
0001
0100
0010
0000
1000
0010
0100
0000
,
0001
1000
0101
0101
,
0010
1000
0010
0100
,
0001
1000
0010
0100
,
0001
1000
0100
0000
0010
1000
0001
0000
,
0100
0001
1010
1010
,
0100
0000
0000
0000
0001
0000
0000
1000
0000
0000
0000
0000
0100
0000
0000
0000
,
0001
0000
0000
0000
1000
0000
0000
0100
0000
0000
0000
0000
0000
0000
0000
0000
,
0001
0100
0010
1000
,
1010
0100
0001
1000
,
0010
0000
0000
0000
0100
0000
0000
0001
0000
0000
1000
0000
0100
0000
0000
0000
,
0010
0000
0000
0000
0001
0000
0000
1000
0000
0000
0000
0000
0100
0000
0000
0000
,
0001
1000
0010
0100
,
1001
0001
0100
1010
,
0001
0000
1000
0000
0001
0100
0001
0000
,
1000
0000
0001
0000
1000
0010
1000
0000
,
0001
0000
0100
0000
0010
1000
0010
0000
,
1000
0000
0010
0000
0100
0001
0100
0000
,
1000
0000
0001
0010
0000
0100
0000
0000
,
1000
0000
0001
0010
0000
0100
0000
0000
,
1000
0000
0010
0000
0100
0000
0001
1000
,
0000
0101
0000
0000
0010
0000
1000
0000
,
0001
0100
0010
0000
0100
0000
0001
0000
,
1000
0000
0010
0100
0000
0010
0000
0000
,
1000
0001
0100
0010
,
1000
0000
0001
0000
0100
0010
0010
0010
,
0000
0000
1000
0000
0000
0001
0001
0001
,
0000
0100
0000
1000
,
0010
0000
0001
0000
1000
0000
0100
0010
,
0000
0000
0000
0000
0000
0001
0001
0001
,
0000
0000
1000
0000
0000
0100
0100
0100
,
0000
0000
0010
0000
0000
1000
0010
0000
,
0100
0001
1000
0110
,
0002
0000
0000
0003
,
1000
0000
0000
0000
0010
0000
0000
0100
0000
0000
0000
0000
0001
0000
0000
0000
,
1000
0000
0000
0000
0010
0000
0000
0100
0000
0000
0000
0000
0000
0000
0000
0000
,
0001
0100
1010
1000
,
1001
0001
0100
0010
,
1000
0000
0000
0000
0001
0000
0000
0100
0000
0000
0000
0000
0010
0000
0000
0000
,
1000
0001
0100
0000
0001
0000
0000
0000
,
1000
0010
0100
0001
,
1000
1010
0101
1001
,
0010
0100
0001
1000
,
0010
0100
0001
1000
,
0110
0010
1000
0100
,
0001
1000
0101
0101
,
0010
0000
1000
0000
0001
0100
0000
0000
,
0001
0000
1000
0000
0010
0100
0100
0100
,
0001
1000
0001
1000
,
0010
0101
0110
1001
;

//---------------dance-single - ----------------
#NOTES:
     dance-single:
     :
     Easy:
     3:
     0.262138,0.313802,0.011257,0.000000,0.033772,163.000000,162.000000,1.000000,0.000000,0.000000,0.000000,0.262138,0.313802,0.011257,0.000000,0.033772,163.000000,162.000000,1.000000,0.000000,0.000000,0.000000:
0000
0000
0000
0000
,
0000
0000
0000
0000
,
0000
0000
0000
0000
,
0000
0000
0000
0000
,
1000
1000
0001
0001
,
0100
0010
0100
0010
,
1000
1000
0001
0001
,
0100
0010
0100
0010
,
1000
0001
1000
0001
,
0100
0100
0010
0010
,
1000
0001
1000
0001
,
0100
0010
0100
0010
,
1000
0000
0000
0000
0100
0000
0000
0001
0000
0000
0000
0000
0010
0000
0000
0000
,
1000
0100
0001
0000
,
1000
0010
0100
0001
,
1000
0000
0000
0000
,
0001
0000
0000
0000
0100
0000
0000
0010
0000
0000
0000
0000
1000
0000
0000
0000
,
0001
0000
0000
0000
1000
0000
0000
0010
0000
0000
0000
0000
0000
0000
0000
0000
,
0100
0001
0010
1000
,
0100
0001
0100
0001
,
1000
1000
0010
0010
,
0100
0100
0001
0001
,
1000
1000
0010
0010
,
0100
0100
0001
0001
,
1000
0000
0000
0010
0000
0000
0000
0000
,
0100
0000
0000
0001
0000
0000
0000
0000
,
1000
0000
0010
0000
0100
0000
0000
0001
,
0000
0000
0000
0000
,
1000
0000
0000
0010
0000
0000
0000
0000
,
0100
0000
0000
0001
0000
0000
0000
0000
,
1000
0100
0010
0100
,
0010
0000
0001
0000
0000
0000
0000
1000
,
0000
0000
0000
0000
0000
0000
0000
0010
,
0000
0000
0000
0000
,
0100
0100
0001
0000
,
0000
0000
0000
0000
0000
0000
0000
1000
,
0000
0000
0000
0000
0000
0000
0000
0010
,
0000
0000
0000
0000
,
0100
0100
0001
0000
,
0000
0000
0000
0000
,
1000
0000
0000
0000
0001
0000
0000
0001
0000
0000
0000
0000
0100
0000
0000
0000
,
0010
1000
0001
0000
,
1000
0010
0100
0001
,
1000
0000
0000
0000
,
0001
0000
0000
0000
0000
1000
0000
0000
1000
0000
0000
0000
0010
0000
0000
0000
,
0100
0000
0000
0000
0001
0000
0000
1000
0000
0000
0000
0000
0000
0000
0000
0000
,
0010
0100
0001
1000
,
0100
0010
0100
0010
,
1000
0001
0100
0001
,
1000
1000
0010
0010
,
0100
0001
0100
0001
,
1000
0010
1000
0010
,
0100
0100
0001
0001
,
1000
0010
1000
0010
,
0100
0001
0100
0001
,
1000
0001
1000
1001
;

//---------------dance-single - ----------------
#NOTES:
     dance-single:
     :
     Beginner:
     2:
     0.099709,0.156197,0.000000,0.000000,0.000000,62.000000,62.000000,0.000000,0.000000,0.000000,0.000000,0.099709,0.156197,0.000000,0.000000,0.000000,62.000000,62.000000,0.000000,0.000000,0.000000,0.000000:
0000
0000
0000
0000
,
0000
0000
0000
0000
,
0000
0000
0000
0000
,
0000
0000
0000
0000
,
0001
0000
0000
0000
,
1000
0000
0000
0000
,
0001
0000
0000
0000
,
1000
0000
0000
0000
,
0010
0000
0000
0000
,
0100
0000
0000
0000
,
0010
0000
0000
0000
,
0100
0000
0000
0000
,
0001
0000
0000
0000
,
1000
0000
0000
0000
,
0001
0000
0000
0000
,
1000
0000
0000
0000
,
0010
0000
0000
0000
,
0100
0000
0000
0000
,
0010
0000
0000
0000
,
0100
0000
0000
0000
,
0001
0000
0000
0000
,
0001
0000
0000
0000
,
0001
0000
0000
0000
,
0001
0000
0000
0000
,
1000
0000
0000
0000
,
1000
0000
0000
0000
,
1000
0000
0000
0000
,
1000
0000
0000
0000
,
0010
0000
0000
0000
,
0010
0000
0000
0000
,
0010
0000
0000
0000
,
0010
0000
0000
0000
,
0100
0000
0000
0000
,
0100
0000
0000
0000
,
0100
0000
0100
0000
,
0100
0000
0000
0000
,
0001
0000
0000
0000
,
0001
0000
0000
0000
,
0001
0000
0001
0000
,
0001
0000
0000
0000
,
1000
0000
0000
0000
,
1000
0000
0000
0000
,
0001
0000
0000
0000
,
0001
0000
0000
0000
,
0100
0000
0000
0000
,
0100
0000
0000
0000
,
0010
0000
0000
0000
,
0010
0000
0000
0000
,
1000
0000
0001
0000
,
1000
0000
0001
0000
,
1000
0000
0001
0000
,
1000
0000
0001
0000
,
0100
0000
0010
0000
,
0100
0000
0010
0000
,
0100
0000
0010
0000
,
0100
0000
0100
0000
;
