#TITLE:MISSION to the night;
#SUBTITLE:;
#ARTIST:忍迅雷音;
#TITLETRANSLIT:;
#SUBTITLETRANSLIT:;
#ARTISTTRANSLIT:Ninjinriot;
#GENRE:;
#CREDIT:SupremeX;
#BANNER:MISSION to the night.png;
#BACKGROUND:MISSION to the night-bg.png;
#LYRICSPATH:;
#CDTITLE:CDTitle.png;
#MUSIC:MISSION to the night.ogg;
#OFFSET:-0.805571;
#SAMPLESTART:57.709999;
#SAMPLELENGTH:12.000000;
#SELECTABLE:YES;
#BPMS:0.000000=170.020004
;
#STOPS:
;
#BGCHANGES:32.000=nyc1.avi=1.000=0=0=1=====,
48.000=people.avi=1.000=0=0=1=====,
68.000=nyev3piano.avi=1.000=0=0=1=====,
131.500=nyc1.avi=1.000=0=0=1=====,
148.000=blinds1.avi=1.000=0=0=1=====,
164.000=blizzard1.avi=1.000=0=0=1=====,
179.500=nyc1.avi=1.000=0=0=1=====,
196.000=blizzard1.avi=1.000=0=0=1=====,
212.000=people.avi=1.000=0=0=1=====,
228.000=nyev3piano.avi=1.000=0=0=1=====,
260.000=MISSION to the night-bg.png=1.000=0=0=1=====,
99999=-nosongbg-=1.000=0=0=0 // don't automatically add -songbackground-
;
#KEYSOUNDS:;
#ATTACKS:;

//---------------dance-single - ----------------
#NOTES:
     dance-single:
     :
     Beginner:
     1:
     0.088152,0.194076,0.099526,0.049763,0.000000,62.000000,52.000000,10.000000,5.000000,0.000000,0.000000,0.088152,0.194076,0.099526,0.049763,0.000000,62.000000,52.000000,10.000000,5.000000,0.000000,0.000000:
0000
0000
0000
0000
,
0000
0000
0000
0000
,
0000
0000
0000
0000
,
0000
0000
0000
0000
,
0001
0000
0000
0000
,
1000
0000
0000
0000
,
0001
0000
0000
0000
,
1000
0000
0000
0000
,
0001
0000
0000
0000
,
0010
0000
0000
0000
,
0001
0000
0000
0000
,
0100
0000
0000
0000
,
2000
0000
0000
3000
,
0002
0000
0000
0003
,
0100
0000
0000
0000
,
1000
0000
0000
0000
,
0010
0000
0000
0000
,
2000
0000
0000
0000
,
0000
0000
0000
0000
0000
3000
0000
0000
,
0000
0200
0000
0000
,
0000
0000
0000
0300
,
0000
0000
0000
0000
,
0001
0000
0000
0000
,
0100
0000
0000
0000
,
1000
0000
0000
0000
,
0001
0000
0000
0000
,
1000
0000
0000
0000
,
0100
0000
0000
0000
,
0010
0000
0000
0000
,
1000
0000
0000
0000
,
1000
0000
0000
0000
,
0001
0000
0000
0000
,
1001
0000
0000
0000
,
1010
0000
0000
0000
,
1010
0000
0000
0000
,
0001
0000
0000
0000
,
0000
0000
0000
0000
,
0011
0000
0000
0000
,
0011
0000
0000
0000
,
1000
0000
0000
0000
,
1000
0000
0000
0000
,
0010
0000
0000
0000
,
0100
0000
0000
0000
,
0001
0000
0000
0000
,
1100
0000
0000
0000
,
0010
0000
0000
0000
,
0100
0000
0000
0000
,
1000
0000
0000
0000
,
0001
0000
0000
0000
,
0010
0000
0000
0000
,
1000
0000
0000
0000
,
0110
0000
0000
0000
,
0001
0000
0000
0000
,
1000
0000
0000
0000
,
0100
0000
0000
0000
,
0010
0000
0000
0000
,
0000
0000
0000
0000
,
0200
0000
0000
0000
,
0000
0000
0000
0300
,
0000
0000
0000
0000
,
0000
0000
0000
0000
,
1001
0000
0000
0000
,
0000
0000
0000
0000
,
1001
0000
0000
0000
,
0000
0000
0000
0000
,
1001
0000
0000
0000
;

//---------------dance-single - ----------------
#NOTES:
     dance-single:
     :
     Easy:
     3:
     0.295735,0.388152,0.328437,0.109479,0.000000,208.000000,175.000000,33.000000,11.000000,0.000000,0.000000,0.295735,0.388152,0.328437,0.109479,0.000000,208.000000,175.000000,33.000000,11.000000,0.000000,0.000000:
0000
0000
0000
0000
,
0000
0000
0000
0000
,
0000
0000
0000
0000
,
0000
0000
0000
0000
,
0010
0010
0010
0010
,
0010
0010
0010
0010
,
0100
0100
0100
0100
,
0200
0000
0000
0300
,
0001
1000
0001
1000
,
1010
0001
0100
0010
,
1010
0001
0100
0010
,
0011
0000
1100
0000
,
0001
0010
1010
0000
,
0100
0010
0011
0000
,
1000
0001
1000
0010
,
0200
0000
0000
0300
,
0002
0000
0000
0000
,
2003
0000
0000
0000
,
0000
0000
0000
0000
0000
3000
0000
0000
,
0000
0200
0000
0000
,
0000
0000
0300
0000
,
1000
0000
0001
0000
,
1000
0000
0010
0000
,
1000
0000
0001
0000
,
1000
0000
0010
0000
,
1000
0001
1000
0001
,
1000
0010
1000
0001
,
1000
0010
1000
0100
,
1000
0100
1000
0100
,
0001
1000
0010
0100
,
0001
1000
1000
0000
,
0110
0000
0000
0000
1100
0000
0000
2002
,
0000
0000
0000
0000
0000
3003
0000
0000
,
1000
0001
1001
0000
,
0010
1000
0110
0000
,
0001
1000
0001
0100
,
1000
0010
0001
0000
,
1100
0000
0000
1100
0000
0000
0000
0000
,
0011
1000
0010
0100
,
0002
0000
0000
0000
2003
0000
0000
3010
,
0000
0000
0001
0100
,
0001
1000
0010
1000
,
0100
0001
0101
0000
,
1000
0100
0010
0001
,
0010
0100
1010
0000
,
1001
0000
0010
1000
,
0010
0100
0001
1000
,
0002
0000
0000
0000
0000
1003
1000
1000
,
0000
0000
0001
1000
,
0010
0100
1000
0001
,
0100
0010
1010
0000
,
0001
0000
0100
0000
0010
0000
0000
1100
,
0000
0011
0000
0110
0000
1001
0000
0000
,
1000
0010
0100
0000
,
0001
0100
0010
0000
,
2000
0000
0000
0000
0000
0000
0000
3000
,
0001
0000
0100
0010
,
1001
0000
0110
0000
,
1010
0000
0101
0000
,
0110
0000
1001
0000
,
1010
0000
0101
0000
,
0110
1000
0100
0010
,
0001
0010
0100
1000
,
1001
0010
0100
1000
,
0100
0010
0001
1000
,
1001
0000
0000
0000
;

//---------------dance-single - Copied from----------------
#NOTES:
     dance-single:
     Copied from:
     Medium:
     7:
     0.361138,0.452844,0.039811,0.149289,0.044787,254.000000,250.000000,4.000000,15.000000,0.000000,0.000000,0.361138,0.452844,0.039811,0.149289,0.044787,254.000000,250.000000,4.000000,15.000000,0.000000,0.000000:
0000
0000
0000
0000
,
0000
0000
0000
0000
,
0000
0000
0000
0000
,
0000
0000
0000
0000
,
1000
0010
1000
0001
,
0100
0001
1000
0010
,
1000
0001
0100
0000
0001
0000
0100
0000
,
0010
1000
0001
0100
0010
0001
1000
0010
,
2000
0010
3010
0100
,
0002
0100
0103
0010
,
2000
0010
3010
0100
,
0001
1000
0010
0000
,
0100
0000
0000
0001
0000
0000
0100
0000
0010
0000
0000
0000
0000
0000
0000
0000
,
1000
0000
0000
0010
0000
0000
1000
0000
0100
0000
0000
0000
0000
0000
0000
0001
,
0100
0000
0000
0010
0000
0000
0010
0000
1000
0000
0000
0100
0000
0000
0010
0000
,
0002
0000
0000
0000
0000
0000
0000
0000
0000
0000
0000
0000
0000
0000
0000
0003
,
1000
0000
0010
0000
0100
0001
1000
0000
,
0020
0000
0100
0000
,
0100
0000
0130
0000
,
0000
0001
0100
1000
0010
0001
0000
0100
,
0000
0010
0000
1000
0000
0000
0000
0000
,
0010
0000
0100
0000
0001
0000
1000
0010
,
0000
0001
0100
0001
0000
0000
0000
0000
,
1000
0000
0010
0000
0100
0000
0001
0010
,
0000
1000
0001
0200
0000
0000
0300
0000
,
0010
1000
0010
0100
,
0001
0000
0100
0000
0010
0000
1000
0100
,
0001
0100
0010
1000
,
0001
0100
0010
0000
,
1000
0000
0010
0000
0100
0000
0001
0100
,
0000
0010
0100
1000
0000
0000
0000
0000
,
0001
0000
0100
0000
0001
0000
1000
0010
,
0000
0100
1000
0000
0011
0000
0000
0000
,
1000
0000
0000
0010
0000
0000
1000
0000
0001
0000
0000
0000
0000
0000
0000
0000
,
0100
0000
0000
0001
0000
0000
0100
0000
0010
0000
0000
0000
0000
0000
1000
0000
,
1000
0000
0001
0001
0000
0100
0000
0010
,
0000
1000
0000
0001
0000
0000
0000
0000
,
2000
0000
3000
0020
0000
0030
0000
0000
,
0100
0000
0001
0000
0100
0000
0010
1000
,
0010
0000
0100
0000
0001
1000
0010
0200
,
0000
0000
0300
0001
1000
0001
0010
0100
,
1000
0010
0100
1000
,
0001
1000
0000
0010
0100
0000
0000
0000
,
0001
1000
0010
0100
,
0001
0000
1000
0010
0000
0100
0001
0000
,
0200
0000
0000
0300
0001
0000
1000
0000
,
0020
0000
0000
0030
1000
0000
0001
0000
,
2000
0000
0000
3000
0000
0010
0100
0010
,
0000
0000
0000
0000
1000
0001
0010
1000
,
0100
0000
0010
0000
0001
0000
0000
1000
,
0000
0010
1000
0100
0000
0001
0010
0000
,
1000
0000
0010
0000
1000
0000
0000
0100
,
0000
0010
0000
0101
0000
1010
0000
0000
,
0001
0000
0000
1000
0000
0000
0100
0000
0002
0000
0000
0000
0003
0000
0000
0000
,
0100
0000
0000
0010
0000
0000
1000
0000
0200
0000
0000
0000
0300
0000
0010
0000
,
0002
0000
0000
0000
,
0103
0010
1000
0001
,
1001
0010
0100
1000
,
0010
0100
0001
0010
,
0100
1000
0010
0100
,
0001
0100
0010
1000
,
0010
0100
0010
0000
0100
0000
0001
0000
,
0100
0010
1000
0010
,
0100
0001
1000
0000
0100
0000
0010
0000
,
0001
0100
0010
0000
1000
0001
0100
0010
,
1000
0000
0000
0000
;

//---------------dance-single - Copied from----------------
#NOTES:
     dance-single:
     Copied from:
     Hard:
     9:
     0.464930,0.679267,0.139337,0.228910,0.164218,327.000000,313.000000,14.000000,23.000000,0.000000,0.000000,0.464930,0.679267,0.139337,0.228910,0.164218,327.000000,313.000000,14.000000,23.000000,0.000000,0.000000:
0000
0000
0000
0000
,
0000
0000
0000
0000
,
0000
0000
0000
0000
,
0000
0000
0000
0000
,
1000
0010
0100
0000
0001
0000
0100
0000
,
0001
1000
0010
1000
,
0001
0100
0010
0000
1000
0000
0001
0000
,
1000
0000
0001
0000
0100
0000
0010
0000
1000
0001
0100
0010
1000
0001
0100
0010
,
2000
0100
3100
0010
,
0002
0100
0100
0103
,
0020
1000
1000
1030
,
0200
0000
0301
0010
,
1000
0000
0000
0001
0000
0000
0100
0000
0010
0000
0000
0000
0000
0000
1000
0010
,
1000
0000
0000
0001
0000
0000
0100
0000
0010
0000
0000
0000
0000
0000
0000
1000
,
0010
1000
0000
0010
0000
0000
0100
0000
0001
0000
0000
0010
0000
0000
1000
0000
,
0020
0000
0000
0000
0000
0000
0000
0030
,
1000
0100
0010
0001
0100
0010
0100
0001
,
0000
1000
0010
0001
0100
1000
0000
0010
,
0000
0101
0000
2002
0000
0000
3003
0000
,
0000
0001
0100
1000
0010
0001
0000
0100
,
0000
0000
1010
0000
0000
0000
2002
0000
0000
0000
0000
0000
3003
0000
1000
0001
,
1000
0000
0010
0000
0100
0000
0001
1000
,
0000
0000
0010
0000
0001
0000
1000
0000
0000
0000
0000
0000
0000
0000
0000
0001
,
0010
0001
0000
0000
0200
0000
0000
0000
0310
0000
0000
0000
0001
0000
0100
0000
,
0000
1000
0001
0020
0000
0000
0030
0000
,
0001
0100
1000
0100
0010
0001
0000
1000
,
0000
0010
0000
0200
0000
0000
0000
0300
,
0000
0010
1000
0100
0010
0001
0000
0100
,
0000
0000
1000
0000
0000
0000
0020
0000
0000
0000
0000
0000
0030
0000
0100
0010
,
0100
0000
0001
0000
1000
0000
0001
0010
,
0000
1000
0010
0100
0000
0000
0000
0001
,
0010
0000
1000
0000
0110
0000
0001
0100
,
0000
0000
0010
0000
1000
0000
0000
0000
1001
0000
0000
0000
0000
0000
0010
1000
,
0010
0000
0000
0100
0000
0000
0001
0000
0100
0000
0000
0000
0000
0000
0000
0000
,
0010
0000
0000
1000
0000
0000
0001
0000
0100
0000
0000
0000
0000
0000
0010
0000
,
1000
0000
0100
0100
0000
0001
0000
0100
,
0000
1010
0000
0101
0000
0000
0000
0000
,
1000
0000
0000
0010
0000
0000
0200
0000
0000
0000
0300
0000
0000
0000
0000
0000
,
0001
0000
0000
0010
0000
0000
0100
0000
0000
0000
0010
0000
1000
0000
0001
0000
,
1000
0000
0010
0100
0001
1000
0010
0200
,
0000
0001
0301
0010
1000
0010
0100
0000
,
0001
0000
0000
0010
1000
0010
0100
0100
,
0000
0000
0001
0000
0010
0000
0002
0000
0000
0000
0000
0000
0000
0003
0000
0100
,
0001
0100
0001
0000
0000
0000
0010
0000
0000
0000
1000
0000
0000
0000
0110
0000
,
0000
0000
0001
0000
0100
0000
0001
0000
0000
0000
0100
0000
0010
0000
1000
0001
,
0200
0000
0000
0000
0000
0000
0300
0000
0001
0000
0000
0001
0000
0000
0100
0000
,
0010
1000
0001
0110
,
2002
0000
0000
3003
0000
0100
0010
0100
,
0001
1000
0100
0010
0001
0100
0010
1000
,
0001
0000
0000
0010
0000
1000
0001
0001
,
0000
0000
0010
0000
1000
0000
0200
0000
0000
0000
0300
0000
0000
0000
0010
0100
,
0010
0100
0001
0010
1000
0100
0000
0010
,
0000
0001
0000
0110
0000
1100
0000
0000
,
0001
0000
0000
0010
0000
0000
1000
0000
0200
0000
0000
0000
0300
0000
0010
0100
,
0010
0000
0000
1000
0000
0000
0001
0000
2000
0000
0000
0000
3000
0000
0001
0100
,
0002
0000
0000
0000
0000
0000
0000
0003
,
1000
0010
0100
0001
,
0110
1000
0001
0100
,
0010
1000
0010
0100
,
0010
1000
0001
0100
0010
0100
0010
0001
,
0100
0001
0010
0100
1000
0010
1000
0000
,
0001
0100
0010
0000
1000
0000
0010
0000
,
0100
0001
1000
0010
,
0100
0010
1000
0100
0010
0001
0100
0001
,
0010
0000
1000
0000
0100
0000
1000
0000
0010
0100
0001
1000
0010
0100
0001
1000
,
0010
0000
0000
0000
;
