#TITLE:MEGALOMAN[i]A;
#SUBTITLE:;
#ARTIST:TITANZ;
#TITLETRANSLIT:;
#SUBTITLETRANSLIT:;
#ARTISTTRANSLIT:;
#GENRE:;
#CREDIT:SupremeX;
#BANNER:MEGALOMAN[i]A.png;
#BACKGROUND:MEGALOMAN[i]A-bg.png;
#LYRICSPATH:;
#CDTITLE:CDTitle.png;
#MUSIC:MEGALOMAN[i]A.ogg;
#OFFSET:-2.371387;
#SAMPLESTART:21.780001;
#SAMPLELENGTH:12.000000;
#SELECTABLE:YES;
#BPMS:0.000000=100.000000
,32.000000=200.000000
,231.000000=100.000000
,246.500000=210.000000
;
#STOPS:107.000000=0.300000,
260.500000=0.290000
;
#BGCHANGES:16.000=nyevbill.avi=1.000=0=0=1=====,
32.000=wave145.avi=1.000=0=0=1=====,
64.000=pikapika.avi=1.000=0=0=1=====,
96.000=nyev2piano.avi=1.000=0=0=1=====,
127.000=pikapika.avi=1.000=0=0=1=====,
159.000=nyevbill.avi=1.000=0=0=1=====,
191.000=pikapika.avi=1.000=0=0=1=====,
231.000=nyev2piano.avi=1.000=0=0=1=====,
247.000=nyevbill.avi=1.000=0=0=1=====,
276.500=MEGALOMAN[i]A-bg.png=1.000=0=0=1=====,
99999=-nosongbg-=1.000=0=0=0 // don't automatically add -songbackground-
;
#KEYSOUNDS:;
#ATTACKS:;

//---------------dance-single - ----------------
#NOTES:
     dance-single:
     :
     Beginner:
     1:
     0.153708,0.167512,0.000000,0.009693,0.000000,111.000000,111.000000,0.000000,1.000000,0.000000,0.000000,0.153708,0.167512,0.000000,0.009693,0.000000,111.000000,111.000000,0.000000,1.000000,0.000000,0.000000:
0000
0000
0000
0000
,
0000
0000
0000
0000
,
0000
0000
0000
0000
,
0000
0000
0000
0000
,
0001
0000
0010
0000
,
0100
0000
1000
0000
,
0001
0000
0010
0000
,
0100
0000
1000
0000
,
0001
0000
1000
0000
,
0010
0000
0100
0000
,
0010
0000
1000
0000
,
0001
0000
0000
1000
0000
0000
0000
1000
,
0000
0000
0010
0000
,
0100
0000
0000
0010
0000
0000
0000
0010
,
0000
0000
0100
0000
,
0001
0000
0001
0000
,
0001
0000
1000
0000
,
0001
0000
1000
0000
,
0001
0000
0100
0000
,
0010
0000
0100
0000
,
0001
0000
1000
0000
,
0001
0000
1000
0000
,
0001
0000
1000
0000
,
0001
0000
0100
0000
,
0010
0000
0000
0000
,
0010
0000
0000
0000
,
0010
0000
0000
0000
,
0100
0100
0100
0000
,
0000
0000
1000
0000
,
0000
0000
1000
0000
,
0000
0000
1000
0000
,
0000
0000
0000
0000
,
0001
0000
0001
0000
,
0001
0000
0001
0000
,
0010
0000
0010
0000
,
0010
0000
0000
0000
,
0100
0000
0100
0000
,
0100
0000
1000
0000
,
1000
0010
0000
0000
,
0000
0000
0000
0100
,
0000
0010
0000
0100
,
0000
0010
0000
1000
,
0000
0001
0000
1000
,
0000
0001
0000
0100
,
0000
0010
0000
0100
,
0000
0010
0000
1000
,
0000
0001
0000
1000
,
0000
0001
0000
0100
,
0000
0000
0000
0010
,
0000
0000
0000
0000
,
0100
0000
0000
0000
,
0000
0000
0000
1000
,
0000
0100
0000
0010
,
0000
0001
0000
1000
,
0000
0100
0000
0010
,
0000
0001
0000
0200
,
0000
0000
0000
0000
,
0000
0000
0000
0300
0000
0000
1000
0000
,
0000
0000
0000
0001
,
0000
0000
0000
1000
,
0000
0000
0000
0001
,
0000
0000
0000
1000
,
0000
1000
0000
1000
,
0000
0010
0000
0100
,
0000
0010
0000
0100
,
0000
0001
0000
0000
1000
0000
0000
0000
,
0010
0000
0100
0000
,
0010
0000
1000
0000
,
0010
0000
0000
0000
0100
0000
0000
0001
,
0000
0001
0000
0000
0000
0000
0000
0000
;

//---------------dance-single - ----------------
#NOTES:
     dance-single:
     :
     Hard:
     10:
     0.696533,0.785885,0.581598,0.077546,0.436199,503.000000,443.000000,60.000000,8.000000,0.000000,0.000000,0.696533,0.785885,0.581598,0.077546,0.436199,503.000000,443.000000,60.000000,8.000000,0.000000,0.000000:
0000
0000
0000
0000
,
0000
0000
0000
0000
,
0000
0000
0000
0000
,
0000
0000
0000
0000
,
1010
1000
0100
0010
0001
0100
0101
0000
,
0010
1000
0001
0100
0010
1000
1010
0001
,
0100
0010
1000
0001
0100
0010
1001
0000
,
1000
0100
0000
0000
0100
0010
0000
0000
0010
0001
0000
0000
0100
0010
1000
0001
,
0100
0000
0010
1000
0010
0100
0000
0101
,
0000
1010
0000
1001
0000
0100
0010
0100
,
0001
1000
0010
1000
0100
0010
0000
0101
,
0000
1010
0000
0110
0000
0001
0100
0001
,
0010
0100
1000
0100
1000
0001
0000
0110
,
0000
0010
1000
0010
0100
0001
0100
0001
,
0010
0000
0100
0000
1000
0000
0010
0000
0100
0001
0100
0000
0001
0000
0011
0000
,
0000
0110
0000
1100
0000
1001
0100
0010
,
0110
0000
0000
0001
0010
0000
0000
0010
0100
0000
0000
0100
1000
0000
0000
1000
,
0100
0000
0000
0100
0010
0000
0000
0010
0001
0000
0000
0001
0100
0000
0000
0100
,
0010
0000
0000
0010
1000
0000
0000
1000
0100
0000
0000
0100
0010
0000
0000
0010
,
0001
0000
0000
0001
0100
0000
0000
0100
0010
0000
0000
0010
1000
0000
0000
1000
,
0001
0010
0100
1000
0010
0100
0010
1000
,
0100
1000
0001
0010
0001
1000
0100
0010
,
0001
0100
0010
0100
0001
0010
0001
1000
,
0010
1000
0001
0000
0110
0000
1100
0000
,
1001
0000
0000
0010
0100
0000
0000
0100
0010
0000
0000
0010
1000
0000
0000
1000
,
0100
0000
0000
0100
0010
0000
0000
0010
0001
0000
0000
0001
0100
0000
0000
0100
,
0010
0000
0000
0010
1000
0000
0000
1000
0001
0000
0000
0001
0100
0000
0010
0000
,
0100
0000
0000
0000
0101
0000
0000
0000
1010
0000
0000
0001
0100
0000
0000
0100
,
0010
0000
0000
0010
1000
0000
0000
1000
0100
0000
0000
0100
0010
0000
0000
0010
,
0001
0000
0000
0001
0010
0000
0000
0010
0100
0000
0000
0100
1000
0000
0000
1000
,
0010
0000
0000
0010
0100
0000
0000
0100
0001
0000
0000
0000
1000
0000
1010
0000
,
0000
0100
0101
0000
1010
0000
0100
0000
,
0010
0000
1000
1000
0000
0011
0000
0110
,
0000
1100
0000
1001
0000
0010
0010
0000
,
1000
0000
0001
0100
0000
0010
0000
1001
,
0000
0101
0000
1000
0001
1000
0010
0000
,
0100
0000
0010
1000
0000
0011
0000
0110
,
0000
1001
0000
0100
0010
0100
0000
0001
,
0010
0100
1000
0001
0100
0001
0000
1000
,
0000
0001
0000
0110
0000
0110
0001
1000
,
0010
0000
1000
0000
0001
0000
0010
0000
0100
0000
0010
1000
0010
0000
0100
0000
,
0001
0000
1000
0000
0001
0000
0100
0000
0010
0000
0100
0001
0100
0000
0010
0000
,
1000
0000
0100
0000
0010
0000
0001
0000
0100
0000
0010
1000
0010
0000
0100
0000
,
0010
1000
0001
0100
0000
0000
0010
0100
,
0010
0000
1000
0000
0100
0000
1000
0000
0001
0000
0010
0001
0010
0000
0100
0000
,
1000
0000
0010
0000
0100
0000
0010
0000
1000
0000
0010
0100
0010
0000
1000
0000
,
0100
0000
0010
0000
0001
0000
0100
0000
0010
0000
0100
0010
0100
0000
0001
0000
,
1000
0010
0100
0001
1000
0000
1001
0000
,
0020
0000
0230
0000
,
0302
0000
0000
0000
2003
0000
0000
3000
,
0020
0000
0000
0000
0030
0000
0000
0000
0100
0001
0100
0001
0100
0000
0010
0000
,
0000
1000
0000
1001
0000
0000
0110
0000
,
0011
0110
1010
0101
,
1001
0110
1100
0011
,
0101
1010
0101
1001
,
1001
0000
0000
0000
0100
0010
1000
0001
0100
0010
1000
0001
0200
0000
0000
0000
,
0000
0000
0000
0000
0000
0300
0020
0000
,
0000
0000
0000
0000
0000
0030
1000
0001
,
1000
0010
0000
0110
0000
0100
0000
1100
0000
0001
0000
0101
0000
0000
0100
0000
,
0001
0010
0000
0100
0000
1100
0000
0010
0000
0100
0001
0100
0000
0001
0000
0010
,
0100
0000
1000
0000
0110
0000
0010
0000
0011
0000
0110
0000
1000
0000
0000
0010
,
1000
0000
0001
0000
0100
0000
0001
0000
0100
0010
0100
0000
0001
0000
1000
0000
,
0010
1000
0100
0010
0001
0100
0001
0100
,
0010
1000
0010
0100
0001
1000
0100
0010
,
0001
0100
0010
0100
0001
0010
0001
0011
,
0000
0000
1010
0100
0001
0000
0000
0001
0100
0000
0000
0100
0010
0000
0000
0010
,
1000
0000
0000
1000
0100
0000
0000
0100
0010
0000
0000
0010
0001
0000
0000
0001
,
1000
0000
0000
1000
0100
0000
0000
0100
0010
0000
0000
0010
0001
0000
0000
0001
,
0100
0000
0000
0100
0010
0000
0000
0010
1000
0000
0001
0000
0100
0010
0100
0010
,
0100
0010
0200
0000
0000
0000
0000
0000
0000
0000
0000
0000
0000
0000
0000
0000
,
0000
0000
0300
0000
;

//---------------dance-single - ----------------
#NOTES:
     dance-single:
     :
     Medium:
     8:
     0.528977,0.649209,0.397425,0.077546,0.116320,382.000000,341.000000,41.000000,8.000000,0.000000,0.000000,0.528977,0.649209,0.397425,0.077546,0.116320,382.000000,341.000000,41.000000,8.000000,0.000000,0.000000:
0000
0000
0000
0000
,
0000
0000
0000
0000
,
0000
0000
0000
0000
,
0000
0000
0000
0000
,
0100
0001
1000
0010
0100
0001
1000
0000
,
0001
0010
0100
1000
0010
0100
0010
0000
,
1000
0100
0010
0001
0100
0010
0100
0000
,
0001
0000
0011
0000
1100
0000
0001
0001
,
0100
0000
0010
1000
0010
0100
0000
0001
,
0000
0010
0000
0001
0000
1000
0100
1000
,
0100
0010
0001
0100
0010
0100
0000
0010
,
0000
1000
0000
0010
0000
0100
0001
1000
,
0010
0100
0001
1000
0010
0100
0000
0110
,
0000
0001
0000
1000
0000
0001
0000
0100
,
0000
0010
1000
0001
1000
0100
0010
0001
,
0000
0100
0000
0010
0000
1000
0001
0100
,
0001
1000
0010
1001
,
0100
0001
0100
0001
,
0011
0100
1001
0100
,
0010
0001
0100
0101
,
1000
1001
1001
1010
,
1010
0101
0101
1100
,
1100
0011
0011
0110
,
0110
1001
1010
0110
,
0011
0000
0000
0000
1000
0000
0000
0000
0010
0000
0000
0010
0100
0000
0000
0000
,
0001
0000
0000
0000
1000
0000
0000
1000
0010
0000
0000
0000
0100
0000
0000
0100
,
0001
0000
0000
0000
1000
0000
0000
1000
0010
0000
0000
0000
0100
0000
0001
0000
,
0100
0000
0000
0000
0010
0000
0000
0000
1000
0000
0000
1000
0100
0000
0000
0000
,
0010
0000
0000
0010
0001
0000
0000
0000
0100
0000
0000
0100
0010
0000
0000
0000
,
1000
0100
0000
0000
0100
0000
0000
0000
0010
0001
0000
0000
0001
0000
0000
0000
,
0010
0100
0000
0000
0100
0000
0000
0000
1010
0000
0000
0000
0001
0000
0001
0000
,
0000
0100
0100
0000
0011
0000
1000
0000
,
0010
0000
0100
0100
0000
0001
0000
1000
,
0000
1001
0000
0100
0000
0001
0001
0000
,
1000
0000
0010
0100
0000
0010
0000
1000
,
0000
0001
0000
0100
0001
1000
0010
0000
,
0100
0000
0010
1000
0000
0001
0000
0010
,
0000
0100
0000
1000
1000
0010
0000
0100
,
0000
0001
1000
0000
0010
0000
0000
0100
,
0000
0001
0000
0010
0000
0100
0010
1000
,
0001
1000
0010
0000
0100
0010
1000
0001
,
0100
0010
1000
0001
0100
0010
0100
0001
,
1000
0010
1000
0001
0100
0001
1000
0010
,
0100
0001
0100
0010
0000
0000
1000
0100
,
1000
0001
1000
0100
0010
0001
1000
0001
,
0010
0100
0001
0100
0001
0100
0001
1000
,
0010
1000
0010
1000
0100
0010
0001
0100
,
0001
1000
0010
0100
0001
0000
1001
0000
,
0020
0000
0130
0000
,
2000
0000
3001
0000
,
0220
0000
0330
0000
0001
0100
0001
1000
,
0000
0001
0000
1001
0000
0000
0010
0000
,
0100
0010
1000
0100
,
1000
0001
0010
0001
,
0100
0010
0100
0001
,
1000
0000
0001
0100
0100
0001
2000
0000
,
0000
0000
0000
0000
0000
3000
0002
0000
,
0000
0000
0000
0000
0000
0003
0100
0010
,
1000
0010
0000
0010
0000
0100
0000
0100
0000
0001
0000
0001
0000
0000
1000
0000
,
1000
0010
0000
0100
0000
0100
0000
0001
0000
0001
0010
0100
0000
0100
1000
0000
,
0010
0000
0100
0000
0001
0000
0010
0000
0100
0000
0100
0000
1000
0000
0000
0010
,
1000
0001
0100
0010
0100
0000
0001
0000
,
1000
0010
0100
0001
,
1000
0010
0100
0001
,
0100
1010
0110
1010
,
0000
0101
0001
0000
0010
0000
0100
0000
,
1000
0010
0001
1000
,
1001
1010
0101
1001
,
0110
0000
1010
0000
0101
0000
1000
0010
,
1000
0022
0000
0000
0000
0000
0000
0000
,
0000
0000
0033
0000
;

//---------------dance-single - ----------------
#NOTES:
     dance-single:
     :
     Easy:
     5:
     0.357267,0.479213,0.174479,0.029080,0.067853,258.000000,240.000000,18.000000,3.000000,0.000000,0.000000,0.357267,0.479213,0.174479,0.029080,0.067853,258.000000,240.000000,18.000000,3.000000,0.000000,0.000000:
0000
0000
0000
0000
,
0000
0000
0000
0000
,
0000
0000
0000
0000
,
0000
0000
0000
0000
,
1000
0010
0100
0001
,
1000
0010
0100
0001
,
0100
0010
1000
0100
,
0010
0001
0100
0010
,
1000
0000
0010
0000
0100
0001
0000
1000
,
0000
0010
0000
0100
0000
0010
0000
0100
,
0000
0000
0001
0000
1000
0010
0000
0100
,
0000
0001
0000
1000
0000
0100
0000
1000
,
0000
0000
0001
0000
0010
0100
0000
1000
,
0000
0001
0000
0010
0000
0001
0000
0100
,
0000
0000
0010
0000
1000
0100
0000
0010
,
0000
0001
0000
0100
0000
0010
0000
0000
,
1000
0010
0100
0010
,
1000
0001
0100
0010
,
0100
0001
1000
0010
,
1000
0001
0100
0001
,
0010
0001
0100
0001
,
0100
0010
0100
0001
,
0100
0010
0100
0001
,
1000
0001
0100
0010
,
0100
0001
0110
1000
,
0001
0010
0001
0110
,
1000
0001
1000
1001
,
0010
0010
0010
0100
,
0001
0100
1010
0001
,
0100
0001
1001
0100
,
0010
0001
1001
0100
,
0000
0010
0000
0000
0110
0000
0000
0000
,
1000
0000
0001
0000
,
1000
0000
0001
0000
,
1000
0000
0000
0000
0001
0000
0000
0100
,
0000
0100
0000
0100
0000
0100
0000
0000
,
0010
0100
0010
0100
,
0010
0100
0001
1000
,
0001
1000
0001
0100
,
0000
0000
0000
1001
,
0000
0110
0000
1010
,
0000
0101
0000
1001
,
0000
0110
0000
1010
,
0000
0101
0000
0010
,
1000
0001
1000
0010
,
0100
0001
1000
0001
,
0100
0001
0010
0100
,
1000
0010
0100
0000
,
0001
0000
1000
0000
,
0001
0000
0110
0000
,
1000
0000
0000
0000
0001
0000
0000
0100
,
0000
0100
0000
0100
0000
0000
0010
0000
,
1000
0010
0100
0001
,
0100
0010
1000
0010
,
0100
1000
0100
0010
,
0001
0100
0010
2002
,
0000
0000
0000
0000
,
0000
0000
0000
0000
3003
0000
0100
0100
,
0100
0000
0000
0100
0000
1000
0000
0001
0000
0001
0000
0001
0000
1000
0000
0000
,
0001
0000
0000
0010
0000
0100
0000
0010
0000
0100
0000
0000
0000
1000
0000
1000
,
0000
0000
1000
0000
0010
0000
0100
0000
0010
0000
0100
0000
0000
1000
0000
0001
,
0000
0010
0001
0010
0100
1000
0000
0000
,
0001
1000
0001
1000
,
0010
0100
0010
0100
,
0001
1000
0001
1000
,
0000
1001
0010
0000
0100
0000
0010
0000
,
0100
0010
1000
0010
,
1000
0001
0100
0001
,
1000
0100
0010
0001
,
0100
2000
0000
0000
0000
0000
0000
0000
,
0000
0000
0000
0000
0000
3000
0000
0000
;

//---------------dance-single - ----------------
#NOTES:
     dance-single:
     :
     Challenge:
     13:
     0.891784,1.127574,1.105037,0.474972,0.945097,644.000000,530.000000,114.000000,49.000000,0.000000,0.000000,0.891784,1.127574,1.105037,0.474972,0.945097,644.000000,530.000000,114.000000,49.000000,0.000000,0.000000:
0000
0000
0000
0000
,
0000
0000
0000
0000
,
0000
0000
0000
0000
,
0000
0000
0000
0000
,
1100
0000
1000
0000
1010
0000
0010
0100
0010
0000
0100
0000
0101
0000
0000
0000
,
1010
0000
0010
0000
0110
0000
0001
0100
0001
0000
0100
0000
0011
0000
1000
0000
,
1010
0000
1001
0000
0100
0000
0001
0100
0001
0000
1000
0000
1100
0000
0000
0000
,
0001
0001
0000
0000
0010
0010
0000
0000
0100
0100
0000
0000
1001
0010
0100
0001
,
1001
0000
0001
1000
0001
0101
0000
2020
,
3030
0202
0303
2020
3030
0100
0001
0101
,
1000
0001
1010
1000
0101
0010
0000
1001
,
0000
1010
0000
0110
0000
0001
0100
0101
,
0001
1000
1010
0010
0110
1000
0000
1001
,
0000
0100
0110
0010
1010
1000
1001
0001
,
0101
0000
0100
0000
0110
0000
1000
0000
0010
1000
0010
0000
0100
0000
0101
0000
,
0000
0110
0000
1010
0000
1001
0100
0010
,
0110
0000
0000
0001
0010
0001
0000
0100
0010
0100
0000
0010
0100
0010
0000
1000
,
0010
1000
0000
0010
1000
0010
0000
0100
0001
0100
0000
0001
0100
0001
0000
1000
,
0100
1000
0000
0100
1000
0100
0000
0001
0010
0001
0000
0010
0001
0010
0000
0100
,
1000
0100
0000
0010
0100
0010
0000
0100
0001
0100
0000
0001
0100
0001
0000
1000
,
0010
1000
0000
0010
1000
0010
0000
0100
0001
0100
0000
0001
0100
0001
0000
0010
,
0100
0010
0000
0100
0010
0100
0000
0001
1000
0001
0000
0100
0010
0100
0000
0001
,
0100
0001
0000
0010
1000
0010
0000
1000
0001
1000
0000
0100
0010
0100
0000
0001
,
1000
0001
0000
1000
0001
0000
0000
0000
2020
0000
3030
0000
0220
0000
0330
0000
,
0022
0000
0033
1000
0100
1000
0000
1000
0100
1000
0000
0001
1000
0001
0000
0001
,
1000
0001
0000
0100
0001
0100
0000
0100
0001
0100
0000
0001
0010
0001
0000
0001
,
0010
0001
0000
0001
0100
0001
0000
0100
0001
0100
0000
0010
1000
0000
0001
0000
,
1000
0000
0000
0000
0110
0000
0000
0000
0110
0000
0000
0001
1000
0001
0000
0001
,
1000
0001
0000
0001
1000
0001
0000
0100
0010
0100
0000
0100
0010
0100
0000
0100
,
0010
0100
0000
0010
1000
0010
0000
0010
1000
0010
0000
0010
1000
0010
0000
0100
,
0001
0100
0000
0100
0001
0100
0000
0100
0001
0100
0000
0000
0010
0000
1010
0000
,
0000
0100
0101
0000
1001
0000
2000
0000
,
3010
0000
1001
1001
0000
0022
0033
0220
,
0330
2020
3030
0201
0000
0301
0001
0000
,
2000
0000
3010
0010
0000
0220
0330
2002
,
3003
0000
0202
0000
0303
0000
1000
0000
0001
0000
0100
0000
0010
1000
0000
0000
,
0001
0000
0100
0110
0000
0022
0033
2020
,
3030
2002
3003
1100
0001
1001
0000
0100
,
0001
0101
0010
1010
0100
0110
0000
0022
,
0033
2020
3030
0220
0330
0110
0001
0010
,
0100
0000
1000
0000
0010
0000
0100
0000
0010
0000
1000
0001
0100
0000
0010
0000
,
0100
0000
0001
0000
1000
0000
0010
0000
0100
0000
0001
0100
0001
0000
1000
0000
,
0100
0000
1000
0000
0001
0000
0010
0000
0100
0000
1000
0010
1000
0000
1010
0000
,
0001
0101
0001
1001
0000
0000
0010
0100
,
0001
0000
1000
0000
0010
0000
0100
0000
0001
0000
0010
0100
1000
0000
0001
0000
,
0100
0000
0010
0000
1000
0000
0001
0000
1000
0000
0100
0010
0100
0000
0010
0000
,
0001
0000
1000
0000
0010
0000
0100
0000
0001
0000
0010
0100
0010
0000
0100
0000
,
1000
0001
0101
0010
1010
0000
1001
0000
,
0020
0100
0230
0001
,
0302
1000
2003
0010
,
3020
0000
0000
0000
0130
0000
0000
0000
0001
0100
0001
0100
0001
0000
0100
0000
,
0000
0110
0000
1100
0000
0000
0011
0000
,
0110
0000
1100
0010
0110
0000
0011
0000
,
0110
0000
1100
0010
0110
0000
0011
0000
,
0101
0000
1010
0001
0101
0000
1010
0000
,
0101
0000
0000
0000
1000
0010
0100
0001
0100
0010
1000
0001
0200
0000
0000
0000
,
0000
0000
0000
0000
0000
0300
2020
0000
,
0000
0000
0000
0000
0000
3030
0100
0001
,
1000
1010
0000
0110
0000
0101
0000
1100
0000
0011
0000
0101
0000
0000
0001
0000
,
1000
1010
0000
0101
0000
0110
0000
1001
0000
0010
0100
0110
0000
0101
0000
0010
,
1010
0000
0101
0000
0110
0000
0101
0000
1100
0000
0110
0000
0011
0000
0000
1000
,
1001
0000
0101
0000
0011
0000
0110
0000
0010
1000
1010
0000
0000
0000
0000
0100
,
0001
0100
0000
0100
0001
0100
0000
0010
1000
0010
0000
0010
1000
0010
0000
0100
,
0010
0100
0000
0100
0010
0100
0000
0001
1000
0001
0000
0001
1000
0001
0000
0100
,
0010
0100
0000
0100
0010
0100
0000
0001
0100
0001
0000
0001
0100
0001
0100
0000
,
0000
0000
1001
0010
0100
0010
0000
0100
0010
0100
0000
0010
0100
0010
0000
0100
,
0010
0100
0000
0001
1000
0001
0000
1000
0001
1000
0000
0010
1000
0010
0000
1000
,
0010
1000
0000
0001
0100
0001
0000
0100
0001
0100
0000
0010
1000
0010
0000
1000
,
0010
1000
0000
0010
0100
0010
0000
0100
0010
0100
0001
0000
1000
0010
0100
0001
,
1000
0001
0220
0000
0000
0000
0000
0000
0000
0000
0000
0000
0000
0000
0000
0000
,
0000
0000
0330
0000
;
