#TITLE:Lolitabot (Disko Warp Radio Edit);
#SUBTITLE:;
#ARTIST:Lolitabot;
#TITLETRANSLIT:;
#SUBTITLETRANSLIT:;
#ARTISTTRANSLIT:;
#GENRE:;
#CREDIT:SupremeX;
#BANNER:Lolitabot.png;
#BACKGROUND:Lolitabot-bg.png;
#LYRICSPATH:;
#CDTITLE:CDTitle.png;
#MUSIC:Lolitabot (Disko Warp Radio Edit).ogg;
#OFFSET:-0.404047;
#SAMPLESTART:44.160000;
#SAMPLELENGTH:12.000000;
#SELECTABLE:YES;
#BPMS:0.000000=178.000000
;
#STOPS:
;
#BGCHANGES:16.000=bagpipe1.avi=1.000=0=0=1=====,
22.500=bagpipe2.avi=1.000=0=0=1=====,
32.000=cards1.avi=1.000=0=0=1=====,
41.000=cards2.avi=1.000=0=0=1=====,
48.500=cards4.avi=1.000=0=0=1=====,
56.500=cards5.avi=1.000=0=0=1=====,
64.000=circle10.avi=1.000=0=0=1=====,
72.000=bagpipe1.avi=1.000=0=0=1=====,
80.000=bagpipe2.avi=1.000=0=0=1=====,
88.000=cards1.avi=1.000=0=0=1=====,
96.000=cards5.avi=1.000=0=0=1=====,
104.000=cards7.avi=1.000=0=0=1=====,
112.000=cards2.avi=1.000=0=0=1=====,
120.000=cards4.avi=1.000=0=0=1=====,
128.000=circle10.avi=1.000=0=0=1=====,
130.000=cards4.avi=1.000=0=0=1=====,
137.000=cards2.avi=1.000=0=0=1=====,
146.000=cards1.avi=1.000=0=0=1=====,
154.000=cards7.avi=1.000=0=0=1=====,
162.000=cards2.avi=1.000=0=0=1=====,
170.000=cards1.avi=1.000=0=0=1=====,
178.000=cards4.avi=1.000=0=0=1=====,
186.000=cards5.avi=1.000=0=0=1=====,
197.000=bagpipe1.avi=1.000=0=0=1=====,
205.000=bagpipe2.avi=1.000=0=0=1=====,
213.000=bagpipe1.avi=1.000=0=0=1=====,
221.000=bagpipe2.avi=1.000=0=0=1=====,
227.500=Lolitabot-bg.png=1.000=0=0=1=====,
99999=-nosongbg-=1.000=0=0=0 // don't automatically add -songbackground-
;
#KEYSOUNDS:;
#ATTACKS:;

//---------------dance-single - ----------------
#NOTES:
     dance-single:
     :
     Hard:
     8:
     0.532503,0.596696,0.012343,0.012343,0.000000,302.000000,301.000000,1.000000,1.000000,0.000000,0.000000,0.532503,0.596696,0.012343,0.012343,0.000000,302.000000,301.000000,1.000000,1.000000,0.000000,0.000000:
0000
0000
0000
0000
,
0000
0000
0000
0000
,
0000
0000
0000
0000
,
0000
0000
0000
0000
,
0001
0000
0100
0010
0100
0010
0000
1000
,
0000
0010
0100
0010
0100
0001
0000
1000
,
0000
0001
0010
0100
1000
0000
0010
0000
,
0100
0000
0001
0200
0000
0000
0000
0300
,
0010
0000
1000
0100
0010
0001
0100
0000
,
0000
0000
0001
1000
0001
0100
0010
1000
,
0000
0000
0001
0010
0100
1000
0010
0100
,
0000
0000
0001
1000
0001
0100
0010
1000
,
0000
0001
0100
0001
1000
0100
0010
0001
,
0000
0000
1000
0001
0100
0010
0100
0001
,
0000
0000
1000
0100
0010
0001
0100
0010
,
0000
0000
1000
0010
1000
0001
0100
0010
,
1000
0001
1000
0010
0100
0001
0100
0010
,
1000
0010
0100
0001
1000
0000
0000
0000
,
0010
1000
0001
1000
0010
0100
0010
1000
,
0001
0100
0001
1000
0010
0000
0000
0000
,
1000
0100
0010
0001
0100
0010
0100
0001
,
1000
0010
1000
0001
0100
0000
0000
0000
,
0001
0100
0010
0100
0001
1000
0010
1000
,
0001
0000
0100
0000
0001
0100
0010
0000
,
1000
0001
0100
0010
,
1000
0001
0000
1001
0000
0000
0000
0000
,
1000
0100
0010
0001
0100
0010
0100
0001
,
1000
0100
0010
0001
0000
0000
0000
0000
,
1000
0010
0100
0001
,
1000
0010
0100
0001
0000
0000
0000
0000
,
0100
0001
0100
0010
1000
0000
0001
0000
,
0100
0001
0100
0010
1000
0001
0100
0000
,
0010
0000
1000
0000
0001
0100
0010
1000
,
0000
0000
0001
0000
0100
0000
0010
1000
,
0000
0000
0010
0000
0100
0001
1000
0001
,
0000
0100
0010
1000
0100
0010
0001
0100
,
0000
0000
0001
0000
1000
0010
0100
0001
,
0000
0000
1000
0000
0001
0000
0100
0010
,
0000
1000
0010
0000
0100
0001
1000
0001
,
0000
0100
0010
1000
0001
1000
0010
0100
,
0000
0000
0001
0000
1000
0010
0100
0001
,
0000
0000
1000
0000
0010
0000
0100
0010
,
0000
0000
1000
0000
0001
0010
0100
1000
,
0000
0000
0010
0100
0010
1000
0001
1000
,
0000
0000
0010
0000
1000
0100
0010
0001
,
0000
0000
0100
0000
0010
0000
1000
0001
,
0000
0100
0001
0000
1000
0010
0100
0001
,
0000
0100
0010
1000
0100
0010
0001
0100
,
0000
0000
0010
0000
1000
0001
1000
0010
,
0000
0000
1000
0100
0010
0001
0100
0010
,
0000
0000
1000
0001
0100
0001
1000
0010
,
0000
0000
0100
0010
1000
0010
0100
0001
,
0000
1000
0100
0010
0001
0100
0010
1000
,
0000
0000
0001
0010
0100
1000
0010
0100
,
0000
0000
0001
1000
0010
0100
0001
1000
,
0000
0000
0010
0100
0001
1000
0010
0100
,
0000
0000
0001
0010
0100
1000
0010
0100
;

//---------------dance-single - ----------------
#NOTES:
     dance-single:
     :
     Medium:
     6:
     0.398496,0.456297,0.000000,0.012343,0.000000,226.000000,226.000000,0.000000,1.000000,0.000000,0.000000,0.398496,0.456297,0.000000,0.012343,0.000000,226.000000,226.000000,0.000000,1.000000,0.000000,0.000000:
0000
0000
0000
0000
,
0000
0000
0000
0000
,
0000
0000
0000
0000
,
0000
0000
0000
0000
,
0001
0000
0100
0000
0001
1000
0000
1000
,
0000
0000
0001
0000
0100
0001
0000
1000
,
0000
0010
0100
0001
,
1000
0000
0010
0200
0000
0000
0000
0300
,
0001
0000
1000
0000
0010
0100
0010
0000
,
0000
0000
1000
0000
0001
0100
0001
0100
,
0000
0000
0010
0000
1000
0000
0010
0100
,
0000
0000
0001
0000
1000
0010
0100
0010
,
0000
0000
1000
0000
1000
0000
0001
0100
,
0000
0000
0010
0000
0100
0000
0100
0001
,
0000
0000
1000
0000
0010
0000
1000
0010
,
0000
0000
0100
0000
0001
0100
0001
0000
,
1000
0010
1000
0001
,
0100
0000
0010
1000
0010
0000
0000
0000
,
1000
0010
1000
0001
,
0100
0000
0001
1000
0001
0000
0000
0000
,
0100
0001
1000
0001
,
0100
0000
0001
1000
0001
0000
0000
0000
,
0100
0000
0100
0000
0001
1000
0001
0000
,
1000
0000
0010
0000
0100
0001
0100
0000
,
0010
1000
0010
0100
,
0001
0100
0000
0010
0000
0000
0000
0000
,
1000
0001
0100
0100
,
0010
0000
1000
0010
0000
0000
0000
0000
,
0100
0001
0100
0001
,
1000
0000
0010
1000
0000
0000
0000
0000
,
0001
0001
0100
0100
,
0010
0010
1000
0010
,
1000
0000
0001
0000
0100
0010
0100
0010
,
0000
0000
1000
0000
0001
0000
0100
0100
,
0000
0000
0010
0000
1000
0000
0001
1000
,
0000
0000
0010
0000
0100
0010
0000
0100
,
0000
0000
0001
0000
1000
0010
1000
0010
,
0000
0000
0100
0000
0001
0000
0100
0010
,
0000
0100
0010
0000
1000
0000
0001
1000
,
0000
0000
0010
0000
0001
0100
0001
0100
,
0000
0000
0010
0000
1000
0010
1000
0010
,
0000
0000
0001
0000
0100
0000
0100
0001
,
0000
0000
1000
0000
0001
0000
0100
0010
,
0000
0000
1000
0000
0001
0000
1000
0001
,
0000
0000
0010
0000
0100
0000
0010
1000
,
0000
0000
0001
0000
0100
0000
0010
0100
,
0000
0001
1000
0000
0010
0100
0010
0100
,
0000
0010
0000
1000
0001
1000
0001
0100
,
0000
0000
0010
0000
0100
0010
0100
0010
,
0000
0000
1000
0000
0010
0000
0100
0001
,
0000
0000
1000
0000
0010
0000
0100
0001
,
0000
0000
0100
0000
0010
1000
0001
1000
,
0000
0000
0010
0000
0100
0001
0100
0001
,
0000
0000
0010
0000
1000
0000
0010
1000
,
0000
0000
0001
0000
0100
0000
0010
0100
,
0000
0000
0001
0000
1000
0000
0010
0100
,
0000
0000
0001
0000
0100
0000
0010
1000
;

//---------------dance-single - ----------------
#NOTES:
     dance-single:
     :
     Easy:
     4:
     0.285647,0.315898,0.000000,0.012343,0.000000,162.000000,162.000000,0.000000,1.000000,0.000000,0.000000,0.285647,0.315898,0.000000,0.012343,0.000000,162.000000,162.000000,0.000000,1.000000,0.000000,0.000000:
0000
0000
0000
0000
,
0000
0000
0000
0000
,
0000
0000
0000
0000
,
0000
0000
0000
0000
,
0001
0100
0001
0000
,
1000
0010
1000
0000
,
0001
0100
0001
0000
,
1000
0000
0001
0000
,
0100
0100
0010
0000
,
0000
1000
1000
0001
,
0000
0100
0100
0010
,
0000
1000
0001
1000
,
0000
0010
0010
1000
,
0000
0001
0001
0100
,
0000
0010
0010
1000
,
0000
0001
0100
0010
,
1000
0100
0010
0001
,
1000
0001
1000
0000
,
0001
0010
0100
1000
,
0001
1000
0001
0000
,
1000
0100
0010
0001
,
0100
0010
0100
0000
,
0001
0100
0001
1000
,
0010
0100
0001
1000
,
0010
0100
0001
0000
,
1000
0000
0000
1000
0000
0000
0000
0000
,
0010
0100
0010
0000
,
0100
0000
0001
0000
,
1000
0010
0100
0000
,
0001
0100
0000
0000
,
0010
1000
0010
0000
,
0100
0001
0100
0000
,
0020
0000
0000
0030
0000
0000
0000
0000
,
1000
0000
0000
0000
0001
0000
0000
0100
,
0000
0000
0000
0000
0010
0000
0000
1000
,
0000
0000
0000
0000
0001
0000
0000
0100
,
0000
0000
0010
1000
,
0000
0000
0001
0000
0100
0000
0000
0001
,
0000
0000
1000
0010
,
0000
0000
0100
0010
,
0000
1000
0001
0100
,
0000
0001
1000
0010
,
0100
0001
1000
0010
,
0010
0100
0001
0100
,
0001
1000
0010
0100
,
0000
0000
0001
0000
1000
0000
0000
0001
,
0000
0000
0100
0010
,
0000
0100
0000
0010
,
0000
0100
0010
0100
,
0000
0001
1000
0001
,
1000
0010
1000
0010
,
0100
0010
0100
0010
,
0100
0001
0100
0001
,
1000
0010
1000
0010
,
0100
0001
0100
0001
,
0100
0010
0100
0010
,
1000
0000
0010
0000
1000
0000
0010
0100
;

//---------------dance-single - Copied from----------------
#NOTES:
     dance-single:
     Copied from:
     Beginner:
     2:
     0.093453,0.103679,0.000000,0.000000,0.000000,53.000000,53.000000,0.000000,0.000000,0.000000,0.000000,0.093453,0.103679,0.000000,0.000000,0.000000,53.000000,53.000000,0.000000,0.000000,0.000000,0.000000:
0000
0000
0000
0000
,
0000
0000
0000
0000
,
0000
0000
0000
0000
,
0000
0000
0000
0000
,
0001
0000
0000
0000
,
1000
0000
0000
0000
,
0001
0000
0000
0000
,
1000
0000
0000
0000
,
0010
0000
0000
0000
,
0010
0000
0000
0000
,
0010
0000
0000
0000
,
0010
0000
0000
0000
,
0100
0000
0000
0000
,
0100
0000
0000
0000
,
0100
0000
0000
0000
,
0100
0000
0000
0000
,
0001
0000
0000
0000
,
0001
0000
0000
0000
,
1000
0000
0000
0000
,
1000
0000
0000
0000
,
0001
0000
0000
0000
,
0001
0000
0000
0000
,
1000
0000
0000
0000
,
1000
0000
0000
0000
,
0010
0000
0000
0000
,
0010
0000
0000
0000
,
0100
0000
0000
0000
,
0100
0000
0000
0000
,
0010
0000
0000
0000
,
0010
0000
0000
0000
,
0100
0000
0000
0000
,
0100
0000
0000
0000
,
0000
0000
0000
0000
0000
0000
0000
0001
,
0000
0000
0000
0000
0000
0000
0000
1000
,
0000
0000
0000
0000
0000
0000
0000
0001
,
0000
0000
0000
0000
0000
0000
0000
1000
,
0000
0000
0000
0000
0000
0000
0000
0001
,
0000
0000
0000
0000
0000
0000
0000
1000
,
0000
0000
0000
0000
0000
0000
0000
0001
,
0000
0000
0000
0000
0000
0000
0000
1000
,
0000
0000
0000
0000
0000
0000
0000
0010
,
0000
0000
0000
0000
0000
0000
0000
0100
,
0000
0000
0000
0000
0000
0000
0000
0010
,
0000
0000
0000
0000
0000
0000
0000
0100
,
0000
0000
0000
0000
0000
0000
0000
0010
,
0000
0000
0000
0000
0000
0000
0000
0100
,
0000
0000
0000
0000
0000
0000
0000
0010
,
0000
0000
0000
0000
0000
0000
0000
0100
,
0000
0000
0000
0000
0000
0000
0000
0010
,
0000
1000
0000
0000
,
0000
1000
0000
0000
,
0000
0001
0000
0000
,
0000
0001
0000
0000
,
0000
1000
0000
0000
,
0000
1000
0000
0000
,
0001
0000
0000
0000
,
0001
0000
0000
0000
;
