#TITLE:Ladybug;
#SUBTITLE:;
#ARTIST:Coconut;
#TITLETRANSLIT:;
#SUBTITLETRANSLIT:;
#ARTISTTRANSLIT:;
#GENRE:;
#CREDIT:SupremeX;
#BANNER:Ladybug.png;
#BACKGROUND:Ladybug-bg.png;
#LYRICSPATH:;
#CDTITLE:CDTitle.png;
#MUSIC:Ladybug.ogg;
#OFFSET:0.027615;
#SAMPLESTART:39.692001;
#SAMPLELENGTH:12.000000;
#SELECTABLE:YES;
#BPMS:0.000000=133.009995
;
#STOPS:
;
#BGCHANGES:0.000=Ladybug.avi=1.000=0=0=1=====,
99999=-nosongbg-=1.000=0=0=0 // don't automatically add -songbackground-
;
#KEYSOUNDS:;
#ATTACKS:;

//---------------dance-single - ----------------
#NOTES:
     dance-single:
     :
     Hard:
     9:
     0.510640,0.533504,0.074691,0.000000,0.224072,335.000000,328.000000,7.000000,0.000000,0.000000,0.000000,0.510640,0.533504,0.074691,0.000000,0.224072,335.000000,328.000000,7.000000,0.000000,0.000000,0.000000:
0000
0000
0000
0000
,
0000
0000
0000
0000
,
1000
0000
0010
0000
1000
0000
0000
0000
0001
0100
0001
0100
0001
0000
0001
0000
,
1000
0000
0010
0000
1000
0000
0000
0000
0010
0100
0010
0100
0010
0000
0010
0000
,
0100
0000
0001
0000
0100
0000
0000
0000
0001
0010
0001
0010
0001
0000
0001
0000
,
0000
0000
1000
1000
0000
0000
0010
0010
,
1000
0000
0100
0000
1000
0000
0000
0000
0001
0100
0001
0100
0001
0000
0001
0000
,
0100
0000
0010
0000
0100
0000
0000
0000
1000
0010
1000
0010
1000
0000
1000
0000
,
0001
0000
0100
0000
0001
0000
0000
0000
0100
0010
0100
0010
0100
0000
0100
0000
,
0000
0000
0001
0001
0000
0000
1000
1000
,
0001
0100
0001
0100
0010
1000
0010
0000
,
0100
0001
0100
0001
,
1000
0010
1000
0010
0100
0001
0100
0000
,
0000
0001
0010
0000
1000
0000
1000
0000
,
0010
0100
0010
0100
0001
0010
0001
0000
,
1000
0001
1000
0100
,
0001
0010
0001
0010
1000
0100
1000
0000
,
0001
0000
0010
0000
0001
1000
1000
0010
,
0001
0100
1000
0001
,
1000
0000
0010
0100
0000
0000
0000
1000
,
0001
0010
0100
0010
1000
0000
1010
0000
,
1001
0000
0110
0101
,
0001
0000
0001
0010
0001
0000
0001
0000
1000
0100
1000
0100
1000
0000
1000
0000
,
0001
0001
1000
1000
,
0100
0000
0100
0001
0100
0000
0100
0000
0010
1000
0010
1000
0010
0000
0010
0000
,
0000
1000
0010
1000
0000
0001
0100
0001
,
1000
0000
1000
0001
1000
0000
1000
0000
0010
0100
0010
0100
0010
0000
0010
0000
,
1000
0010
0100
0001
,
1000
0000
1000
0001
1000
0000
1000
0000
0010
0100
0010
0100
0010
0000
0010
0000
,
0000
1000
0010
1000
0000
0001
0100
0001
,
1000
0000
0010
0000
0100
0010
0100
0001
,
1000
0010
1000
0001
0010
0100
1000
0000
,
0001
0000
0000
0001
0000
0000
0001
0000
0010
0000
0100
0000
0000
0000
0000
0000
,
1000
0000
0000
1000
0010
0100
0010
0100
,
0001
0010
0100
1000
0010
0100
0010
0000
,
1000
0100
0010
0001
0100
0010
1000
0100
,
0001
0000
0000
0001
0000
0000
0001
0000
0010
0000
0100
0000
0000
0000
0000
0000
,
1000
0000
0000
1000
0100
0000
1000
0001
,
0001
0000
1000
0000
0010
0000
0100
0010
,
0001
1000
0010
0100
0000
0000
0000
0001
,
0001
0010
0100
1000
0010
0000
0110
0000
,
0101
0000
0010
1000
,
0010
0000
0100
0010
0100
0000
0100
0000
0001
1000
0001
1000
0001
0000
0001
0000
,
1000
0000
0000
0000
0001
0000
0000
0000
0100
0010
0100
0010
0100
0000
0000
0000
,
0001
0000
0001
0100
0001
0000
0001
0000
1000
0010
1000
0010
1000
0000
1000
0000
,
0000
0001
0100
0001
0000
1000
0001
0100
,
0010
0000
1000
0100
1000
0000
1000
0000
0001
0010
0001
0010
0001
0000
0001
0000
,
1000
0000
0000
0000
0100
0000
0000
0000
0010
0100
0010
0100
0010
0000
0000
0000
,
1000
0000
1000
0100
1000
0000
1000
0000
0001
0010
0001
0010
0001
0000
0001
0000
,
0000
1000
0010
1000
0000
0001
0100
0001
,
1001
0000
0000
0000
;

//---------------dance-single - ----------------
#NOTES:
     dance-single:
     :
     Medium:
     6:
     0.323151,0.346778,0.106701,0.021340,0.000000,212.000000,202.000000,10.000000,2.000000,0.000000,0.000000,0.323151,0.346778,0.106701,0.021340,0.000000,212.000000,202.000000,10.000000,2.000000,0.000000,0.000000:
0000
0000
0000
0000
,
0000
0000
0000
0000
,
1000
0000
1000
0000
0001
0001
0010
0010
,
0100
0000
0100
0000
1000
1000
0100
0100
,
0001
0000
0001
0000
0010
0010
1000
1000
,
0000
0001
0000
1000
,
0010
0000
0010
0000
0100
0100
0010
0010
,
1000
0000
1000
0000
0001
0001
1000
1000
,
0010
0000
0010
0000
0100
0100
0001
0001
,
0000
1000
0000
0010
,
1000
0000
0001
0000
0010
0100
0010
0000
,
1000
0000
0001
0000
,
0010
0000
0100
0000
1000
0010
1000
0000
,
0000
0001
0010
0000
1000
0000
1000
0000
,
0010
0000
0010
0000
0100
0001
0100
0000
,
0001
0000
1000
0000
,
0010
0000
0100
0000
0001
0100
0001
0000
,
1000
0000
0000
0000
0001
1000
1000
0000
,
0001
0100
0001
0100
,
0001
0000
1000
1000
0000
0000
0000
1000
,
0001
0001
1000
0001
,
1001
0000
0100
0010
,
0001
0000
0100
0000
1000
0010
1000
0010
,
0000
0001
1000
0001
,
0010
0000
1000
0000
0001
0100
0001
0100
,
0000
0110
0000
0110
,
0100
0000
1010
0000
0001
0100
0001
0100
,
0010
1000
0010
1000
,
0001
0000
0001
0000
0100
0010
0100
0010
,
0000
1000
0000
0001
,
1000
0010
0100
0001
,
1000
0000
1001
0000
1000
0010
1000
0000
,
0002
0000
0000
0003
0010
0100
0000
0000
,
1000
0000
0000
1000
0010
0000
0100
0000
,
0001
1000
0010
0100
,
0001
1000
0010
0101
,
0002
0000
0000
0003
0010
0100
0000
0000
,
1000
0000
0100
0100
,
0001
1000
0010
0100
,
0001
1001
0000
0000
,
1000
0010
1000
1010
,
1001
0000
0001
1000
,
0010
0000
0100
0000
0001
0010
0001
0010
,
0001
1000
0010
0100
,
0001
1000
0001
1000
0010
0000
0100
0000
,
0000
0001
0000
1000
,
0001
0000
0001
0000
1000
0100
1000
0100
,
0001
0010
0100
0010
,
1000
0000
1000
0000
0001
0100
0001
0100
,
0000
1000
0000
0001
,
1001
0000
0000
0000
;

//---------------dance-single - ----------------
#NOTES:
     dance-single:
     :
     Easy:
     3:
     0.237790,0.240077,0.000000,0.000000,0.000000,156.000000,156.000000,0.000000,0.000000,0.000000,0.000000,0.237790,0.240077,0.000000,0.000000,0.000000,156.000000,156.000000,0.000000,0.000000,0.000000,0.000000:
0000
0000
0000
0000
,
0000
0000
0000
0000
,
1000
0000
0001
0001
,
0100
0000
0010
0010
,
1000
0000
0001
0001
,
0000
0100
0000
0100
,
0010
1000
0001
0001
,
0100
0010
1000
1000
,
0100
0010
0001
0001
,
0000
1000
0000
0010
,
1000
0001
0100
0010
,
0000
1000
0000
0001
,
0100
0010
0100
1000
,
0000
0001
0001
0001
,
0100
0001
0100
0100
,
0010
1000
0010
1000
,
0001
0100
0001
0001
,
0000
1000
0000
0010
,
0100
0001
1000
0001
,
0010
0000
0000
1000
0000
0000
0000
0000
,
0100
0010
0001
1000
,
0001
0000
1000
1000
,
0010
0100
0001
0001
,
0000
1000
0000
0001
,
1000
0010
0100
0100
,
0000
0001
0000
0001
,
1000
0010
0100
0100
,
0000
0001
0000
1000
,
0010
0100
0010
0010
,
0000
0100
0000
0100
,
0001
1000
0001
0001
,
1000
0001
1000
1000
,
0010
0100
0010
0000
,
1000
0000
0001
0100
,
0010
0100
0010
0010
,
0100
0010
0100
0100
,
0001
0000
0001
0000
,
1000
0000
0001
0001
,
0100
1000
0010
0100
,
0001
0000
0000
0001
0000
0000
0000
0000
,
1000
0010
1000
0001
,
0100
0000
0001
0001
,
0010
1000
0100
0100
,
0010
0100
0010
0100
,
0001
1000
0001
0001
,
0000
1000
0000
1000
,
0010
0100
0001
0001
,
0000
1000
0000
0010
,
1000
0010
0100
0100
,
0000
0001
0000
0010
,
1000
0000
0000
0000
;

//---------------dance-single - Copied from----------------
#NOTES:
     dance-single:
     Copied from:
     Beginner:
     2:
     0.137187,0.132709,0.000000,0.000000,0.000000,90.000000,90.000000,0.000000,0.000000,0.000000,0.000000,0.137187,0.132709,0.000000,0.000000,0.000000,90.000000,90.000000,0.000000,0.000000,0.000000,0.000000:
0000
0000
0000
0000
,
0000
0000
0000
0000
,
0010
0000
0100
0000
,
0010
0000
0100
0000
,
0001
0000
1000
0000
,
0000
0001
0000
0001
,
0100
0000
0010
0000
,
0100
0000
0010
0000
,
0100
0000
0010
0000
,
0000
1000
0000
1000
,
0001
0000
0001
0000
,
0000
0100
0000
0100
,
0010
0000
0010
0000
,
0000
1000
0000
0000
,
0001
0000
0001
0000
,
1000
0000
0010
0000
,
0100
0000
0100
0000
,
0000
0001
0000
0001
,
0010
0000
0010
0000
,
1000
0000
0000
1000
0000
0000
0000
0000
,
0100
0000
0010
0000
,
0100
0000
0001
0000
,
1000
0000
1000
0000
,
0000
0010
0000
0100
,
0000
0001
0000
0001
,
0000
0100
0000
0010
,
0000
1000
0000
1000
,
0000
0010
0000
0100
,
0000
0001
0000
0001
,
0000
0010
0000
1000
,
0000
0100
0000
0010
,
0000
0010
0000
0100
,
0000
0000
0001
0000
,
0000
0000
0100
0000
,
0010
0000
0010
0000
,
0100
0000
0100
0000
,
1000
0000
0000
0000
,
0001
0000
0000
0000
,
0010
0000
0100
0000
,
0010
0000
0100
0000
,
0001
0000
1000
0000
,
0001
0000
0000
0000
,
1000
0000
1000
0000
,
0001
0000
0001
0000
,
0100
0000
0100
0000
,
0000
0010
0000
0010
,
0000
0100
0000
0100
,
0000
0001
0000
0001
,
0000
1000
0000
1000
,
0000
0010
0000
0010
;
